#VERSION:0.83;
#TITLE:D.E.A.L. Breaker Intro (Extended);
#SUBTITLE:;
#ARTIST:Ikralu;
#TITLETRANSLIT:;
#SUBTITLETRANSLIT:;
#ARTISTTRANSLIT:;
#GENRE:;
#CREDIT:Graphics made by TonyAkita;
#MUSIC:D.E.A.L. Breaker Intro (Extended).ogg;
#BANNER:D.E.A.L. Breaker Intro (Extended).png;
#BACKGROUND:D.E.A.L. Breaker Intro (Extended)-bg.png;
#CDTITLE:;
#SAMPLESTART:30.027;
#SAMPLELENGTH:15.000;
#SELECTABLE:YES;
#OFFSET:3.420;
#BPMS:0.000=50.000
,18.896=100.000
,184.000=200.000
,185.000=181.000
,185.250=170.000
,185.500=158.000
,185.750=146.000
,186.000=132.000
,186.250=119.000
,186.500=106.000
,186.750=100.000
;
#STOPS:18.896=0.522;
#JACKET:D.E.A.L. Breaker Intro (Extended)-jacket.png;
#BGCHANGES:;
#FGCHANGES:;

//--------------- dance-single - forcednature ----------------
#NOTEDATA:;
#STEPSTYPE:dance-single;
#DESCRIPTION:forcednature;
#DIFFICULTY:Beginner;
#METER:4;
#RADARVALUES:0,0,0,0,0;
#NOTES:
0000
0000
0000
0000
,
0000
0000
0000
0000
,
0000
0000
0000
0000
,
0000
0000
0000
0000
,
0000
0000
0000
0000
,
0001
0000
1000
0000
,
0001
0000
0000
0000
,
0100
0000
0010
0000
,
0100
0000
0000
0000
,
1001
0000
0000
0000
,
1000
0000
0000
0000
,
0100
0000
0000
0000
,
0010
0000
0000
0000
,
1001
0000
0000
0000
,
0001
0000
0000
0000
,
0100
0000
0000
0000
,
0010
0000
0000
0000
,
0110
0000
0000
0000
,
0001
0000
0000
0000
,
1000
0000
0000
0000
,
0100
0000
0000
0000
,
0110
0000
0000
0000
,
1000
0000
0000
0000
,
0001
0000
0000
0000
,
0100
0000
0000
0000
,
0020
0000
0000
0030
,
0000
1000
0000
0001
,
0000
1000
0000
0001
,
0000
0100
0000
0010
,
0000
0100
0000
0010
,
0000
1000
0000
0001
,
0000
1000
0000
0001
,
0000
0010
0000
0100
,
0000
0010
0100
0000
,
1000
0000
0001
0000
,
0100
0000
0001
0000
,
1000
0000
0000
0000
,
0001
0000
0000
0000
,
1000
0000
0100
0000
,
0010
0000
0001
0000
,
0100
0000
0000
0000
,
0010
0000
0100
0000
,
0002
0000
0000
0000
,
1000
0000
0000
0000
,
1000
0000
1000
0000
,
1003
0001
1000
0001
,
0000
0000
0000
1000
,
0010
0100
0001
1000
,
0010
0100
0001
1000
,
0100
0010
0001
1000
,
0100
0010
0001
0100
,
0001
1000
0100
0010
,
0001
1000
0010
0100
,
0100
0000
0010
0000
0010
0000
1000
0001
,
1000
0001
1000
0001
1000
0001
1000
0000
;

//--------------- dance-single - forcednature ----------------
#NOTEDATA:;
#STEPSTYPE:dance-single;
#DESCRIPTION:forcednature;
#DIFFICULTY:Easy;
#METER:8;
#RADARVALUES:0,0,0,0,0;
#NOTES:
0000
0000
0000
0000
,
0000
0000
0000
0000
,
0000
0000
0000
0000
,
0000
0000
0000
0000
,
0000
0000
0000
0000
,
0001
1000
0010
0000
0100
0000
0001
0000
,
1000
0100
0010
0000
0100
0000
1000
0000
,
0001
0010
0001
0000
1000
0000
0001
0000
,
0100
0001
1000
0000
0010
0010
0010
0000
,
0100
0001
0010
0000
0100
0000
1000
0000
,
0100
1000
0001
0000
0100
0000
0001
0000
,
1000
0010
0100
0000
0001
0000
0010
0000
,
0100
1000
0001
0000
0010
0010
0010
0000
,
0001
1000
0010
0000
0100
0000
0001
0000
,
1000
0100
0010
0000
0100
0000
1000
0000
,
0001
0010
0100
0000
0010
0000
0001
0000
,
1000
0000
0001
0000
0100
0000
0000
0000
0010
0000
0000
0010
0000
0100
0000
0000
,
1001
0000
1000
0000
0001
0100
0001
1000
,
0010
0000
1000
0000
0100
0010
0001
0010
,
0100
0000
1000
0000
0001
1000
0100
1000
,
0001
0000
0100
0000
0010
0010
0100
0010
,
1000
0000
0001
0000
0100
0001
1000
0010
,
0100
0000
0001
0000
1000
0100
0010
0001
,
0100
0000
0001
0000
1000
0010
1000
0001
,
0010
0000
0100
0000
1000
0001
0100
0010
,
2000
0000
0000
0000
,
3001
0000
0000
0000
1000
0000
0000
0000
0001
0000
0000
0000
0100
0001
0100
0000
,
0010
0000
0000
0000
1000
0000
0000
0000
0010
0000
0000
0000
1000
0100
1000
0000
,
0001
0000
0000
0000
0100
0000
0000
0000
0001
0000
0000
0000
1000
0100
1000
0000
,
0010
0000
0000
0000
0100
0000
0000
0000
0001
0000
0000
0000
1000
0001
0000
1000
,
0001
0000
0000
0000
0010
0000
0000
0000
0100
0000
0000
0000
1000
0001
1000
0000
,
0010
0000
0000
0000
0100
0000
0000
0000
0001
0000
0000
0000
0010
0001
0010
0000
,
0100
0000
0000
0000
1000
0000
0000
0000
0010
0000
0000
0000
0100
0001
0100
0000
,
0001
0000
0000
0000
1000
0000
0000
0000
0100
0000
0000
0000
0010
0100
0010
0100
,
0020
0030
0020
0030
,
0002
0003
2000
3000
,
0020
0000
0100
0100
,
0230
0000
0000
0000
0000
0000
0000
0000
0301
0000
0000
0000
0001
1000
0000
0001
,
2000
3200
0320
0032
,
0203
2300
3200
0302
,
2003
3200
0320
0032
,
0103
0000
0000
0010
0000
0000
1000
0000
0000
0000
0001
0000
0100
0000
0000
0000
,
0020
0000
0000
0030
,
1001
0000
1001
0000
,
1001
1001
1001
1001
,
1000
0001
1000
0001
1000
0001
1000
0001
,
2000
0000
0000
0000
0000
0000
0000
0000
0000
0000
0000
3000
0001
0000
0000
0000
,
0100
0000
0000
0000
0010
0000
0000
0000
1000
0001
1000
0001
1000
0000
0000
0000
,
0100
0000
0000
0000
0010
0000
0000
0000
0001
0100
0001
0100
0001
0000
0000
0000
,
1000
0000
0000
0000
0010
0000
0000
0000
1000
0100
1000
0100
1000
0000
0000
0000
,
0010
0000
0000
0000
0100
0000
0100
0000
0010
0000
0000
0010
1000
0000
0000
0000
,
0001
0000
0000
0000
0010
0000
0001
1000
0001
1000
0001
1000
0001
0000
0000
0000
,
0100
0000
0000
0000
0010
0000
1000
0100
1000
0100
1000
0100
1000
0000
0000
0000
,
0000
0000
0000
0000
0001
0000
0000
0000
0000
0000
0000
0000
1000
0001
1000
0001
,
1000
0001
1000
0001
0100
0010
0100
0010
0100
0010
0100
0010
0100
0000
0000
0000
;

//--------------- dance-single - forcednature ----------------
#NOTEDATA:;
#STEPSTYPE:dance-single;
#DESCRIPTION:forcednature;
#DIFFICULTY:Medium;
#METER:12;
#RADARVALUES:0,0,0,0,0;
#NOTES:
0000
0000
0000
0000
,
0000
0000
0000
0000
,
0000
0000
0000
0000
,
0000
0000
0000
0000
,
0000
0000
0000
0000
,
0001
0000
1000
0000
0000
0010
0000
0000
1000
0000
0000
0001
0000
0000
0100
0000
,
0001
0000
0010
0000
0000
0100
0000
0000
1000
0000
0000
0100
0000
0000
0010
0000
,
0001
0000
1000
0000
0000
0001
0000
0000
0100
0000
0000
0001
0000
0000
1000
0000
,
0010
0000
1000
0000
0000
0001
0000
0000
0010
0000
0000
0100
0000
0000
1000
0000
,
2100
0010
0001
3100
,
0120
0001
0100
1030
,
0012
1000
0100
0013
,
0210
1000
0010
0301
,
1002
0100
1000
0013
,
2001
0100
0001
3010
,
2100
0010
0001
3010
,
0201
0010
1000
0310
,
0001
0000
0100
0000
0000
0001
0000
0000
0100
0000
0000
0001
0000
0000
0100
0000
,
0010
0000
1000
0000
0000
0010
0000
0000
1000
0000
0000
0010
0000
0000
1000
0000
,
0100
0000
1000
0000
0000
0100
0000
0000
1000
0000
0000
0100
0000
0000
1000
0000
,
0001
0000
0010
0000
0000
0001
0000
0000
0010
0000
0000
0001
0000
0000
0010
0000
,
0001
0000
1000
0000
0000
0001
0000
0000
0100
0000
0000
1000
0000
0000
0100
0000
,
0001
0000
1000
0000
0000
0001
0000
0000
1000
0000
0000
0100
0000
0000
0001
0000
,
0100
0000
0010
0000
0000
0100
0000
0000
0010
0000
0000
0100
0000
0000
0010
0000
,
0001
0000
1000
0000
0000
0001
0000
0000
1000
0000
0000
0001
0000
0000
1000
0000
,
0020
0000
0000
0000
0000
0000
0000
0000
0000
0000
0000
0000
0000
0030
0000
0000
,
0000
0000
0000
0100
0000
0001
0000
0100
0000
0001
0000
1000
0000
0010
0000
0000
,
0000
0000
0000
1000
0000
0100
0000
1000
0000
0001
0000
0010
0000
0001
0000
0000
,
0000
0000
0000
1000
0000
0010
0000
0001
0000
0010
0000
0100
0000
0001
0000
0000
,
0000
0000
0000
1000
0000
0100
0000
0010
0000
0100
0000
1000
0000
0001
0000
0000
,
0000
0000
0000
1000
0000
0001
0000
1000
0000
0010
0000
0100
0000
0001
0000
0000
,
0000
0000
0000
1000
0000
0001
0000
1000
0000
0100
0000
1000
0000
0010
0000
0000
,
0000
0000
0000
0100
0000
0001
0000
0010
0000
0100
0000
1000
0000
0001
0000
0000
,
0000
0000
0000
0100
0000
0001
0000
1000
0020
0000
0000
0000
0000
0000
0000
0000
,
0130
0000
0001
0000
0100
0001
0000
0000
1000
0000
0000
0100
0000
0000
1000
0000
,
0010
0000
0100
0000
0010
0100
0000
0000
0001
0000
0000
1000
0000
0000
0001
0000
,
1000
0000
0100
0000
1000
0100
0000
0000
0010
0000
0000
0001
0000
0000
0010
0000
,
0001
0000
1000
0000
0001
1000
0000
0000
0010
0000
0010
0000
0100
0000
0000
0100
,
0010
0000
1000
0000
0001
1000
0000
0000
0100
0000
0000
1000
0000
0000
0001
0000
,
0010
0000
0001
0000
1000
0001
0000
0000
0100
0000
0000
0010
0000
0000
1000
0000
,
0100
0000
0010
0000
0001
1000
0000
0000
0100
0000
0000
1000
0000
0000
0010
0000
,
0200
0000
0000
0302
0000
0000
2003
0000
0000
0000
3020
0000
0230
0000
0000
0000
,
0302
0000
0000
0003
,
1001
0000
1001
0000
,
1001
1001
1001
1001
,
1000
0000
0001
0000
1000
0001
1000
0001
1000
0001
1000
0001
1000
0001
1000
0001
,
2000
0000
0000
0000
0000
0000
0000
0000
0000
0000
0000
3000
0010
1000
0010
1000
,
0010
0100
0010
0100
0001
0100
0001
0100
0001
0000
0000
0000
1000
0100
1000
0100
,
0010
0100
0010
0100
0010
0001
0010
0001
1000
0000
0000
0000
0001
0100
0001
0100
,
0010
0100
0010
0100
0010
1000
0010
1000
0001
0000
0000
0000
1000
0100
1000
0100
,
0010
0100
0010
0100
0010
0001
0010
0001
1000
0000
0000
0000
0001
0100
0010
1000
,
0001
0100
0010
1000
0001
0100
0010
1000
0001
0000
0000
0000
1000
0100
0010
0001
,
1000
0100
0010
0001
1000
0100
0010
0001
1000
0000
0000
0000
0001
1000
0001
1000
,
0001
1000
0001
1000
0100
0010
0100
0010
0100
0010
0100
0010
0001
1000
0001
1000
,
0001
1000
0001
1000
0010
0100
0010
0100
0010
0100
0010
0100
0001
0000
0000
0000
;

//--------------- dance-single - forcednature ----------------
#NOTEDATA:;
#STEPSTYPE:dance-single;
#DESCRIPTION:forcednature;
#DIFFICULTY:Hard;
#METER:14;
#RADARVALUES:0,0,0,0,0;
#NOTES:
0000
0000
0000
0000
,
0000
0000
0000
0000
,
0000
0000
0000
0000
,
0000
0000
0000
0000
,
0000
0000
0000
0000
,
0001
0100
0001
0010
0000
0100
1000
0000
0010
1000
0000
0001
0100
0000
0001
1000
,
0100
0010
0100
1000
0000
0010
0100
0000
0001
1000
0000
0001
0100
0010
0001
0010
,
1000
0100
0010
0100
0000
1000
0001
0000
0010
0001
0000
1000
0010
0000
1000
0100
,
0010
0100
1000
0001
0000
0100
0001
0000
1000
0010
0000
0100
1000
0100
0001
0100
,
0010
1000
0100
0010
0000
0001
1000
0000
0001
0100
0000
0001
1000
0000
0010
0100
,
0001
0100
0010
1000
0000
0100
0010
0000
0100
1000
0000
0001
0010
0100
1000
0100
,
0010
0001
0100
0010
0000
1000
0001
0000
1000
0010
0000
1000
0001
0000
0100
0001
,
0010
0001
1000
0100
0000
1000
0010
0000
0100
0000
0100
0000
0001
0010
0000
0010
,
0100
1000
0010
0100
0000
0001
1000
0000
0100
0001
0000
0100
1000
0000
0010
0100
,
0001
1000
0010
1000
0000
0001
0100
0000
0001
0010
0000
1000
0010
0100
1000
0010
,
0100
0001
1000
0010
0000
1000
0001
0000
1000
0100
0000
0001
0100
0000
1000
0000
,
0001
0100
0010
1000
0000
0100
0010
0000
0100
0100
0000
1001
0000
0001
1000
0001
,
0100
0010
1000
0001
1000
0100
0010
0000
0100
1000
0000
0001
0010
0000
0001
0000
,
1000
0010
0100
0001
0010
0100
1000
0000
0001
0100
0000
0001
1000
0000
0100
0000
,
0010
0100
1000
0001
0100
0001
1000
0000
0010
1000
0000
0001
0010
0000
0001
0000
,
1000
0010
0100
0001
0010
0100
1000
0000
0110
0000
0110
0000
1000
0001
0000
0001
,
1000
0001
0100
0001
1000
0010
1000
0000
0100
0010
0000
0100
1000
0000
0001
0000
,
0010
0001
1000
0001
0100
0001
1000
0000
0010
1000
0000
0001
0100
0000
0001
0000
,
0010
0001
1000
0100
0010
0100
1000
0000
0010
0100
0000
0001
0100
0000
0010
0000
,
1000
0001
1000
0010
0100
0001
0100
0000
0010
1000
0100
0010
0001
0100
1000
0100
,
0002
0000
0000
0000
,
1003
0001
0000
0101
0000
1010
0000
1000
0001
0010
0000
0100
1000
0001
0100
0001
,
1000
0010
0000
0110
0000
1001
0000
1000
0100
1000
0000
0010
0100
0001
0010
0001
,
1000
0001
0000
0101
0000
1100
0000
0010
1000
0001
0000
1000
0100
0010
0100
1000
,
0001
0100
0000
0101
0000
1010
0000
1000
0001
0010
0100
1000
0100
0001
0100
1000
,
0010
0100
0000
0101
0000
1100
0000
0001
0010
1000
0000
0010
0100
1000
0010
0100
,
0001
1000
0000
1010
0000
0101
0000
0001
1000
0100
0000
0001
0100
1000
0010
0100
,
0001
1000
0000
1100
0000
0011
0000
1000
0010
0100
0000
0001
0100
1000
0100
0010
,
1000
0100
0000
0110
0000
1001
0000
1000
0010
1000
0001
1000
0100
0001
0100
1000
,
0010
0000
1010
0000
1000
0001
0100
0000
0010
0100
0000
0100
0001
0000
0010
0000
,
0100
0000
1001
0000
1000
0010
1000
0000
0001
0010
0000
0100
1000
0000
0010
0000
,
0100
0000
0101
0000
0001
1000
0010
0000
1100
0000
0100
0000
0110
0000
0100
0000
,
0001
0000
0011
0000
0100
1000
0010
0000
0110
0000
0110
0000
1000
0001
0000
0001
,
1000
0000
0110
0000
0001
0010
0100
0000
1000
0010
0000
0100
0001
0000
1100
0000
,
1000
0000
0101
0000
1000
0001
0100
0000
0010
1000
0000
0100
0010
0000
0011
0000
,
0001
0000
0101
0000
1000
0010
1000
0000
0001
0010
0000
0100
1000
0000
1001
0000
,
1000
0000
0000
0100
0000
0000
0001
0000
0100
1000
0010
0100
0001
0010
1000
0010
,
0002
0000
0000
0000
,
0100
0000
0203
0320
,
1030
0001
1000
0001
,
1000
0000
0001
0000
1000
0100
0010
0100
1000
0001
0100
0010
1000
0100
0010
0001
,
0200
0000
0000
0000
0000
0000
0000
0000
0000
0000
0000
0300
0010
1000
0001
0100
,
0001
1000
0100
0010
0100
1000
0001
0100
0010
1000
0100
0010
0100
1000
0001
0010
,
0100
0010
0001
0100
0010
1000
0001
0100
1000
0100
0001
0100
0010
1000
0100
0010
,
0001
0010
0001
1000
0010
1000
0001
0100
0010
1000
0100
0010
0100
1000
0001
0010
,
0001
1000
0010
1000
0100
0001
0100
1000
0010
0100
1000
0100
0001
0010
0100
1000
,
0010
0100
0001
1000
0100
1000
0001
0100
0010
1000
0001
0010
0001
1000
0001
0100
,
0010
1000
0100
1000
0010
0100
0001
0010
0001
1000
0001
0100
0010
1000
0100
1000
,
0010
0000
1000
0000
0100
0000
1000
0000
0001
0000
0010
0000
0001
0000
0100
0000
0001
0000
0010
0000
0001
0000
0100
0000
0001
1000
0001
1000
0100
1000
0100
1000
,
0100
0010
0100
0010
0001
0010
0001
0010
0001
0000
0100
0000
0010
0000
1000
0000
0100
0000
0001
0000
0100
0000
1000
0000
0010
0000
0000
0000
0000
0000
0000
0000
;

//--------------- dance-single - forcednature ----------------
#NOTEDATA:;
#STEPSTYPE:dance-single;
#DESCRIPTION:forcednature;
#DIFFICULTY:Challenge;
#METER:15;
#RADARVALUES:0,0,0,0,0;
#OFFSET:3.420;
#BPMS:0.000=50.000
,18.896=100.000
,168.000=50.000
,176.000=68.500
,176.250=100.000
,176.500=125.000
,176.750=150.000
,177.000=175.000
,177.250=200.000
,243.000=50.000
;
#STOPS:18.896=0.522;
#NOTES:
0000
0000
0000
0000
,
0000
0000
0000
0000
,
0000
0000
0000
0000
,
0000
0000
0000
0000
,
0000
0000
0000
0000
,
0001
0100
0010
0001
0010
1000
0100
0000
0010
0001
0000
0010
1000
0000
0010
0001
,
1000
0010
0001
0010
0100
0001
0010
0000
0100
1000
0000
0100
0001
0100
0010
0001
,
0100
1000
0100
0010
1000
0100
0001
0000
0100
1000
0000
0001
0100
0000
0010
1000
,
0001
0010
1000
0010
0100
1000
0001
0000
1000
0010
0000
0100
0001
1000
0100
0001
,
0100
0010
0100
1000
0010
0100
0001
0000
1000
0010
0000
1000
1001
0000
0001
0010
,
1000
0010
0100
1000
0010
0100
0001
0000
1000
0001
0000
0100
0101
0001
1000
0010
,
0001
0010
0100
0001
1000
0100
0010
0000
0100
0001
0000
0100
0110
0000
1000
0000
,
0001
0100
0001
1000
0010
0100
1000
0000
0110
0000
0110
0000
0001
0010
1000
0001
,
0100
1000
0010
0100
0001
1000
0010
0000
0100
1000
0000
0100
0110
0000
0010
1000
,
0001
0010
1000
0010
0100
1000
0001
0000
1000
0010
0000
1000
1001
0001
0010
0100
,
1000
0010
0100
0001
0010
1000
0010
0000
0100
1000
0000
0010
0110
0000
0001
0000
,
0100
1000
0100
0010
1000
0100
0010
0000
0100
0100
0000
1001
1000
0010
1000
0100
,
0001
0100
0010
0100
1100
1000
0010
0000
0100
1000
0000
0100
0110
0000
1000
0000
,
0001
0100
1000
0100
0110
0010
1000
0000
0001
0010
0000
0100
1100
1000
0010
0001
,
0010
0100
0001
0010
0110
0100
1000
0000
0001
0100
0000
0001
1001
0000
1000
0000
,
0100
0001
0100
1000
1010
0010
0001
0000
1001
0000
1001
0000
0101
0100
0000
0110
,
0010
1000
0001
0010
0110
0100
1000
0000
0001
0100
0000
0001
1001
0000
1000
0100
,
1000
0010
0100
0001
0011
0010
0100
0000
1000
0001
0000
0100
0110
0010
0001
0010
,
1000
0100
0001
0100
1100
1000
0010
0000
0100
0001
0000
0010
0110
0000
1000
0000
,
0001
0100
0001
1000
1010
0010
0100
0000
0001
0010
1000
0001
0100
1100
1000
0010
,
0200
0000
0000
0000
,
0310
1000
0000
0001
0010
1000
0000
0001
0100
1000
0000
0010
0100
0001
1000
0100
,
0001
0100
0000
0001
1000
0010
0000
0001
1000
0010
0000
0100
1000
0100
0010
1000
,
0100
0001
0000
1000
0010
0001
0000
1000
0010
0001
0000
0010
0100
1000
0100
0001
,
1000
0100
0000
0010
0001
0100
0000
0010
0110
0000
0110
0000
1001
0001
0000
0101
,
0100
0010
0000
1000
1100
0100
0000
0010
0001
0100
0000
0010
1010
1000
0100
0001
,
0100
1000
0000
0010
0110
0100
0000
0001
1000
0100
0000
0010
0011
0001
0100
1000
,
0001
0010
0000
1000
1100
0100
0000
0010
0001
1000
0000
0001
0101
0100
0010
1000
,
0100
0010
0000
0100
1100
1000
0000
0001
0010
1000
0010
0001
0100
0010
1010
1000
,
0200
0000
0000
0000
0000
0000
0020
0000
0000
0300
0000
0000
0000
0000
0000
0002
0000
0000
0030
0000
0000
0000
0000
0000
0200
0000
0000
0003
0000
0000
0000
0000
0000
2000
0000
0000
0300
0000
0000
0000
0000
0000
0200
0000
3000
0000
0000
0000
,
0020
0000
0300
0000
0000
0000
0002
0000
0000
0030
0000
0000
0000
0000
0000
0020
0000
0000
0003
0000
0000
0000
0000
0000
2000
0000
0000
0030
0000
0000
0000
0000
0000
0200
0000
0000
3000
0000
0000
0000
0000
0000
0002
0000
0300
0000
0000
0000
,
0200
0000
0003
0000
0000
0000
0020
0000
0000
0300
0000
0000
0000
0000
0000
0002
0000
0000
0030
0000
0000
0000
0000
0000
2000
0000
0000
0003
0000
0000
0000
0000
0000
0020
0000
0000
3000
0000
0000
0000
0000
0000
0002
0000
0030
0000
0000
0000
,
0020
0000
0003
0000
0000
0000
0200
0000
0000
0030
0000
0000
0000
0000
0000
2000
0000
0000
0300
0000
0000
3000
0000
0000
0110
0000
0000
0000
0000
0000
0110
0000
0000
0000
0000
0000
0101
0000
0000
0100
0000
0000
0000
0000
0000
1010
0000
0000
,
0020
0000
0000
0000
0000
0000
0000
0000
0000
0000
0000
0000
2000
0000
0000
0000
0000
0000
0030
0000
0000
0000
0000
0000
0001
0000
0000
0000
0000
0000
0002
0000
0000
0000
0000
0000
3000
0000
0000
0000
0000
0000
0000
0000
0000
0000
0000
0000
0020
0000
0000
0000
0000
0000
0003
0000
0000
0000
0000
0000
0000
0000
0000
0000
0000
0000
2000
0000
0000
0030
0000
0000
0010
0000
0000
0000
0000
0000
0000
0000
0000
0000
0000
0000
0002
0000
0000
0000
3000
0000
0000
0000
0000
0000
0000
0000
,
0200
0000
0000
0000
0003
0000
0000
0000
0000
0000
0000
0000
2000
0000
0000
0000
0000
0000
0300
0000
0000
0000
0000
0000
0010
0000
0000
0000
0000
0000
0020
0000
0000
0000
0000
0000
3000
0000
0000
0000
0000
0000
0000
0000
0000
0000
0000
0000
0200
0000
0000
0000
0000
0000
0030
0000
0000
0000
0000
0000
0000
0000
0000
0000
0000
0000
2000
0000
0000
0300
0000
0000
0100
0000
0000
0000
0000
0000
0000
0000
0000
0000
0000
0000
0200
0000
0000
0000
3000
0000
0000
0000
0000
0000
0000
0000
,
0002
0000
0000
0000
0300
0000
0000
0000
0000
0000
0000
0000
2000
0000
0000
0000
0003
0000
0000
0000
0000
0000
0000
0000
0010
0000
0000
0000
0000
0000
0020
0000
0000
0000
0000
0000
3000
0000
0000
0000
0000
0000
0000
0000
0000
0000
0000
0000
0002
0000
0000
0000
0000
0000
0030
0000
0000
0000
0000
0000
0000
0000
0000
0000
0000
0000
0020
0000
0000
0003
0000
0000
0001
0000
0000
0000
0000
0000
0000
0000
0000
0000
0000
0000
0200
0000
0000
0000
0030
0000
0000
0000
0000
0000
0000
0000
,
0002
0000
0300
0000
0000
0000
0020
0000
0000
0003
0000
0000
1000
0000
0000
2000
0000
0000
0030
0000
0000
0000
0000
0000
3010
0000
0000
0100
0000
0000
1000
0000
0000
0010
0000
0000
0001
0000
0000
1000
0000
0000
0100
0000
0000
0001
0000
0000
,
0020
0000
0000
0030
1001
0000
1001
0000
,
1001
0000
0000
0000
1001
0000
0000
0000
1001
0000
0000
0000
1001
0000
0000
0000
1001
0000
1001
0000
0001
0100
1000
0100
0001
0010
0100
1000
0100
0001
0100
1000
,
0020
0000
0000
0000
0000
0000
0000
0000
0000
0000
0000
0030
0100
0000
0001
0000
,
0100
0010
0110
0100
0001
0010
1000
0010
,
0100
1000
1001
0001
0100
1000
0100
0001
,
0010
0001
1001
1000
0010
0100
1000
0100
,
0001
1000
1001
0001
0010
1000
0010
0001
,
0100
0010
0110
0100
0001
1000
0010
0001
,
0010
1000
1100
0100
0010
0001
0100
1000
,
0100
0001
0011
0010
0100
1000
1001
0001
,
1001
1000
1010
0010
0100
0101
0001
0010
,
1000
0010
0110
0100
1000
0010
1010
1000
,
0001
0100
0110
0010
1000
0001
0011
0010
,
0100
1000
1001
1000
0010
0100
0101
0001
,
1000
0100
0110
0010
0001
0100
0001
0010
,
1000
0010
0001
0010
1000
0010
0001
0100
,
1000
0000
0100
0000
0001
0000
0100
0000
1000
0000
0100
0000
0001
0010
0100
0010
,
0001
1000
0010
1000
0001
0100
0001
1000
0100
0010
0001
0100
0010
0000
1000
0000
,
0100
0001
0100
1000
0010
0001
0010
0000
;

//--------------- dance-double - forcednature ----------------
#NOTEDATA:;
#STEPSTYPE:dance-double;
#DESCRIPTION:forcednature;
#DIFFICULTY:Easy;
#METER:6;
#RADARVALUES:0,0,0,0,0;
#NOTES:
00000000
00000000
00000000
00000000
,
00000000
00000000
00000000
00000000
,
00000000
00000000
00000000
00000000
,
00000000
00000000
00000000
00000000
,
00000000
00000000
00000000
00000000
,
00020000
00000000
00001000
00000000
01030000
00000000
00001000
00010000
,
00100000
01000000
00200000
00000000
10300000
00000000
01000000
00100000
,
00010000
01000000
00020000
00000000
00130000
00000000
00001000
00010000
,
00000010
00001000
00000200
00000000
00000310
00000000
00000001
00000100
,
00000001
00001000
00000020
00000000
00000130
00000000
00000010
00001000
,
00000100
00000010
00000002
00000000
00001003
00000000
00000001
00000100
,
00001000
00010000
00002000
00000000
01003000
00000000
00001000
00100000
,
00010000
10000000
00020000
00000000
10030000
00000000
00010000
00100000
,
00001000
00010000
00000020
00000000
00000130
00000000
00000010
00001000
,
00000001
00001000
00000200
00000000
00000310
00000000
00000100
00010000
,
00001000
01000000
00002000
00000000
00013000
00000000
00001000
00010000
,
01000000
00100000
00002000
00000000
00023000
00000000
00031000
00000000
,
00010000
01000000
00100000
00000000
00001000
00000000
01000000
00100000
,
10000000
00010000
01000000
00000000
00010000
00000000
00100000
00001000
,
00010000
00000100
00001000
00000000
00000001
00000000
00000100
00001000
,
00010000
00000100
00010000
00000000
00100000
00100000
00100000
00000000
,
01000000
00010000
10000000
00000000
01000000
00000000
00100000
00001000
,
00010000
00000010
00001000
00000000
00000100
00000000
00000010
00000001
,
00000010
00001000
00000010
00000000
00000100
00000000
00010000
00000010
,
00001000
00000001
00000100
00000000
00001000
00001000
00000200
00000000
,
00000000
00000000
00000000
00000000
00000000
00000000
00000000
00000300
,
00001000
00000000
00000000
00001000
00010000
00000000
00000000
00010000
00100000
00000000
00000000
00000000
01100000
00000000
00000000
00000000
,
10000000
00000000
00000000
10000000
00010000
00000000
00000000
00010000
00100000
00000000
00000000
00000000
01100000
00000000
00000000
00000000
,
00001000
00000000
00000000
00001000
00010000
00000000
00000000
00010000
00000100
00000000
00000000
00000000
00000110
00000000
00000000
00000000
,
00000001
00000000
00000000
00000001
00000100
00000000
00000000
00000100
00001000
00000000
00000000
00000000
00010000
00000000
00000000
00010000
,
00001000
00000000
00000000
00001000
01000000
00000000
00000000
00000000
01100000
00000000
00000000
00000000
10000000
00000000
00000000
10000000
,
00010000
00000000
00000000
00010000
00100000
00000000
00000000
00000000
00101000
00000000
00000000
00000000
00001000
00000000
00000000
00001000
,
00010000
00000000
00000000
00010000
00000100
00000000
00000000
00000000
00000110
00000000
00000000
00000000
00000010
00000000
00000000
00000010
,
00000001
00000000
00000000
00000001
00000100
00000000
00000000
00000000
00000100
00000000
00000000
00000000
00000010
00000000
00001000
00000000
,
00000010
00000000
00000100
00001000
00000100
00000010
00001000
00000000
,
00000100
00000000
00010000
00001000
00010000
00100000
10000000
00000000
,
01000000
00000000
00100000
00001000
01000000
00100000
00010000
00000000
,
00100000
00000000
00001000
00010000
00000100
00000100
00000100
00000000
,
00001000
00000000
00000001
00000100
00001000
00010000
00000100
00000000
,
00001000
00000000
00000010
00010000
00001000
00100000
00001000
00000000
,
00010000
00000000
00100000
10000000
00010000
01000000
10000000
00000000
,
01000000
00000000
00010000
00000000
00100000
00001000
00010000
00000100
,
00010000
00000000
00000000
00000000
,
00011000
00000000
00011000
00000000
,
00011000
00011000
00011000
00011000
,
00010000
00000000
00001000
00000000
00010000
00001000
00010000
00001000
,
00000000
00000000
00000000
00000000
00000000
00000000
00010000
00001000
,
00100000
00001000
00010000
00100000
10000000
00000000
01000000
00100000
,
00001000
00010000
00000010
00001000
00000100
00000000
00000010
00000001
,
00000100
00001000
00010000
00000100
00001000
00000000
01000000
00100000
,
00010000
01000000
10000000
01000000
00010000
00000000
00100000
00001000
,
00010000
00000010
00010000
00001000
00000010
00000000
00000001
00001000
,
00000010
00000100
00001000
00010000
00000100
00000000
00010000
00001000
,
00010000
00001000
00100000
01000000
00100000
01000000
10000000
10000000
,
00010000
00010000
00100000
00001000
00010000
00000010
00000100
00000000
;

//--------------- dance-double - forcednature ----------------
#NOTEDATA:;
#STEPSTYPE:dance-double;
#DESCRIPTION:forcednature;
#DIFFICULTY:Medium;
#METER:10;
#RADARVALUES:0,0,0,0,0;
#NOTES:
00000000
00000000
00000000
00000000
,
00000000
00000000
00000000
00000000
,
00000000
00000000
00000000
00000000
,
00000000
00000000
00000000
00000000
,
00000000
00000000
00000000
00000000
,
00001000
00000000
00010000
00000000
00000000
00001000
00000000
00000000
01000000
00000000
00000000
00010000
00000000
00000000
10000000
00000000
,
00100000
00000000
10000000
00000000
00000000
00010000
00000000
00000000
01000000
00000000
00000000
00010000
00000000
00000000
00100000
00000000
,
00001000
00000000
00010000
00000000
00000000
00000100
00000000
00000000
00001000
00000000
00000000
00000010
00000000
00000000
00000100
00000000
,
00000001
00000000
00000010
00000000
00000000
00000100
00000000
00000000
00001000
00000000
00000000
00000001
00000000
00000000
00000100
00000000
,
00000002
00000000
00001000
00000000
00000000
00001000
00000000
00000000
00001000
00000000
00000000
00001000
00000000
00000000
00001003
00000000
,
00000200
00000000
00010000
00000000
00000000
00010000
00000000
00000000
00010000
00000000
00000000
00010000
00000000
00000000
00010300
00000000
,
00002000
00000000
00100000
00000000
00000000
00100000
00000000
00000000
00100000
00000000
00000000
00100000
00000000
00000000
00103000
00000000
,
00020000
00000000
10000000
00000000
00000000
10000000
00000000
00000000
10000000
00000000
00000000
10000000
00000000
00000000
10030000
00000000
,
20000000
00000000
01000000
00000000
00000000
01000000
00000000
00000000
01000000
00000000
00000000
01000000
00000000
00000000
31000000
00000000
,
00200000
00000000
00001000
00000000
00000000
00001000
00000000
00000000
00001000
00000000
00000000
00001000
00000000
00000000
00301000
00000000
,
00020000
00000000
00000100
00000000
00000000
00000100
00000000
00000000
00000100
00000000
00000000
00000100
00000000
00000000
00030100
00000000
,
00002000
00000000
00000001
00000000
00000000
00000001
00003000
00000000
00001000
00000000
00000000
00000001
00000000
00001000
00000000
00000000
,
00001001
00000000
00000000
00000000
00000001
00000100
00010000
00000100
,
00000010
00000000
00000000
00000000
00001000
00001000
00000100
00010000
,
01000000
00000000
00000000
00000000
10000000
00100000
00010000
00001000
,
00100000
00000000
00000000
00000000
00000000
00000000
00000000
00000000
00001000
00000000
00001000
00000000
00010000
00000000
00000000
00000100
,
00001000
00000000
00000000
00000000
00000001
00000100
00001000
01000000
,
00100000
00000000
00000000
00000000
10000000
01000000
00010000
00000010
,
00001000
00000000
00000000
00000000
00000001
00000100
00000010
00001000
,
00000100
00000000
00000000
00000000
00000000
00000000
00000000
00000000
01000000
00000000
00000000
00100000
00000000
01000000
00000000
00000000
,
20020000
00000000
00000000
30030000
,
10000000
00000000
00000000
00010000
00000000
01000000
00000000
00010000
00000000
00100000
00000000
00001000
00000000
00010000
00000000
00000000
,
00000100
00000000
00000000
00001000
00000000
00000001
00000000
00000100
00000000
00000010
00000000
00001000
00000000
00000100
00000000
00000000
,
00010000
00000000
00000000
00001000
00000000
00100000
00000000
00010000
00000000
10000000
00000000
00100000
00000000
00010000
00000000
00000000
,
00001000
00000000
00000000
00000100
00000000
00000010
00000000
00001000
00000100
00000000
00000100
00000000
00000010
00000001
00000000
00000010
,
00000001
00000000
00000000
00000100
00000000
00000010
00000000
00001000
00000000
00000100
00000000
00010000
00001000
00000000
00000000
00000000
,
01000000
00000000
00000000
00010000
00000000
10000000
00000000
00100000
00000000
10000000
00000000
00010000
00100000
00000000
00000000
00000000
,
01000000
00000000
00000000
10000000
00000000
00100000
00000000
01000000
00000000
00010000
00000000
00100000
00001000
00000000
00000000
00000000
,
00010000
00000000
00000000
00100000
00000000
10000000
00000000
01000000
00100000
00000000
00000000
00000000
00001000
00000000
00001000
00000000
,
00020000
00000000
00000000
00000000
00000020
00030000
00000000
00000000
,
00000002
00000030
00000000
00000000
00002000
00000003
00000000
00000000
,
00000200
00003000
00000000
00000000
00020000
00000300
00000000
00000000
,
02000000
00030000
00000000
00000000
00002000
03000000
00000000
00000000
,
00200000
00003000
00000000
00000000
20000000
00300000
00000000
00000000
,
00020000
30000000
00000000
00000000
02000000
00030000
00000000
00000000
,
00002000
03000000
00000000
00000000
00000000
00000000
00000000
00003000
,
00000100
00000000
00000000
00000010
00000000
00000000
00000001
00000000
00000000
00000100
00000000
00000000
00001000
00000000
00000000
00000000
,
00022000
00000000
00000000
00033000
,
00011000
00000000
00011000
00000000
,
00011000
00011000
00011000
00011000
,
00001000
00000000
00010000
00000000
00001000
00010000
00001000
00010000
00001000
00010000
00001000
00010000
00001000
00010000
00001000
00010000
,
00002000
00000000
00000000
00000000
00000000
00003000
00010000
00000100
,
00001000
00000001
00000100
00001000
00010000
01000000
10000000
00010000
,
00100000
10000000
00010000
01000000
10000000
00010000
01000000
00001000
,
00010000
00000100
00001000
00000001
00000100
00000010
00001000
00000100
,
00010000
00001000
00100000
00100000
01000000
10000000
00010000
01000000
,
00010000
00100000
00001000
00010000
00000010
00001000
00000001
00000100
,
00001000
00010000
00000100
00010000
01000000
10000000
00010000
00100000
,
00010000
00100000
00001000
00010000
00001000
00010000
00000010
00000010
,
00000100
00000100
00000001
00001000
00000100
00010000
00011000
00000000
;

//--------------- dance-double - forcednature ----------------
#NOTEDATA:;
#STEPSTYPE:dance-double;
#DESCRIPTION:forcednature;
#DIFFICULTY:Hard;
#METER:14;
#RADARVALUES:0,0,0,0,0;
#NOTES:
00000000
00000000
00000000
00000000
,
00000000
00000000
00000000
00000000
,
00000000
00000000
00000000
00000000
,
00000000
00000000
00000000
00000000
,
00000000
00000000
00000000
00000000
,
00001000
00010000
00001000
01000000
00010000
10000000
01000000
00000000
00100000
00001000
00000000
00010000
00000010
00000000
00001000
00000000
,
00000001
00000100
00000001
00001000
00000100
00000010
00000100
00000000
00001000
00000001
00000000
00000100
00000010
00001000
00000100
00010000
,
00001000
01000000
00010000
10000000
00100000
10000000
00010000
00000000
01000000
00100000
00000000
10000000
01000000
00000000
00100000
00000000
,
00001000
00010000
00000010
00001000
00000100
00000010
00000001
00000000
00000100
00000010
00000000
00001000
00000001
00000100
00001000
00010000
,
01000000
10000000
00100000
10000000
00010000
01000000
00100000
00000000
10000000
00010000
00000000
00100000
00001000
00000000
00010000
00000000
,
00000100
00001000
00000001
00000010
00000100
00001000
00000001
00000000
00000010
00000001
00000000
00000100
00000010
00000000
00010000
00000000
,
00001000
00100000
00010000
10000000
00100000
01000000
00010000
00000000
00100000
00001000
00000000
00100000
00010000
00000000
01000000
00000000
,
00001000
00010000
00000100
00000010
00000100
00001000
00000001
00000000
00000101
00000000
00000101
00000000
00001000
00000010
00000000
00000010
,
00010000
00001000
00100000
00010000
10000000
01000000
00100000
00000000
01000000
10000000
00000000
01000000
10000000
00000000
00100000
00000000
,
01000000
00010000
00100000
00001000
00010000
00000010
00001000
00000000
00000100
00000010
00000000
00000100
00000010
00000000
00000100
00000000
,
00001000
00000001
00000100
00000001
00001000
00000100
00010000
00000000
00001000
01000000
00000000
00001000
01000000
00000000
00100000
00000000
,
10000000
01000000
00100000
00010000
01000000
00001000
00100000
00000000
00001000
00001000
00000000
00011000
00000000
00010000
00001000
00000010
,
00000001
00000010
00000100
00001000
00000001
00000100
00000010
00000000
00010000
00001000
00000000
00010000
00000100
00000000
00010000
00000000
,
00001000
00100000
00010000
10000000
00100000
01000000
00010000
00000000
10000000
01000000
00000000
10000000
01000000
00000000
00100000
00000000
,
00001000
00010000
00100000
01000000
00010000
00100000
00001000
00000000
00010000
00000100
00000000
00010000
00000100
00000000
00001000
00000000
,
00000001
00000100
00000010
00001000
00000100
00000010
00000001
00000000
00000110
00000000
00000110
00000000
00000001
00001000
00000000
00001000
,
00000001
00000100
00000001
00001000
00000100
00000010
00000100
00000000
00001000
00000001
00000000
00001000
00000001
00000000
00001000
00000000
,
00000100
00010000
00001000
00100000
00001000
00010000
00001000
00000000
00100000
00010000
00000000
00100000
00010000
00000000
01000000
00000000
,
00100000
10000000
00010000
01000000
00010000
00100000
00001000
00000000
00010000
00000100
00000000
00010000
00000100
00000000
00000010
00000000
,
00000001
00000100
00000010
00001000
00000100
00000010
00000001
00000000
00000100
00001000
00010000
00100000
00010000
00001000
00000100
00000010
,
00002000
00000000
00000000
00000000
,
00003100
00010000
00000000
00011000
00000000
01001000
00000000
01000000
00100000
10000000
00000000
01000000
00100000
00001000
00010000
00000010
,
00000100
00000001
00000000
00000101
00000000
00001100
00000000
00000001
00001000
00000100
00000000
00010000
00001000
00100000
00001000
00010000
,
00100000
10000000
00000000
01100000
00000000
10010000
00000000
10000000
01000000
00100000
00000000
00010000
01000000
00001000
00010000
00000100
,
00001000
00000010
00000000
00000101
00000000
00001010
00000000
00001000
00000100
00000000
00000110
00000000
00000001
00001000
00000000
00001000
,
00000001
00000100
00000000
00000110
00000000
00001010
00000000
00001000
00000100
00010000
00000000
00001000
00100000
00010000
10000000
00100000
,
01000000
00010000
00000000
01010000
00000000
11000000
00000000
00010000
10000000
01000000
00000000
00100000
00001000
00010000
00000010
00010000
,
00000100
00001000
00000000
00000110
00000000
00001001
00000000
00000001
00000100
00000010
00000000
00001000
00000100
00010000
00001000
00100000
,
00010000
10000000
00000000
10100000
00000000
01010000
00000000
10000000
01000000
00010000
00001000
00000100
00000001
00000010
00000100
00001000
,
00000001
00000000
00000101
00000000
00000100
00000010
00001000
00000000
00001100
00000000
00010100
00000000
00011000
00000000
00100000
00000000
,
00010000
00000000
10100000
00000000
00010000
01000000
00100000
00000000
11000000
00000000
01100000
00000000
00110000
00000000
00001000
00000000
,
00010000
00000000
00001100
00000000
00001000
00000001
00000100
00000000
00000101
00000000
00000110
00000000
00001010
00000000
00000100
00000000
,
00010000
00000000
00101000
00000000
01000000
00010000
10000000
00000000
01100000
00000000
01100000
00000000
10000000
00010000
00000000
00010000
,
10000000
00000000
01100000
00000000
00010000
00100000
00001000
00000000
00011000
00000000
00001100
00000000
00001010
00000000
00000100
00000000
,
00000001
00000000
00001100
00000000
00000010
00001000
00000100
00000000
00010100
00000000
00011000
00000000
01001000
00000000
01000000
00000000
,
00100000
00000000
11000000
00000000
00010000
00100000
00001000
00000000
00011000
00000000
00000110
00000000
00001001
00000000
00001000
00000000
,
00000001
00000000
00000000
00000100
00000000
00000000
00001000
00000000
00010000
01000000
10000000
01000000
00010000
00001000
00100000
00001000
,
00020000
00000000
00000000
00000000
,
00001000
00000000
00031000
00000000
,
00011000
00011000
00011000
00011000
,
00010000
00000000
00001000
00000000
01000000
00010000
00100000
00001000
00010000
00000010
00001000
00000100
00010000
00000100
00001000
00000001
,
00000200
00000000
00000000
00000000
00000000
00000000
00000000
00000000
00000000
00000000
00000000
00000000
00000310
00001000
00000001
00000100
,
00000001
00000010
00000100
00001000
00000001
00001000
00000100
00010000
00001000
00100000
00010000
10000000
00100000
01000000
00010000
10000000
,
01000000
00100000
00010000
01000000
00100000
10000000
01000000
10000000
00010000
01000000
00100000
10000000
00010000
00100000
00001000
00010000
,
00000100
00001000
00000001
00001000
00000010
00000100
00000001
00000010
00000100
00001000
00000001
00000100
00000010
00001000
00000100
00010000
,
00001000
01000000
00010000
10000000
00100000
10000000
01000000
00100000
00010000
01000000
00100000
10000000
00010000
00100000
01000000
10000000
,
00010000
01000000
00001000
00010000
00000100
00001000
00000001
00000100
00000010
00001000
00000100
00000010
00000001
00000100
00000010
00001000
,
00000001
00000010
00000100
00001000
00000001
00000100
00000001
00001000
00000100
00001000
00000010
00000100
00000001
00000100
00000001
00000100
,
00001000
00000000
00000100
00000000
00001000
00000000
00000100
00000000
00001000
00000000
00010000
00000000
00001000
00000000
00010000
00000000
01000000
00000000
00010000
00000000
01000000
00000000
00010000
00000000
01000000
10000000
01000000
10000000
01000000
00100000
01000000
00100000
,
00010000
00100000
00010000
00100000
00010000
10000000
00010000
10000000
00010000
00000000
01000000
00000000
00001000
00000000
00010000
00000000
00000100
00000000
00001000
00000000
00000001
00000000
00000100
00000000
00000010
00000000
00000000
00000000
00000000
00000000
00000000
00000000
;

//--------------- dance-double - forcednature ----------------
#NOTEDATA:;
#STEPSTYPE:dance-double;
#DESCRIPTION:forcednature;
#DIFFICULTY:Challenge;
#METER:15;
#RADARVALUES:0,0,0,0,0;
#OFFSET:3.420;
#BPMS:0.000=50.000
,18.896=100.000
,168.000=50.000
,176.000=68.500
,176.250=100.000
,176.500=125.000
,176.750=150.000
,177.000=175.000
,177.250=200.000
,243.000=50.000
;
#STOPS:18.896=0.522;
#NOTES:
00000000
00000000
00000000
00000000
,
00000000
00000000
00000000
00000000
,
00000000
00000000
00000000
00000000
,
00000000
00000000
00000000
00000000
,
00000000
00000000
00000000
00000000
,
00010000
00001000
00000100
00000010
00001000
00000100
00000010
00000000
00000001
00000100
00000000
00001000
00000100
00000000
00000010
00010000
,
00001000
00100000
01000000
00010000
01000000
10000000
00100000
00000000
01000000
10000000
00000000
01000000
00010000
00100000
01000000
00010000
,
00001000
00010000
00000100
00001000
00000010
00000001
00000010
00000000
00000100
00000001
00000000
00001000
00000100
00000000
00010000
00001000
,
00010000
01000000
10000000
00100000
00010000
00100000
01000000
00000000
00001000
00010000
00000000
00000100
00000010
00001000
00000010
00000001
,
00000100
00001000
00000100
00000010
00001000
00000100
00010000
00000000
00001000
00100000
00000000
00010000
10010000
00000000
10000000
01000000
,
00010000
01000000
00100000
00001000
00010000
00000100
00010000
00000000
00000010
00001000
00000000
00000001
00001001
00001000
00000100
00010000
,
00001000
01000000
00100000
00010000
00100000
10000000
01000000
00000000
00100000
00001000
00000000
00010000
00010100
00000000
00000100
00000000
,
00000010
00000001
00000100
00001000
00000100
00000001
00000010
00000000
00011000
00000000
00011000
00000000
00001000
01000000
00100000
00010000
,
00001000
00100000
01000000
10000000
00100000
00010000
00001000
00000000
00000100
00000001
00000000
00001000
00001001
00000000
00000001
00000010
,
00001000
00010000
01000000
10000000
00100000
00010000
00100000
00000000
01000000
00001000
00000000
00010000
00011000
00001000
00000010
00000100
,
00001000
00000001
00000100
00001000
00010000
00001000
00100000
00000000
01000000
10000000
00000000
00100000
01100000
00000000
00010000
00000000
,
00100000
00001000
00010000
01000000
10000000
00010000
01000000
00000000
00001000
00001000
00000000
00011000
00001000
00010000
00000100
00000010
,
00001000
00000010
00000001
00000100
00000110
00000010
00001000
00000000
00000100
00010000
00000000
00001000
00101000
00000000
00100000
00000000
,
01000000
10000000
00100000
00010000
00011000
00001000
01000000
00000000
00001000
00010000
00000000
00000100
00001100
00001000
00000010
00000100
,
00000001
00000010
00001000
00010000
00011000
00001000
01000000
00000000
00100000
00010000
00000000
00001000
00011000
00000000
00000100
00000000
,
00000010
00000001
00000010
00001000
00011000
00010000
00000010
00000000
00001001
00000000
00001001
00000000
00000101
00000100
00000000
00000110
,
00000010
00001000
00000100
00010000
00011000
00001000
00100000
00000000
01000000
10000000
00000000
00010000
00110000
00000000
00001000
00010000
,
00100000
01000000
00001000
00010000
00010100
00000100
00000010
00000000
00000001
00000100
00000000
00001000
00011000
00010000
01000000
10000000
,
00010000
00100000
00001000
01000000
01100000
00100000
10000000
00000000
01000000
00010000
00000000
00001000
00011000
00000000
00010000
00000000
,
00000100
00001000
00000001
00000010
00000110
00000100
00010000
00000000
00001000
00000010
00000001
00000100
00001000
00011000
00010000
01000000
,
20000000
00000000
00000000
00000000
,
30100000
10000000
00000000
00001000
00010000
00100000
00000000
00001000
00010000
01000000
00000000
00100000
01000000
00001000
00010000
00000100
,
00001000
00000001
00000000
00000100
00001000
00010000
00000000
00000100
00010000
00001000
00000000
01000000
00100000
10000000
00010000
10000000
,
01000000
00010000
00000000
00001000
00000010
00000001
00000000
00001000
00000010
00000001
00000000
00000010
00000100
00001000
00010000
01000000
,
10000000
00100000
00000000
00010000
00001000
00100000
00000000
01000000
01100000
00000000
01100000
00000000
10010000
00010000
00000000
00110000
,
00100000
00001000
00000000
00010000
00010100
00000100
00000000
00000010
00000001
00000100
00000000
00001000
00011000
00010000
00100000
10000000
,
01000000
10000000
00000000
00010000
00110000
00100000
00000000
00001000
00010000
00000100
00000000
00001000
00001001
00000001
00000010
00000100
,
00010000
00001000
00000000
01000000
01100000
00100000
00000000
10000000
00010000
00100000
00000000
00001000
00011000
00010000
00000100
00001000
,
00000001
00000100
00000000
00001000
00011000
00010000
00000000
00100000
10000000
01000000
00010000
00001000
00000100
00000001
00001001
00001000
,
00000200
00000000
00000000
00000000
00020000
00000000
00000300
00000000
00000000
00000000
00200000
00000000
00030000
00000000
00000000
00000000
20000000
00000000
00300000
00000000
00000000
00000000
02000000
00000000
30000000
00000000
00000000
00000000
00020000
03000000
00000000
00000000
,
00000200
00030000
00000000
00000000
00000002
00000000
00000300
00000000
00000000
00000000
00002000
00000000
00000003
00000000
00000000
00000000
00000020
00000000
00003000
00000000
00000000
00000000
00000002
00000000
00000030
00000000
00000000
00000000
00000200
00000003
00000000
00000000
,
00002000
00000300
00000000
00000000
00020000
00000000
00003000
00000000
00000000
00000000
02000000
00000000
00030000
00000000
00000000
00000000
20000000
00000000
03000000
00000000
00000000
00000000
00020000
00000000
30000000
00000000
00000000
00000000
00002000
00030000
00000000
00000000
,
00000002
00003000
00000000
00000000
00000200
00000000
00000003
00000000
00000000
00000000
00002000
00000300
00000000
00000000
00003000
00000000
00011000
00000000
00000000
00000000
00011000
00000000
00000000
00000000
01100000
00000000
00100000
00000000
00000000
00000000
10010000
00000000
,
20000000
00000000
00000000
00000000
00020000
00000000
30000000
00000000
00000000
00000000
00200000
00000000
00030000
00000000
00000000
00000000
00002000
00000000
00300000
00000000
00000000
00000000
00000200
00000000
00003000
00000000
00000000
00000000
00000002
00000300
00000000
00000000
,
00002000
00000003
00000000
00000000
00000020
00000000
00003000
00000000
00000000
00000000
00020000
00000000
00000030
00000000
00000000
00000000
02000000
00000000
00030000
00000000
00000000
00000000
20000000
00000000
03000000
00000000
00000000
00000000
00020000
30000000
00000000
00000000
,
02000000
00030000
00000000
00000000
00002000
00000000
03000000
00000000
00000000
00000000
00000200
00000000
00003000
00000000
00000000
00000000
00000002
00000000
00000300
00000000
00000000
00000000
00002000
00000000
00000003
00000000
00000000
00000000
00000200
00003000
00000000
00000000
,
00020000
00000300
00000000
00000000
00200000
00000000
00030000
00000000
00000000
00000000
20000000
00000000
00300000
00000000
00000000
00000000
30010000
00000000
00100000
00000000
00001000
00000000
00010000
00000000
00000100
00000000
00000010
00000000
00000001
00000000
00000100
00000000
,
00002000
00000000
00000000
00003000
00011000
00000000
00011000
00000000
,
00011000
00000000
00000000
00000000
00011000
00000000
00000000
00000000
00011000
00000000
00000000
00000000
00011000
00000000
00000000
00000000
00001000
00000000
00010000
00000000
00100000
10000000
01000000
00010000
00001000
01000000
00001000
00010000
00000010
00001000
00000001
00000010
,
00002000
00000000
00000000
00000000
00000000
00000000
00000000
00000000
00000000
00000000
00000000
00003000
00010000
00000000
00001000
00000000
,
00010000
00100000
01000000
10000000
01000000
00100000
00010000
00001000
,
00000010
00000100
00001000
00000001
00000100
00001000
00010000
00000100
,
00010000
00001000
00010000
00100000
10000000
00010000
10000000
01000000
,
00100000
00010000
00001000
00000100
00000010
00000001
00000100
00001000
,
00010000
00000100
00000010
00000001
00000100
00001000
00010000
00100000
,
10000000
00010000
00100000
10000000
00010000
01000000
00010000
00001000
,
00000100
00000001
00001000
00000100
00000010
00000001
00000100
00000000
,
00000110
00000000
00001001
00001000
00000000
00001001
00000001
00000100
,
00000010
00001000
00010000
01000000
00100000
10000000
01000000
00100000
,
00001000
00010000
00100000
01000000
00001000
00010000
00000100
00000010
,
00001000
00000010
00000001
00000100
00001000
00010000
00000100
00010000
,
00001000
00100000
00010000
10000000
00100000
00010000
00001000
00000100
,
00001000
00010000
00001000
00000100
00001000
00010000
01000000
10000000
,
01000000
00000000
00010000
00000000
01000000
00000000
10000000
00000000
01000000
00000000
00010000
00000000
00001000
00100000
00001000
00010000
,
00000100
00001000
00000010
00000100
00000001
00000010
00000100
00010000
00001000
01000000
00010000
10000000
01000000
00000000
00100000
00000000
,
10000000
00100000
00010000
00001000
00000100
00000001
00001000
00000000
;
