#VERSION:0.83;
#TITLE:Cyclone Joker;
#SUBTITLE:;
#ARTIST:庭師;
#TITLETRANSLIT:;
#SUBTITLETRANSLIT:;
#ARTISTTRANSLIT:;
#GENRE:;
#ORIGIN:;
#CREDIT:BG- SELDO;
#BANNER:banner.png;
#BACKGROUND:bg.png;
#PREVIEWVID:;
#JACKET:jacket.png;
#CDIMAGE:;
#DISCIMAGE:;
#LYRICSPATH:;
#CDTITLE:;
#MUSIC:cyclone.mp3;
#OFFSET:1.452000;
#SAMPLESTART:38.816456;
#SAMPLELENGTH:12.000000;
#SELECTABLE:YES;
#BPMS:0.000=149.000;
#STOPS:;
#DELAYS:;
#WARPS:;
#TIMESIGNATURES:0.000=4=4;
#TICKCOUNTS:0.000=4;
#COMBOS:0.000=1;
#SPEEDS:0.000=1.000=0.000=0;
#SCROLLS:0.000=1.000;
#FAKES:;
#LABELS:0.000=Song Start;
#BGCHANGES:3.604=cyclone.mp4=1.000=0=0=0=StretchNoLoop====,
99999=-nosongbg-=1.000=0=0=0 // don't automatically add -songbackground-
;
#KEYSOUNDS:;
#ATTACKS:
;

//---------------dance-single - about-blank----------------
#NOTEDATA:;
#CHARTNAME:about-blank;
#STEPSTYPE:dance-single;
#DESCRIPTION:about-blank;
#CHARTSTYLE:;
#DIFFICULTY:Easy;
#METER:4;
#RADARVALUES:0.145983,0.270603,0.078606,0.047164,0.000000,130.000000,120.000000,10.000000,6.000000,0.000000,0.000000,0.000000,0.000000,0.000000,0.145983,0.270603,0.078606,0.047164,0.000000,130.000000,120.000000,10.000000,6.000000,0.000000,0.000000,0.000000,0.000000,0.000000;
#CREDIT:about-blank;
#NOTES:
0000
0000
0000
0000
,
0000
0000
0000
0000
,
0000
0000
0000
0000
,
0000
0000
0000
0000
,
0000
0000
0000
0000
,
0000
0000
0000
0000
,
1000
0000
0000
0000
,
0010
0000
0000
0000
,
0100
0000
0000
0000
,
0001
0000
0000
0000
,
1001
0000
0000
0000
,
0110
0000
0000
0000
,
1001
0000
0000
0000
,
1000
0000
0000
0100
0000
0000
0001
0000
,
0000
0010
0000
0000
0000
0000
0000
0000
,
0001
0000
0100
0000
,
0010
0000
0000
0000
,
1000
0000
0100
0000
,
0010
0000
0000
0000
,
0001
0000
1000
0000
,
0100
0000
0000
0000
,
1000
0000
0001
0000
,
0100
0000
0000
0000
,
0001
1000
0200
0000
,
1000
0000
1300
0000
,
2000
0000
3010
0000
,
0200
0000
0000
0000
0301
0000
0000
1001
,
0000
1020
0000
0000
,
0130
0001
1000
0000
,
0001
0010
0100
0000
,
2200
0000
0000
0000
,
0000
0000
0000
3300
,
1000
0000
1000
0000
,
1000
0000
1000
0000
,
0010
0000
0010
0000
,
0010
0000
0010
0000
,
0100
0000
0100
0000
,
0100
0000
0100
0000
,
0001
0000
0001
0000
,
0001
0000
0001
0000
,
1001
0000
0000
0000
,
1000
0000
0000
0000
,
0001
0000
0000
0000
,
0100
0000
0000
0000
,
0010
0000
0000
0000
,
1000
1000
1000
0000
,
0001
0001
0001
0000
,
0100
0100
0010
0010
,
1001
0000
0000
0000
,
0000
0000
0000
0000
,
1000
0000
0100
0000
,
0001
0000
0100
0000
,
1000
0000
0000
0000
,
1001
0000
0000
0000
,
0001
0000
0100
0000
,
1000
0000
0100
0000
,
0001
0000
0000
0000
,
1001
0000
0000
0000
,
1000
0000
0010
0000
,
0100
0000
0001
0000
,
0010
0000
0100
0000
,
1000
0000
0001
0000
,
0100
0000
0001
0000
,
1000
0000
0100
0000
,
1000
0000
0000
0000
0000
1000
0000
0000
,
0100
0000
0000
0001
0000
0000
0010
0000
,
0000
0000
0000
0000
,
0000
0000
0000
0000
,
1000
0000
0000
0000
,
0010
0000
0000
0000
,
0100
0000
0000
0000
,
0001
0000
0000
0000
,
1000
0001
1000
0000
,
0001
0100
0001
0000
,
1000
0010
1000
0000
,
1000
0000
0000
0100
0000
0000
0001
0000
,
0000
0010
0000
0000
1000
0000
0000
0000
;

//---------------dance-single - about-blank----------------
#NOTEDATA:;
#CHARTNAME:about-blank;
#STEPSTYPE:dance-single;
#DESCRIPTION:about-blank;
#CHARTSTYLE:;
#DIFFICULTY:Medium;
#METER:6;
#RADARVALUES:0.279614,0.360804,0.196516,0.204377,0.007861,249.000000,224.000000,25.000000,26.000000,0.000000,0.000000,0.000000,0.000000,0.000000,0.279614,0.360804,0.196516,0.204377,0.007861,249.000000,224.000000,25.000000,26.000000,0.000000,0.000000,0.000000,0.000000,0.000000;
#CREDIT:about-blank;
#NOTES:
0000
0000
0000
0000
,
0000
0000
0000
0000
,
0000
0000
0000
0000
,
0000
0000
0000
0000
,
0000
0000
0000
0000
,
0000
0000
0000
0000
,
1000
0000
0000
0000
,
0010
0000
0000
0000
,
0100
0000
0000
0000
,
0001
0000
1000
0001
,
1001
0000
0010
0100
,
1001
0000
0100
0010
,
1001
0000
0010
0100
,
1001
0000
0000
0110
0000
0000
1001
0000
,
0000
0110
0000
0000
0000
0000
0000
0000
,
1000
0100
1000
0001
,
0010
0010
0100
1000
,
0010
0100
0001
1000
,
0002
0100
0010
1003
,
1001
1000
0100
1000
,
0020
0100
0130
0001
,
1000
0001
0100
0010
,
2020
0000
0000
3030
,
0001
0100
0010
0100
,
0001
0010
0100
1000
,
0001
1000
0100
0010
,
0001
0000
0100
0000
1010
0000
0000
0110
,
0000
0202
0000
0303
,
0001
0010
0100
1000
,
0001
1000
0100
0010
,
0002
0000
0000
0000
,
1000
1000
1000
0003
,
1000
0100
0020
0000
,
0031
0000
0000
1000
0000
0000
0001
0000
0000
0000
0000
0000
0000
0000
0000
0000
,
0100
0010
1000
0000
,
0001
0010
0100
0000
,
1000
0001
1000
0000
,
0100
1000
0010
0000
,
0100
0001
0100
0000
,
0001
0010
0001
0000
,
0012
0000
0000
0000
0000
0000
0000
1003
0000
0000
0000
0000
0000
0000
0000
0000
,
1000
0100
1000
0100
,
0010
0001
0010
0001
,
1000
0010
1000
0010
,
1000
0000
0000
0000
,
0101
0001
0100
0010
,
1010
0010
1000
0001
,
1001
0001
1000
0001
,
2000
0000
0000
0000
,
0000
0000
0000
0000
,
3001
0100
1000
0100
,
0001
0100
0010
0000
,
1000
0100
0001
0100
,
0020
0001
0001
0031
,
0002
0103
2000
3100
,
0002
0013
2000
3010
,
0002
1000
1000
1003
,
0001
1000
0001
0000
1000
0001
1000
0000
,
0020
0100
0100
0130
,
0002
0010
0010
0013
,
0200
1000
1000
1300
,
0010
0100
1001
0000
,
2100
0001
0010
3100
,
0102
1000
0010
0103
,
0120
0000
0000
0000
0000
1000
0000
0000
,
0100
0000
0000
0001
0000
0000
0230
0000
,
0000
0000
0000
0000
,
0000
0000
0000
0300
,
0001
0100
0001
0100
,
0010
1000
0010
1000
,
0001
0010
0001
0010
,
0100
0000
1000
0000
0001
1000
0001
0000
,
2000
0100
0100
3100
,
0002
0010
0010
0013
,
2000
0010
0010
3010
,
1001
0000
0000
0110
0000
0000
1001
0000
,
0000
0110
0000
0000
1001
0000
0000
0000
;

//---------------dance-single - about-blank----------------
#NOTEDATA:;
#CHARTNAME:about-blank;
#STEPSTYPE:dance-single;
#DESCRIPTION:about-blank;
#CHARTSTYLE:;
#DIFFICULTY:Hard;
#METER:10;
#RADARVALUES:0.336885,0.420938,0.165074,0.597409,0.157213,300.000000,279.000000,21.000000,76.000000,0.000000,0.000000,0.000000,0.000000,0.000000,0.336885,0.420938,0.165074,0.597409,0.157213,300.000000,279.000000,21.000000,76.000000,0.000000,0.000000,0.000000,0.000000,0.000000;
#CREDIT:about-blank;
#NOTES:
// measure 0
0000
0000
0000
0000
,  // measure 1
0000
0000
0000
0000
,  // measure 2
0000
0000
0000
0000
,  // measure 3
0000
0000
0000
0000
,  // measure 4
0000
0000
0000
0000
,  // measure 5
0000
0000
0000
0000
,  // measure 6
2000
3020
0000
1030
,  // measure 7
0002
0023
0000
0031
,  // measure 8
2000
3002
0000
1003
,  // measure 9
0002
0000
1003
0000
0001
1000
0001
0000
,  // measure 10
2100
0000
0000
0000
0010
0000
0000
3010
0000
0000
1000
0000
0000
0001
0000
0000
,  // measure 11
0102
0000
0000
0000
0010
0000
0000
0013
0000
0000
0001
0000
0000
1000
0000
0000
,  // measure 12
2001
0000
0000
0000
0001
0000
0000
3001
0000
0000
0100
0000
0000
0010
0000
0000
,  // measure 13
1000
0000
0000
0100
0000
0000
0001
0000
0000
0010
0000
0000
1000
0000
0000
0100
,  // measure 14
0000
0000
0001
0000
0000
0010
0000
0000
0000
0000
0000
0000
0000
0000
0000
0000
,  // measure 15
2000
0000
3100
0000
0010
0001
1000
0000
,  // measure 16
0012
0000
1003
0000
1000
0010
0100
0000
,  // measure 17
0002
1003
0200
1300
,  // measure 18
0020
0000
0130
0000
0001
1000
0001
0000
,  // measure 19
0102
0000
1003
0000
0001
0010
0100
0000
,  // measure 20
2000
3100
0020
0031
,  // measure 21
1000
0000
0100
0000
1000
0000
0000
0000
0101
0000
0000
0100
0000
0000
0000
0002
,  // measure 22
0000
0000
0000
0000
,  // measure 23
2003
0000
3010
0000
1000
0001
0020
0000
,  // measure 24
0001
0000
0000
0000
0130
0000
0000
0000
2000
0000
0000
0000
3001
0000
0000
0020
,  // measure 25
0000
0000
0000
0000
0130
0000
0000
0000
1000
0000
0100
0000
0001
0000
0000
0200
,  // measure 26
0000
0000
0000
0000
0310
0000
0000
0000
0001
0000
0000
0100
0000
0000
1000
0000
,  // measure 27
0000
0010
0000
0000
0002
0000
0000
0000
1000
0000
0000
0000
1003
0000
0000
0000
,  // measure 28
0001
0100
0001
0000
1000
0010
1000
0000
,  // measure 29
0002
0000
0000
0000
1003
0000
0000
0000
0020
0000
0000
0130
0000
0001
0000
2000
,  // measure 30
0000
0000
0000
0000
,  // measure 31
0000
0000
0000
3000
,  // measure 32
0010
0000
0010
0000
1000
0001
1000
0000
,  // measure 33
0001
0000
0000
0100
0000
0000
0020
0000
0000
0000
0000
0000
1030
0000
0000
0000
,  // measure 34
0001
1000
0001
0000
1000
0100
1000
0000
,  // measure 35
0020
0100
0001
1030
,  // measure 36
0101
0001
2000
3100
,  // measure 37
0010
0000
0000
0001
0000
0000
2000
0000
0000
0000
0000
0000
3100
0000
0000
0000
,  // measure 38
1000
0010
1000
0000
0001
0100
0001
0000
,  // measure 39
1000
0010
0100
0000
0001
0100
0010
0000
,  // measure 40
2002
0000
0000
0000
0000
0000
0000
3003
0000
0000
0000
0000
0000
0000
0000
0000
,  // measure 41
1100
2000
0000
0000
0000
0000
3000
0000
,  // measure 42
0011
0002
0000
0000
0003
0000
0000
0000
,  // measure 43
1010
0020
0000
0000
0000
0000
0030
0000
,  // measure 44
0101
0200
0000
0000
0000
0000
0300
0000
,  // measure 45
0002
0003
2000
3000
0002
0003
2000
3000
,  // measure 46
0020
0030
0200
0300
0020
0030
0200
0000
,  // measure 47
0301
1000
0001
1000
0001
1000
0010
0100
,  // measure 48
0002
0000
0000
0000
,  // measure 49
0000
0000
0000
0003
,  // measure 50
1200
0001
1000
0301
,  // measure 51
1000
0100
0010
0000
0011
0000
1100
0000
,  // measure 52
0201
0000
0000
0000
1000
0000
0000
0000
0001
0000
0000
0000
1300
0000
0000
0002
,  // measure 53
0000
0010
0100
1003
,  // measure 54
2100
0000
3001
0000
1000
0100
0001
0100
,  // measure 55
2000
0000
0000
0000
3010
0000
0000
0200
0000
0000
0000
0000
0301
0000
0000
0020
,  // measure 56
0000
0001
0100
0130
,  // measure 57
1000
0100
1000
0100
0010
0001
0010
0001
,  // measure 58
1000
0000
0010
0000
0100
0001
0100
0000
,  // measure 59
0001
0010
0200
0000
0010
0000
1300
0000
,  // measure 60
2000
3100
0002
0013
,  // measure 61
0002
0000
0000
0000
1003
0000
0000
1001
0000
0000
0000
0000
0001
0000
0000
0102
,  // measure 62
0000
0000
1003
0000
1000
0010
0100
0000
,  // measure 63
0002
0000
0000
0000
0103
0000
0000
0000
2000
0000
0000
0000
3010
0000
0000
0102
,  // measure 64
0000
0000
0000
0000
0000
0000
0000
0000
0000
0000
2003
0000
0000
3000
0000
0000
,  // measure 65
0200
0000
0000
0300
0000
0000
0002
0000
0000
0013
0000
0000
0200
0000
0000
2000
,  // measure 66
0000
0000
0000
0000
,  // measure 67
0000
0000
0000
3300
,  // measure 68
2000
0000
0000
0000
,  // measure 69
3020
0000
0000
0000
0000
0000
0000
0000
0000
0000
0031
0000
0000
0100
0000
0000
,  // measure 70
2000
0000
0000
0000
,  // measure 71
3002
0000
1003
0000
0001
0010
1000
0010
,  // measure 72
0002
0000
0000
0000
0100
0000
0000
0103
0000
0000
0020
0000
0000
0130
0000
0000
,  // measure 73
2000
0000
0000
0000
0100
0000
0000
3100
0000
0000
0020
0000
0000
0130
0000
0000
,  // measure 74
0002
0000
0000
0000
1003
0000
0000
1000
0000
0000
0100
0000
0000
1000
0000
0000
,  // measure 75
0001
0000
0000
0100
0000
0000
1000
0000
0000
0010
0000
0000
0001
0000
0000
0100
,  // measure 76
0000
0000
1000
0000
0000
0010
0000
0000
1001
0000
0000
0000
0000
0000
0000
0000
;

//---------------dance-double - about-blank----------------
#NOTEDATA:;
#CHARTNAME:about-blank;
#STEPSTYPE:dance-double;
#DESCRIPTION:about-blank;
#CHARTSTYLE:;
#DIFFICULTY:Medium;
#METER:8;
#RADARVALUES:0.305442,0.420938,0.251541,0.165074,0.086467,272.000000,240.000000,32.000000,21.000000,0.000000,0.000000,0.000000,0.000000,0.000000,0.305442,0.420938,0.251541,0.165074,0.086467,272.000000,240.000000,32.000000,21.000000,0.000000,0.000000,0.000000,0.000000,0.000000;
#CREDIT:about-blank;
#NOTES:
00000000
00000000
00000000
00000000
,
00000000
00000000
00000000
00000000
,
00000000
00000000
00000000
00000000
,
00000000
00000000
00000000
00000000
,
00000000
00000000
00000000
00000000
,
00000000
00000000
00000000
00000000
,
20000000
00000000
00100000
30100000
,
02000000
00000000
00010000
03010000
,
00200000
00000000
00001000
00301000
,
00020000
00000000
00000100
00030100
,
00020000
00000000
00000100
00000000
00000000
00000100
00030000
00000000
,
00002000
00000000
01000000
00000000
00000000
01003000
00000000
00000000
,
00020000
00000000
00001000
00000000
00000000
00031000
00000000
00000000
,
00011000
00000000
00000000
10010000
00000000
00000000
00011000
00000000
,
00000000
00001001
00000000
00000000
00000000
00000000
00000000
00000000
,
00001000
00000100
00000010
00000001
,
00000100
00001000
00010000
00100000
,
00010000
00100000
01000000
10000000
,
00100000
00010000
00001000
00000100
,
00000001
00000100
00000010
00001000
,
00000100
00001000
00010000
00100000
,
01000000
00000000
00000000
00000000
10000000
00000000
00000000
00000000
00100000
00000000
00000000
01000000
00000000
00000000
00000000
10010000
,
00000000
00000000
00000000
00000000
,
20000000
30100000
02000000
03010000
,
00100000
00000000
00000000
00000000
00100000
00000000
00000000
00000000
00001000
00000000
00000000
00000000
00010000
00000000
00000000
00000020
,
00000000
00000000
00000000
00000000
00000130
00000000
00000000
00000000
00000001
00000000
00000000
00000000
00001000
00000000
00000000
00000200
,
00000000
00000000
00010300
00000000
00010100
00000000
00000000
00011000
,
00000000
00220000
00000000
00330000
,
00010000
01000000
00100000
10000000
,
01000000
00000000
00000000
00000000
00010000
00000000
00000000
00000000
00001000
00000000
00000000
00000100
00000000
00000000
00000000
00000020
,
00000000
00000000
00000000
00000000
,
00000001
00000001
00000031
00000000
,
00000001
00001000
00000100
00010000
,
00001000
00100000
00010000
01000000
,
00100000
10000000
00100000
01000000
,
00010000
00100000
01000000
00100000
,
00010000
00100000
00001000
00010000
,
00000100
00001000
00000010
00001000
,
00000100
00000010
00000100
00001000
,
00000001
00000100
00000010
00001000
,
00001100
00000000
00000000
00000000
00000000
00000000
00000000
00110000
00000000
00000000
00000000
00000000
00000000
00000000
00000000
00000000
,
10010000
10000000
00000000
00000000
00000000
00000000
00000000
00000000
,
00011000
00010000
00000000
00000000
00000000
00000000
00000000
00000000
,
00001001
00000001
00000000
00000000
00000000
00000000
00000000
00000000
,
00011000
00001000
00000000
00000000
00000000
00000000
00000000
00000000
,
00001000
00100000
00010000
01000000
,
00100000
10000000
00100000
01000000
,
00010000
00100000
00010000
00000000
00100000
00001000
00100000
00000000
,
00012000
00000000
00000000
00000000
,
00010000
00010000
00013000
00000000
,
00010000
00000000
00000000
00000100
00000000
00000000
00000000
00000000
00000100
00000000
00000000
00001000
00000000
00000000
00000000
00000000
,
00000010
00000000
00000000
00000000
00000100
00000000
00000000
00000000
00000001
00000000
00000000
00001000
00000000
00000000
00000000
00000000
,
00000100
00000000
00000000
00010000
00000000
00000000
00000000
00000000
00001000
00000000
00000000
00100000
00000000
00000000
00000000
00010000
,
00000000
00000000
10000000
01100000
,
01010000
00000000
00001000
00011000
,
00001100
00000000
00000000
00000000
00001000
00000000
00000000
00000001
00000000
00000000
00000000
00000000
00000100
00000000
00000000
00000002
,
00000000
00000010
00000010
00000013
,
00000001
00000100
00000001
00000100
00000010
00001000
00000010
00001000
,
00000100
00000000
00000100
00000000
00010000
00001000
00010000
00000000
,
00001000
00000000
00001000
00000000
00100000
00010000
00100000
00000000
,
01000000
00000000
01000000
00000000
00100000
00010000
00100000
00000000
,
00010000
00000000
00000000
00000000
01000000
00000000
00000000
00100000
00000000
00000000
00000000
00000000
10000000
00000000
00000000
10010000
,
00000000
00000000
10000000
00000000
01000000
00100000
01000000
00000000
,
00100000
00000000
00000000
00000000
00010000
00000000
00000000
00000000
00100000
00000000
00001000
00000000
00010000
00000000
00000000
00002000
,
00000000
00000000
00000000
00000000
00003000
00011000
00000000
00000000
,
10010000
00000000
00000000
00000000
00000000
00000000
00011000
00000000
00000000
00000000
00000000
00000000
00001001
00000000
00000000
00000002
,
00000000
00000000
00000000
00000000
,
00000000
00000000
00000000
00000003
,
00000101
00000000
00000000
00000000
,
00010100
00000000
00000000
00000000
00000000
00000000
00000000
00000000
00000000
00000000
00010000
00000000
00000000
00001000
00000000
00000000
,
00110000
00000000
00000000
00000000
,
01000000
00000000
00100000
00000000
10000000
00100000
01000000
00010000
,
20000000
00000000
00000000
00000000
00010000
00000000
00000000
00000000
00000000
00000000
00010000
00000000
00000000
30010000
00000000
00000000
,
00200000
00000000
00001000
00000000
00000000
00001000
00000000
00301000
,
00020000
00000000
00000000
00000000
00001000
00000000
00000000
00000000
00000000
00000000
00001000
00000000
00000000
00031000
00000000
00000000
,
00011000
00000000
00000000
10010000
00000000
00000000
00011000
00000000
,
00000000
00001001
00000000
00000000
00011000
00000000
00000000
00000000
;

//---------------dance-double - about-blank----------------
#NOTEDATA:;
#CHARTNAME:about-blank;
#STEPSTYPE:dance-double;
#DESCRIPTION:about-blank;
#CHARTSTYLE:;
#DIFFICULTY:Hard;
#METER:10;
#RADARVALUES:0.332393,0.420938,0.188656,0.298705,0.153283,296.000000,272.000000,24.000000,38.000000,0.000000,0.000000,0.000000,0.000000,0.000000,0.332393,0.420938,0.188656,0.298705,0.153283,296.000000,272.000000,24.000000,38.000000,0.000000,0.000000,0.000000,0.000000,0.000000;
#CREDIT:about-blank;
#NOTES:
00000000
00000000
00000000
00000000
,
00000000
00000000
00000000
00000000
,
00000000
00000000
00000000
00000000
,
00000000
00000000
00000000
00000000
,
00000000
00000000
00000000
00000000
,
00000000
00000000
00000000
00000000
,
20000000
30200000
00000000
01300000
,
00020000
00100000
00030000
00101000
,
00020000
00001000
00000000
00030100
,
00002000
00000010
00000100
00003100
,
00012000
00000000
00000000
00000000
01000000
00000000
00000000
01000000
00000000
00000000
01000000
00000000
00000000
01003000
00000000
00000000
,
00021000
00000000
00000000
00000000
00000100
00000000
00000000
00000100
00000000
00000000
00000100
00000000
00000000
00030100
00000000
00000000
,
00001002
00000000
00000000
00000000
00000100
00000000
00000000
00000100
00000000
00000000
00000100
00000000
00000000
00000103
00000000
00000000
,
00000001
00000000
00000000
00000010
00000000
00000000
00000100
00000000
00000000
00001000
00000000
00000000
00010000
00000000
00000000
00100000
,
00000000
00000000
01000000
00000000
00000000
10000000
00000000
00000000
00000000
00000000
00000000
00000000
00000000
00000000
00000000
00000000
,
00010000
00000000
10000000
00000000
00100000
01000000
00010000
00000000
,
01000000
00000000
01000000
00000000
00010000
00100000
00010000
00000000
,
00100000
00000000
00001000
00000000
00010000
00000100
00001000
00000000
,
00001002
00000100
00000100
00000103
,
00000001
00000010
00000100
00001000
,
00000100
00010000
00000100
00000000
00010000
00001000
00010000
00000000
,
00001000
00000000
00000000
00000000
00100000
00000000
00000000
00000000
01000000
00000000
00000000
10000000
00000000
00010000
00000000
10000000
,
00000000
00000000
00000000
00000000
,
21000000
00000000
30010000
00000000
00100000
00010000
01000000
00000000
,
00010000
00000000
00100000
00000000
00001000
00000000
00000000
00000000
00010000
00000000
00000000
00000000
00001000
00000000
00000000
00000200
,
00000000
00000000
00000310
00000000
00001000
00000001
00001000
00000000
,
00000002
00000000
00000103
00000000
00001001
00000000
00000000
00011000
,
00000000
20010000
01000000
31000000
,
10000000
00100000
01000000
00000000
00100000
01000000
00010000
00000000
,
10000000
00000000
00000000
00000000
01000000
00000000
00000000
00000000
00010000
00000000
00000000
00001000
00000000
00000000
00000000
00020000
,
00000000
00000000
00000000
00000000
,
00001000
00001000
00031000
00000000
,
00001000
00000100
00000001
00000010
,
00001000
00010000
01000000
10000000
,
01000000
00100000
00010000
01000000
,
00100000
00010000
00001000
00000100
,
00000010
00001000
00000001
00000010
,
00000100
00001000
00010000
00100000
,
01000000
00010000
00001000
00000100
,
00000010
00010000
00001000
00100000
,
02000000
00000000
00000000
00000000
00000000
00000000
00000000
13000000
00000000
00000000
00000000
00000000
00000000
00000000
00000000
00000000
,
10000000
10000000
00000000
00000000
00000000
00000000
00000000
00000000
,
00010000
00010000
00000000
00000000
00000000
00000000
00000000
00000000
,
00001000
00001000
00000000
00000000
00000000
00000000
00000000
00000000
,
00000001
00000001
00000000
00000000
00000000
00000000
00000000
00000000
,
00000200
00000300
00000020
00000030
00002000
00003000
00000200
00000300
,
00020000
00030000
00002000
00003000
00200000
00300000
00020000
00030000
,
10000000
01000000
00010000
00000000
00001000
00000100
00000001
00000010
,
00002000
00000000
00000000
00000000
,
00010000
00010000
00013000
00000000
,
00020000
00000000
00000000
10030000
00000000
00000000
00000000
00000000
20000000
00000000
00000000
30100000
00000000
00000000
00000000
00000000
,
01000000
00000000
00010000
00000000
01000000
00010000
01000000
00000000
,
00020000
00000000
00000000
00130000
00000000
00000000
00000000
00000000
00002000
00000000
00000000
00013000
00000000
00000000
00000000
00011000
,
00000000
00000000
00001000
00000100
,
00000101
00000000
00000001
00000010
,
00001010
00000000
00000000
00000000
00020000
00000000
00000000
00130000
00000000
00000000
00000000
00000000
20000000
00000000
00000000
32000000
,
00000000
00100000
00100000
03100000
,
00100000
00010000
00100000
00010000
01000000
00010000
01000000
00010000
,
00100000
00000000
00001000
00000000
00010000
00001000
00010000
00000000
,
00000100
00000000
00001000
00000000
00000010
00000100
00000010
00000000
,
00000100
00000001
00000010
00000100
,
00001000
00000000
00000000
00000000
00000010
00000000
00000000
00001010
00000000
00000000
00000000
00000000
00000000
00000000
00000000
00012000
,
00000000
00010000
00010000
00013000
,
00010000
00000000
00001000
00000000
00100000
00000000
00000000
00000000
00100000
00000000
01000000
00000000
10000000
00000000
00000000
20200000
,
00000000
00000000
00000000
00000000
30300000
10010000
00000000
00000000
,
00011000
00000000
00000000
00000000
00000000
00000000
00001001
00000000
00000000
00000000
00000000
00000000
00020000
00000000
00000000
00002000
,
00000000
00000000
00000000
00000000
,
00000000
00000000
00000000
00033000
,
00011000
00000000
00000000
00000000
,
00110000
00000000
00000000
00000000
00000000
00000000
00000000
00000000
00000000
00000000
10000000
00000000
00000000
00100000
00000000
00000000
,
01010000
00000000
00000000
00000000
,
00101000
00000000
00001000
00000000
00010000
00000100
00001000
00000001
,
00000020
00000000
00000000
00000000
00000001
00000000
00000000
00000001
00000000
00000000
00000001
00000000
00000000
00000031
00000000
00000000
,
00000200
00000000
00000000
00000000
00001000
00000000
00000000
00001000
00000000
00000000
00001000
00000000
00000000
00001300
00000000
00000000
,
00011000
00000000
00001000
00000000
00100000
00000000
00000000
00010000
00000000
00000000
01000000
00000000
00000000
00100000
00000000
00000000
,
10000000
00000000
00000000
01000000
00000000
00000000
00100000
00000000
00000000
00010000
00000000
00000000
00001000
00000000
00000000
00000100
,
00000000
00000000
00000010
00000000
00000000
00000001
00000000
00000000
00001001
00000000
00000000
00000000
00000000
00000000
00000000
00000000
;
