#TITLE:Cut-up & Dance;
#SUBTITLE:;
#ARTIST:Nizikawa;
#TITLETRANSLIT:;
#SUBTITLETRANSLIT:;
#ARTISTTRANSLIT:;
#GENRE:;
#CREDIT:;
#BANNER:Cut-up & Dance.png;
#BACKGROUND:Cut-up & Dance-bg.png;
#LYRICSPATH:;
#CDTITLE:;
#MUSIC:Cut-up & Dance.ogg;
#OFFSET:-0.026000;
#SAMPLESTART:20.575020;
#SAMPLELENGTH:15.000000;
#SELECTABLE:YES;
#BPMS:0.000000=140.000000
;
#STOPS:79.500000=0.429000,
206.500000=0.429000
;
#BGCHANGES:;
#KEYSOUNDS:;
#ATTACKS:;

//---------------dance-single - ----------------
#NOTES:
     dance-single:
     :
     Hard:
     13:
     0.574215,0.677391,0.224195,0.280244,0.348304,502.000000,474.000000,28.000000,35.000000,0.000000,0.000000,0.574215,0.677391,0.224195,0.280244,0.348304,502.000000,474.000000,28.000000,35.000000,0.000000,0.000000:
0000
0000
0000
0000
,
0000
0000
0000
0000
,
0000
0000
0000
0000
,
0000
0000
0000
0000
,
1000
0000
0000
0000
0000
0000
0000
0000
0000
1000
0000
0000
0000
0000
0000
0000
0000
0000
0100
0000
0000
0000
0000
0000
0000
0000
0000
0000
0000
0000
0010
0000
0000
0000
0000
0000
0001
0000
0000
0000
0001
0000
1000
0000
0000
0000
0000
0000
,
0001
0000
0000
0001
0000
0000
0100
0000
0000
0000
0110
0000
0000
1001
0000
0000
,
1000
0000
0000
0000
0000
0000
0000
0000
0000
1000
0000
0000
0000
0000
0000
0000
0000
0000
0100
0000
0000
0000
0000
0000
0000
0000
0000
0000
0000
0000
0010
0000
0000
0000
0000
0000
0001
0000
0000
0000
0001
0000
1000
0000
0000
0000
1000
0000
,
0010
0000
0000
0010
0000
0000
0020
0000
0000
0000
0130
0000
1001
0000
0000
0000
,
0001
0000
0000
0000
0000
0000
0000
0000
0000
0001
0000
0000
0000
0000
0000
0000
0000
0000
0100
0000
0000
0000
0000
0000
0000
0000
0000
0000
0000
0000
0010
0000
0000
0000
0000
0000
1000
0000
0000
0000
1000
0000
0001
0000
0000
0000
0000
0000
,
1000
0000
0000
1000
0000
0000
0100
0000
0000
0000
0110
0000
0000
1001
0000
0000
,
0001
0000
0000
0000
0000
0000
0000
0000
0000
0001
0000
0000
0000
0000
0000
0000
0000
0000
0100
0000
0000
0000
0000
0000
0000
0000
0000
0000
0000
0000
0010
0000
0000
0000
0000
0000
1000
0000
0000
0000
1000
0000
0001
0000
0000
0000
0001
0000
,
0010
0000
0000
0010
0000
0000
0220
0000
0000
0000
0000
0000
0000
0000
0000
0000
,
0330
0010
0100
1000
0001
1000
0100
0010
,
0001
1000
0010
0100
0002
0000
2003
0000
,
3000
0010
0100
0001
1000
1000
0001
0100
,
0010
1000
0100
1000
0001
0001
0020
0200
,
0330
0100
0010
0001
1000
0010
0100
0010
,
1000
0001
0010
0100
2000
0000
3002
0000
,
0003
0001
0100
0001
1000
0100
1000
0001
,
0100
0000
0100
0000
0020
0000
0000
0000
1030
0001
1000
0001
0020
0000
0130
0000
,
1000
0000
0100
0000
0001
0000
0000
0001
0100
0000
1000
0000
0001
0000
0100
0000
,
1000
0000
0100
0000
0001
0000
1000
0000
0000
1000
0001
0000
1000
0000
0100
0000
,
0010
0000
0100
0000
1000
0000
0000
1000
0010
0000
0100
0000
0001
0000
0001
0000
,
0100
0100
0010
1000
0002
2000
3003
0001
,
1000
0000
0100
0000
0010
0000
0000
0010
0100
0000
1000
0000
0001
0000
0001
0000
,
0010
0000
0100
0000
1000
0000
0001
0000
0000
0001
1000
0000
0001
0000
0100
0000
,
0010
0000
1000
0000
0100
0000
0000
0100
0000
0000
0010
0000
0100
0000
0100
0000
,
2000
0000
0000
0000
3001
0100
0001
0100
0010
0000
2000
0000
3001
0000
0001
0000
,
0100
0000
0001
0000
1000
0000
0000
0000
1100
0000
0000
0000
1001
0000
0000
0001
,
1000
0000
0000
1000
0100
0000
0000
0100
0010
0000
0000
0010
0001
0000
0001
0000
,
1000
0010
0100
0000
0101
0000
1001
0000
,
1000
0010
0001
0100
1000
0001
1000
1000
,
0100
0000
1000
0000
0001
0000
0000
0000
0011
0000
0000
0000
1001
0000
0000
0001
,
0100
0000
0000
0100
0010
0000
0000
0010
1000
0000
0000
0000
0010
0000
0000
0000
,
1010
0000
0000
0000
0011
0000
0000
0000
0010
0000
0001
0000
1000
0000
0000
0110
,
0000
2002
0000
0000
3003
0000
1000
0200
,
0300
0000
0000
0100
1000
0000
0020
0000
0030
0000
0000
0000
0100
0000
0002
0000
,
0003
0000
0000
0001
0100
0000
0020
0000
0030
0000
0000
0000
1000
0000
2000
0000
,
3010
0000
0000
0010
1000
0000
2000
0000
3100
0000
0000
0000
0010
0000
0020
0000
,
0031
0000
0000
0001
0010
0000
0020
0000
0130
0000
0000
0000
1000
0000
0100
0000
,
0010
0001
0010
0100
1000
0001
1000
0010
,
0100
0000
0001
0000
0100
0000
0010
0000
1000
0000
0001
0000
0100
0001
1000
0000
,
0001
1000
0100
0000
1000
0100
1000
0100
0010
0001
0010
0001
0020
0000
0000
0000
,
0130
0000
0000
0100
1000
0000
1000
0000
0001
0000
0000
0000
0001
0000
0100
0000
,
0010
0000
0000
0100
0001
0000
0100
0000
0020
0000
1030
0000
1000
0000
0100
0000
,
0010
0000
0100
0000
0000
0100
1000
0000
0001
0000
1000
0001
0010
0000
0100
0000
,
0010
0001
0010
0000
0001
0000
1000
0001
0000
0000
1000
0010
0100
0010
0100
0001
,
1000
0000
1000
0100
0000
0010
0100
0000
0110
0000
0000
0000
0010
0000
0100
0000
,
1000
0000
0000
0100
0010
0000
0001
0000
2000
0000
3001
0000
0001
0000
0100
0000
,
0010
0000
1000
0000
0000
0010
0000
0000
0010
0000
1000
0001
1000
0000
0100
0000
,
0000
0100
0000
0000
0100
0000
0000
0100
0000
0000
0100
0010
0001
0000
0001
0000
,
2000
0000
0000
0000
3001
0010
0001
0010
0200
0000
1300
0000
0100
0000
1000
0000
,
0001
0000
0000
0001
0010
0000
0001
0000
1000
0000
0000
1000
0001
0000
0100
0000
,
0000
0000
0001
0000
1000
0010
1000
0000
0100
0000
1000
0000
0001
0000
0000
0001
,
0100
0000
0000
0001
2000
0000
3100
0000
0010
0000
0100
1000
0000
1000
0000
0000
,
0001
0100
0100
0100
0001
0100
1000
0100
,
0001
0000
0000
1001
0000
0000
1000
0000
0010
0000
0100
0010
0000
0100
0001
0000
,
0000
0000
0001
0000
0000
0101
0000
0000
1001
0000
0000
0000
1000
0000
0010
0000
,
0001
0000
0000
0010
0000
0000
1000
0000
0001
0000
0001
0000
2000
0000
0000
0000
,
3001
0100
0001
0100
0020
0000
1030
0000
0001
0000
0001
0000
0100
0000
0001
0000
,
1000
0000
0000
0000
1100
0000
0000
0000
0110
0000
0000
0010
0001
0000
0000
0001
,
1000
0000
0000
1000
0010
0000
0000
0010
1000
0000
1000
0000
0001
0000
0100
0000
,
0010
0000
1010
0000
1001
0000
0001
0010
,
1000
0100
0001
1000
0001
0001
0100
0001
,
1000
0000
0000
0000
1010
0000
0000
0000
0110
0000
0000
0100
0001
0000
0000
0001
,
1000
0000
0000
1000
0100
0000
0000
0000
0010
0000
0000
0000
0011
0000
0000
0000
,
1010
0000
0010
1000
0001
0100
0001
1000
,
0020
0000
0000
0000
0030
0000
0000
0000
1000
0000
0010
0000
0100
0000
0000
0010
,
1000
0001
0100
0000
0001
0100
0010
0100
,
0001
0000
1000
0000
0000
1000
0000
0000
0001
0000
0010
0000
0100
0000
0000
0010
,
0001
1000
0200
0000
0301
0000
0000
0000
;

//---------------dance-single - Air Special----------------
#NOTES:
     dance-single:
     Air Special:
     Challenge:
     13:
     0.571927,0.677391,1.289124,0.440384,0.112098,500.000000,339.000000,161.000000,55.000000,0.000000,0.000000,0.571927,0.677391,1.289124,0.440384,0.112098,500.000000,339.000000,161.000000,55.000000,0.000000,0.000000:
// measure 0
0000
0000
0000
0000
,  // measure 1
0000
0000
0000
0000
,  // measure 2
0000
0000
0000
0000
,  // measure 3
0000
0000
0000
0000
,  // measure 4
1000
0000
0000
1100
0000
0000
1001
0000
0000
0000
0001
0000
0001
0000
0010
0000
,  // measure 5
0001
0000
0000
0101
0000
0000
1001
0000
0000
0000
0002
0000
0000
0203
0000
0000
,  // measure 6
0310
0000
0000
1010
0000
0000
1001
0000
0000
0000
1000
0000
1000
0000
0100
0000
,  // measure 7
1000
0000
0000
1001
0000
0000
0220
0000
0000
0000
0000
0000
0330
0000
0000
0000
,  // measure 8
0001
0000
0000
0101
0000
0000
1001
0000
0000
0000
1000
0000
1000
0000
0010
0000
,  // measure 9
1000
0000
0000
1100
0000
0000
1001
0000
0000
0000
2000
0000
0000
3200
0000
0000
,  // measure 10
0310
0000
0000
0011
0000
0000
1001
0000
0000
0000
0001
0000
0001
0000
0100
0000
,  // measure 11
0001
0000
0000
0110
0000
0000
2002
0000
0000
0000
0000
0000
3003
0000
0000
0000
,  // measure 12
1001
0000
0101
0000
0011
0002
0003
1000
,  // measure 13
1010
0000
1100
1000
0002
0000
2003
0000
,  // measure 14
3000
0100
0110
0000
0011
0001
1000
0010
,  // measure 15
1010
0000
1001
0001
0101
0100
0020
0200
,  // measure 16
0330
0000
1010
0010
0110
0200
0300
0001
,  // measure 17
1001
0000
1001
0001
0020
0000
0230
0000
,  // measure 18
0300
0100
1100
0000
0011
0010
0110
0100
,  // measure 19
1000
1000
0020
0000
0130
0100
0110
0220
,  // measure 20
0330
0000
0000
0000
1010
0000
0000
0101
0000
0000
0000
0000
1010
0000
1000
0000
,  // measure 21
0001
0000
0000
0000
0011
0000
0001
0000
0000
0001
0000
0000
0010
0000
0010
0000
,  // measure 22
0110
0000
0000
0000
1001
0000
0000
0101
0000
0000
1000
0000
1010
0000
0000
0000
,  // measure 23
0110
0000
0010
1000
0002
2000
3003
0000
,  // measure 24
1100
0000
0000
0000
0101
0000
0000
1001
0000
0000
0001
0000
0010
0000
0000
0000
,  // measure 25
0011
0000
0000
0000
1010
0000
1000
0000
0000
1000
0000
0000
1001
0000
0000
0000
,  // measure 26
1100
0000
0000
0000
0011
0000
0000
0110
0000
0000
0010
0000
0001
0000
0001
0000
,  // measure 27
2000
0000
3001
0001
0101
0100
1010
0000
,  // measure 28
1001
1000
1010
0000
1100
0000
1001
0000
,  // measure 29
0101
0011
0110
0011
,  // measure 30
1001
0001
1010
0000
0101
0000
1010
0000
,  // measure 31
0011
0000
0010
0100
1000
0100
0110
0000
,  // measure 32
0011
0010
0110
0000
1100
0000
1001
0000
,  // measure 33
0101
1010
1100
0011
,  // measure 34
0101
0000
0000
0000
1010
0000
0000
0000
1000
0000
0010
0000
0110
0000
0000
0110
,  // measure 35
0000
2002
0000
0000
3003
0000
0102
0000
,  // measure 36
0003
0012
0003
2100
,  // measure 37
3000
0000
2010
0000
3000
0000
0102
0100
,  // measure 38
0003
0000
0021
0001
0030
0000
2100
0100
,  // measure 39
3000
0000
1020
1000
0030
0000
1100
0100
,  // measure 40
1100
0000
0110
0010
0110
0000
0011
0001
,  // measure 41
0011
0000
1001
1000
1001
0000
1010
0010
,  // measure 42
0110
0100
0101
0001
0011
0010
1001
0000
,  // measure 43
1000
0000
0000
1000
0001
0000
0001
0000
0100
0000
0000
0000
2001
0000
0000
0000
,  // measure 44
0100
0000
0001
0000
0020
0030
0001
0000
,  // measure 45
0100
0000
0100
0000
0000
0001
0000
0000
3010
0000
0000
0000
1002
0000
1000
0000
,  // measure 46
0000
1000
0000
0000
0010
0000
0000
0010
0000
0000
0010
0000
1000
0000
0000
0000
,  // measure 47
1000
0000
0100
0100
1003
0000
2001
0001
,  // measure 48
0010
0000
0100
0000
0020
0030
0001
0000
,  // measure 49
0100
0000
0100
0000
0000
0010
0000
0000
3001
0000
0000
0000
1002
0000
0000
0000
,  // measure 50
0010
0000
0100
0000
0013
0000
1000
1000
,  // measure 51
0002
0000
0013
0010
0110
0220
0330
0000
,  // measure 52
0011
0000
0000
0011
0000
0000
0001
0000
2001
0000
0000
0000
3010
0000
0000
0000
,  // measure 53
1002
0000
0010
0000
0003
0010
0000
0000
0010
0000
0000
0000
1001
0000
0000
0000
,  // measure 54
1010
0000
0000
1010
0000
0000
0010
0000
0210
0000
0000
0000
0301
0000
0000
0000
,  // measure 55
0001
0100
0010
1000
1001
1000
1100
0000
,  // measure 56
0011
0000
0000
0011
0000
0000
0001
0000
1002
0000
0000
0000
0103
0000
0000
0000
,  // measure 57
2001
0000
0100
0000
3000
0100
0000
0000
1100
0000
0000
0000
1010
0000
0000
0000
,  // measure 58
0011
0000
0101
0000
0001
0001
2000
0000
,  // measure 59
3100
0100
0010
0010
0110
0000
1001
0100
,  // measure 60
1001
1100
1001
0011
,  // measure 61
1010
0000
0101
0000
0110
0010
1010
1000
,  // measure 62
1001
0011
1001
1100
,  // measure 63
0100
0010
0100
0010
0011
1000
1010
0001
,  // measure 64
0101
1001
1010
1100
,  // measure 65
0011
0110
2100
0001
,  // measure 66
3010
0000
0010
1000
1001
0001
0110
1000
,  // measure 67
2002
3003
0102
0013
,  // measure 68
2010
3100
0102
0013
,  // measure 69
0010
0000
0110
0000
0000
0110
0000
0000
2100
0000
0000
0000
3010
0000
0000
0000
,  // measure 70
0012
0103
1010
0000
;
