#VERSION:0.83;
#TITLE:Credits;
#SUBTITLE:;
#ARTIST:Frums;
#TITLETRANSLIT:;
#SUBTITLETRANSLIT:;
#ARTISTTRANSLIT:;
#GENRE:;
#ORIGIN:;
#CREDIT:;
#BANNER:Credits.png;
#BACKGROUND:Credits-bg.png;
#PREVIEWVID:;
#JACKET:Credits-jacket.png;
#CDIMAGE:;
#DISCIMAGE:;
#LYRICSPATH:;
#CDTITLE:cdtitle.png;
#MUSIC:Credits.mp3;
#OFFSET:-0.153000;
#SAMPLESTART:32.332001;
#SAMPLELENGTH:13.408000;
#SELECTABLE:YES;
#BPMS:0.000=179.000;
#STOPS:;
#DELAYS:;
#WARPS:;
#TIMESIGNATURES:0.000=4=4;
#TICKCOUNTS:0.000=4;
#COMBOS:0.000=1;
#SPEEDS:0.000=1.000=0.000=0;
#SCROLLS:0.000=1.000;
#FAKES:;
#LABELS:0.000=Song Start;
#BGCHANGES:;
#KEYSOUNDS:;
#ATTACKS:
;

//---------------dance-single - MEGAtive----------------
#NOTEDATA:;
#CHARTNAME:;
#STEPSTYPE:dance-single;
#DESCRIPTION:MEGAtive;
#CHARTSTYLE:;
#DIFFICULTY:Beginner;
#METER:7;
#RADARVALUES:0.378765,0.512171,0.071383,0.295728,0.000000,260.000000,253.000000,7.000000,29.000000,0.000000,0.000000,0.000000,0.000000,0.000000,0.378765,0.512171,0.071383,0.295728,0.000000,260.000000,253.000000,7.000000,29.000000,0.000000,0.000000,0.000000,0.000000,0.000000;
#CREDIT:;
#NOTES:
0000
0000
0000
0000
,
0000
0000
0000
0000
,
0000
0000
0000
0000
,
0000
0000
0000
0000
,
2000
0000
0000
0000
,
0000
0000
0000
0020
0000
0000
3030
0000
,
0002
0000
0000
0000
,
0000
0000
0000
0020
0000
0000
0033
0000
,
1000
0000
0010
0000
0000
0010
0000
0000
,
1000
0100
0020
0000
,
0031
0000
0100
0000
0000
0100
0000
0000
,
0001
0010
0200
0000
,
1300
0000
0100
0000
0000
0100
0000
0000
,
1000
0010
0200
0000
,
0301
0000
0010
0000
0000
0010
0000
0000
,
0001
0100
0020
0000
,
1030
0000
0010
0000
0000
0010
0000
0000
,
1000
0100
0020
0000
,
0031
0000
0100
0000
0000
0100
0000
0000
,
0001
0010
0200
0000
,
1300
0000
0100
0000
0000
0100
0000
0000
,
1000
0010
0200
0000
,
0301
0000
0010
0000
0000
0010
0000
0000
,
0001
0100
0020
0000
,
1030
1000
0100
0100
,
0010
0010
0002
0000
,
1003
1000
0010
0010
,
0100
0100
0002
0000
,
1003
1000
0100
0100
,
0010
0000
0010
0001
0001
0000
1000
1000
,
0000
0001
0001
0000
1000
1000
0000
0001
,
0001
0000
1000
1000
0000
0001
0001
0000
,
0001
0001
0010
0010
,
0100
0100
2000
0000
,
3001
0001
0100
0100
,
0010
0010
2000
0000
,
3001
0001
0010
0010
,
0100
0000
0100
1000
1000
0000
0001
0001
,
0000
1000
1000
0000
0001
0001
0000
1000
,
1000
0000
0001
0001
2000
0000
3000
0000
,
1000
1010
0001
0011
,
1000
1010
0001
0011
,
1000
1100
0001
0101
,
1000
0000
1100
0000
0001
1000
0001
1000
,
0001
0000
0100
0010
0100
0000
0001
0010
,
0001
0000
0100
0010
0100
0000
0001
0010
,
0001
0000
1000
0010
1000
0000
0100
0010
,
0100
0000
1000
0001
1000
0001
1000
0000
,
0001
0010
0001
0010
0001
0000
1000
0010
,
1000
0000
0001
0010
0002
0000
0000
0000
,
1003
0100
1000
0100
1000
0000
0001
0100
,
0001
0000
1000
0100
2000
0000
0000
0000
,
3001
0100
0001
0100
0001
0000
1000
0100
,
1000
0000
0001
0100
0002
0000
0000
0000
,
1003
0010
1000
0010
1000
0000
0001
0010
,
0001
0000
1000
0010
2000
0000
3000
0000
,
0001
0000
0010
0000
0000
0010
0000
0000
,
0001
0100
0020
0000
,
1030
0000
0100
0000
0000
0100
0000
0000
,
1000
0010
0200
0000
,
0301
0000
0100
0000
0000
0100
0000
0000
,
0001
0010
0200
0000
,
1300
0000
0010
0000
0000
0010
0000
0000
,
1000
0100
0020
0000
,
0031
0000
0010
0000
0000
0010
0000
0000
,
0001
0100
0020
0000
,
1030
0000
0100
0000
0000
0100
0000
0000
,
1000
0010
0200
0000
,
0301
0000
0100
0000
0000
0100
0000
0000
,
0001
0010
0200
0000
,
1300
0000
0010
0000
0000
0010
0000
0000
,
1000
0100
0020
0030
;

//---------------dance-single - MEGAtive----------------
#NOTEDATA:;
#CHARTNAME:;
#STEPSTYPE:dance-single;
#DESCRIPTION:MEGAtive;
#CHARTSTYLE:;
#DIFFICULTY:Easy;
#METER:11;
#RADARVALUES:0.603111,0.658505,0.091778,0.346716,0.300827,414.000000,405.000000,9.000000,34.000000,0.000000,0.000000,0.000000,0.000000,0.000000,0.603111,0.658505,0.091778,0.346716,0.300827,414.000000,405.000000,9.000000,34.000000,0.000000,0.000000,0.000000,0.000000,0.000000;
#CREDIT:;
#NOTES:
0000
0000
0000
0000
,
0000
0000
0000
0000
,
0000
0000
0000
0000
,
0000
0000
0000
0000
,
0002
0000
0000
0000
,
0000
0000
0000
0000
0000
0000
0000
0000
0000
0023
0000
0000
0000
0000
0000
0000
0000
0230
0000
0000
0000
0000
0000
0000
,
2300
0000
0000
0000
,
0000
0000
0000
0000
0000
0000
0000
0000
0000
3020
0000
0000
0000
0000
0000
0000
0230
0000
0000
0000
0000
0000
0000
0000
,
0301
0000
0010
0100
0000
0010
0001
0000
,
1000
0000
0000
0000
0010
0000
0100
0000
0001
1000
0001
0000
1000
0000
0001
0000
,
1000
0000
0100
0010
0000
0100
1000
0000
,
0001
0000
0000
0000
0100
0000
0010
0000
1000
0001
1000
0000
0001
0000
1000
0000
,
0001
0000
0100
0010
0000
0100
0001
0000
,
1000
0000
0000
0000
0100
0000
0010
0000
0001
1000
0001
0000
1000
0000
0001
0000
,
1000
0000
0010
0100
0000
0010
1000
0000
,
0001
0000
0000
0000
0010
0000
0100
0000
1000
0001
1000
0000
0001
0000
1000
0000
,
0001
0000
0010
0100
0000
0010
0001
0000
,
1000
0000
0000
0000
0010
0000
0100
0000
0001
1000
0001
0000
1000
0000
0001
0000
,
1000
0000
0100
0010
0000
0100
1000
0000
,
0001
0000
0000
0000
0100
0000
0010
0000
1000
0001
1000
0000
0001
0000
1000
0000
,
0001
0000
0100
0010
0000
0100
0001
0000
,
1000
0000
0000
0000
0100
0000
0010
0000
0001
1000
0001
0000
1000
0000
0001
0000
,
1000
0000
0010
0100
0000
0010
1000
0000
,
0001
0000
0000
0000
0010
0000
0100
0000
1000
0001
1000
0000
0001
0000
1000
0000
,
0001
0010
0001
1000
0010
1000
0001
0100
,
0001
0010
0001
1000
0100
1000
0100
1000
,
0001
0000
0100
0000
0001
0100
0001
0000
1000
0000
0100
0000
0010
0000
0001
0000
,
1000
0010
1000
0010
1000
1000
0010
0100
,
0001
0010
0001
1000
0010
1000
0001
0100
,
0010
1000
0001
0020
0100
0030
0020
0100
,
0030
0020
0100
0030
0020
0100
0030
0020
,
0100
0030
0020
0100
0030
0020
0100
0030
,
1000
0100
1000
0001
0100
0001
1000
0010
,
1000
0100
1000
0001
0010
0001
0010
0001
,
1000
0000
0010
0000
1000
0010
1000
0000
0001
0000
0010
0000
0100
0000
1000
0000
,
0001
0100
0001
0100
0001
0001
0100
0010
,
1000
0100
1000
0001
0100
0001
1000
0010
,
0100
0001
1000
0200
0010
0300
0200
0010
,
0300
0200
0010
0300
0200
0010
0300
0200
,
0010
0300
0200
0010
0300
0000
0000
0000
,
0001
0000
0000
0010
0000
0000
0000
0000
0001
0000
0000
0100
0000
0000
0000
0000
,
0001
0000
0000
0010
0000
0000
0000
0000
0100
0000
0000
1000
0000
0000
0010
0000
,
1000
0000
0000
0100
0000
0000
0000
0000
1000
0000
0000
0010
0000
0000
0000
0000
,
1000
0000
0000
0100
0000
0000
0000
0000
0010
0000
0000
0001
0000
0000
0100
0000
,
0001
0000
0000
0001
0000
0000
0002
0000
1003
0000
0000
1000
0000
0000
2000
0000
,
3010
0000
0000
0010
0000
0000
0020
0000
0130
0000
0000
0100
0000
0000
0200
0000
,
0301
0000
0000
0001
0000
0000
0002
0000
0013
0000
0000
0010
0000
0000
0020
0000
,
0130
0000
0000
0100
0000
0000
0200
0000
1300
0000
0000
1000
0001
0000
0000
0000
,
1010
0000
0000
0010
0000
1000
0000
0000
0011
0000
0000
0001
0000
0010
0000
0000
,
1100
0000
0000
1000
0000
0100
0000
0000
1000
0000
0010
0000
0100
0000
0001
0000
,
0010
0000
0000
0001
0000
0010
0000
0000
1001
0000
0000
0001
0000
1000
0000
0000
,
0110
0000
0000
0010
0000
0100
0000
0000
0010
0000
1000
0000
0001
0000
0010
0000
,
0100
0000
0000
0010
0000
0100
0000
0000
1100
0000
0000
0100
0000
1000
0000
0000
,
0101
0000
0000
0001
0000
0100
0000
0000
0001
0000
0100
0000
0010
0000
1000
0000
,
0100
0000
0000
1000
0000
0100
0000
0000
0110
0000
0000
0010
0000
0100
0000
0000
,
1001
0000
0000
1000
0000
0001
0000
0000
0100
0000
0010
0000
2000
0000
0000
0000
,
3001
0000
0010
0100
0000
0010
0001
0000
,
1000
0000
0000
0000
0010
0000
0100
0000
0001
1000
0001
0000
1000
0000
0001
0000
,
1000
0000
0100
0010
0000
0100
1000
0000
,
0001
0000
0000
0000
0100
0000
0010
0000
1000
0001
1000
0000
0001
0000
1000
0000
,
0001
0000
0100
0010
0000
0100
0001
0000
,
1000
0000
0000
0000
0100
0000
0010
0000
0001
1000
0001
0000
1000
0000
0001
0000
,
1000
0000
0010
0100
0000
0010
1000
0000
,
0001
0000
0000
0000
0010
0000
0100
0000
1000
0001
1000
0000
0001
0000
1000
0000
,
0001
0000
0010
0100
0000
0010
0001
0000
,
1000
0000
0000
0000
0000
0000
0010
0000
0000
0200
0000
0000
0000
0000
0000
0000
0000
0302
0000
0000
0000
0000
0000
0000
,
1003
0000
0100
0010
0000
0100
1000
0000
,
0001
0000
0000
0000
0000
0000
0100
0000
0000
0020
0000
0000
0000
0000
0000
0000
0000
2030
0000
0000
0000
0000
0000
0000
,
3001
0000
0100
0010
0000
0100
0001
0000
,
1000
0000
0000
0000
0000
0000
0100
0000
0000
0020
0000
0000
0000
0000
0000
0000
0000
0032
0000
0000
0000
0000
0000
0000
,
1003
0000
0010
0100
0000
0010
1000
0000
,
0001
0000
0010
0100
2000
0000
3000
0000
;

//---------------dance-single - MEGAtive----------------
#NOTEDATA:;
#CHARTNAME:;
#STEPSTYPE:dance-single;
#DESCRIPTION:MEGAtive;
#CHARTSTYLE:;
#DIFFICULTY:Medium;
#METER:13;
#RADARVALUES:0.830370,0.911404,0.407901,0.224346,0.555765,570.000000,530.000000,40.000000,22.000000,0.000000,0.000000,0.000000,0.000000,0.000000,0.830370,0.911404,0.407901,0.224346,0.555765,570.000000,530.000000,40.000000,22.000000,0.000000,0.000000,0.000000,0.000000,0.000000;
#CREDIT:;
#NOTES:
0000
0000
0000
0000
,
0000
0000
0000
0000
,
0000
0000
0000
0000
,
0000
0000
0000
0000
,
2000
0000
0000
0000
,
0000
0000
0000
0000
0000
0000
0000
0000
0000
3001
0000
0000
0000
0001
0000
0000
0000
1000
0000
0000
0000
1000
0000
0000
,
0002
0000
0000
0000
,
0000
0000
0000
0000
0000
0000
0000
0000
0000
1003
0000
0000
0000
1000
0000
0000
0000
0001
0000
0000
0000
0001
0000
0000
,
1000
0100
1000
0100
1000
0100
1000
0100
,
1000
0000
0100
0000
1000
0000
0100
0000
1000
0100
1000
0100
1000
0100
1000
0000
,
0010
1000
0010
1000
0010
1000
0010
1000
,
0010
0000
1000
0000
0010
0000
1000
0000
0010
1000
0010
1000
0010
1000
0010
0000
,
0100
0001
0100
0001
0100
0001
0100
0001
,
0100
0000
0001
0000
0100
0000
0001
0000
0100
0001
0100
0001
0100
0001
0100
0000
,
0001
0010
0001
0010
0001
0010
0001
0010
,
0001
0000
0010
0000
0001
0000
0010
0000
0001
0010
0001
0010
0001
0010
0001
0000
,
1000
0010
1000
0010
1000
0010
1000
0010
,
1000
0000
0010
0000
1000
0000
0010
0000
1000
0010
1000
0010
1000
0010
1000
0000
,
0100
1000
0100
1000
0100
1000
0100
1000
,
0100
0000
1000
0000
0100
0000
1000
0000
0100
1000
0100
1000
0100
1000
0100
0000
,
0010
0001
0010
0001
0010
0001
0010
0001
,
0010
0000
0001
0000
0010
0000
0001
0000
0010
0001
0010
0001
0010
0001
0010
0000
,
0001
0100
0001
0100
0001
0100
0001
0100
,
0001
0000
0100
0000
0001
0000
0100
0000
0001
0100
0001
0100
0001
0100
0001
0000
,
1000
0100
0010
0001
0100
0010
0100
1000
,
0100
0010
1000
0001
0001
0001
0001
0001
,
1000
0000
0100
0000
0010
0100
0010
0000
0001
1000
0001
0000
0100
0000
0010
0000
,
0100
0000
1000
0000
0100
0000
0010
0000
1000
0001
1000
0001
1000
0001
1000
0001
,
1000
0010
0100
0001
0010
0100
0010
1000
,
0010
0100
1000
0002
0100
0003
0002
0100
,
0003
0002
0100
0003
0002
0100
0003
0002
,
0100
0000
0003
0000
0002
0000
0100
0000
0003
0000
0002
0000
1003
0000
0001
1000
,
0001
0010
0100
1000
0010
0100
0010
0001
,
0010
0100
0001
1000
1000
1000
1000
1000
,
0001
0000
0010
0000
0100
0010
0100
0000
1000
0001
1000
0000
0010
0000
0100
0000
,
0010
0000
0001
0000
0010
0000
0100
0000
0001
1000
0001
1000
0001
1000
0001
1000
,
0001
0100
0010
1000
0100
0010
0100
0001
,
0100
0010
0001
2000
0010
3000
2000
0010
,
3000
2000
0010
3000
2000
0010
3000
2000
,
0010
3000
2000
0010
3000
0000
0000
0000
,
1000
0000
0000
1000
0000
1000
0000
0000
0001
0000
0000
0001
0000
0001
0000
0000
,
0010
0000
0000
0010
0000
0010
0000
0000
0100
0000
0000
0100
0000
0100
1000
0000
,
0001
0000
0000
0001
0000
0001
0000
0000
0100
0000
0000
0100
0000
0100
0000
0000
,
0010
0000
0000
0010
0000
0010
0000
0000
1000
0000
0001
0000
0010
0000
0100
0000
,
1000
0000
0000
1000
0000
1000
0020
0000
0130
0000
0000
0100
0000
0100
0002
0000
,
0013
0000
0000
0010
0000
0010
0200
0000
1300
0000
0000
1000
0000
1000
0020
0000
,
0130
0000
0000
0100
0000
0100
0020
0000
1030
0000
0000
1000
0000
1000
0200
0000
,
0310
0001
0100
0010
1000
1000
0001
0000
,
0011
0000
0000
0011
0000
0011
0000
0000
1010
0000
0000
1010
0000
1010
0000
0000
,
1001
0000
0000
1001
0000
1001
0000
0000
0110
0000
0100
0000
0010
0000
0100
0000
,
1100
0000
0000
1100
0000
1100
0000
0000
1010
0000
0000
1010
0000
1010
0000
0000
,
0011
0000
0000
0011
0000
0011
0000
0000
0101
0000
0001
0000
0100
0000
0001
0000
,
0011
0000
0000
0011
0000
0011
0000
0000
1010
0000
0000
1010
0000
1010
0000
0000
,
1001
0000
0000
1001
0000
1001
0000
0000
0110
0000
0100
0000
0010
0000
0100
0000
,
1100
0000
0000
1100
0000
1100
0000
0000
1010
0000
0000
1010
0000
1010
0000
0000
,
0011
0000
0000
0011
0000
0011
0000
0000
0101
0000
0001
0000
2000
0000
0000
0000
,
3010
0100
0010
0100
0010
0100
0010
0100
,
0010
0000
0100
0000
0010
0000
0100
0000
0100
0010
0100
0010
0100
0010
0100
0000
,
0001
0010
0001
0010
0001
0010
0001
0010
,
0001
0000
0010
0000
0001
0000
0010
0000
0010
0001
0010
0001
0010
0001
0010
0000
,
0001
0100
0001
0100
0001
0100
0001
0100
,
0001
0000
0100
0000
0001
0000
0100
0000
0100
0001
0100
0001
0100
0001
0100
0000
,
0010
1000
0010
1000
0010
1000
0010
1000
,
0010
0000
1000
0000
0010
0000
1000
0000
1000
0010
1000
0010
1000
0010
1000
0000
,
0100
0010
0100
0010
0100
0010
0100
0010
,
0100
0000
0000
0010
0000
0000
0100
0000
0000
1000
0000
0000
0000
1000
0000
0000
0000
0001
0000
0000
0000
0001
0000
0000
,
1000
0010
0100
0010
0100
0010
0100
0010
,
0100
0000
0000
0010
0000
0000
0100
0000
0000
0001
0000
0000
0000
0001
0000
0000
0000
1000
0000
0000
0000
1000
0000
0000
,
0001
0010
0001
0010
0001
0010
0001
0010
,
0001
0000
0000
0010
0000
0000
0001
0000
0000
1000
0000
0000
0000
1000
0000
0000
0000
0001
0000
0000
0000
0001
0000
0000
,
1000
0010
1000
0010
1000
0010
1000
0010
,
1000
0010
1000
0010
0001
0000
0000
0000
;

//---------------dance-single - MEGAtive----------------
#NOTEDATA:;
#CHARTNAME:;
#STEPSTYPE:dance-single;
#DESCRIPTION:MEGAtive;
#CHARTSTYLE:;
#DIFFICULTY:Hard;
#METER:16;
#RADARVALUES:0.943999,1.134092,0.000000,0.203951,0.999358,648.000000,648.000000,0.000000,20.000000,13.000000,0.000000,0.000000,0.000000,0.000000,0.943999,1.134092,0.000000,0.203951,0.999358,648.000000,648.000000,0.000000,20.000000,13.000000,0.000000,0.000000,0.000000,0.000000;
#CREDIT:;
#NOTES:
// measure 0
0000
0000
0000
0000
,  // measure 1
0000
0000
0000
0000
,  // measure 2
0000
0000
0000
0000
,  // measure 3
0000
0000
0000
0000
,  // measure 4
0002
0000
0000
0000
,  // measure 5
0000
0000
0000
0000
0000
0000
0000
0000
0000
1003
0000
0001
0000
1000
0000
0001
0000
1000
0000
0001
0000
1000
0000
0001
,  // measure 6
2000
0000
0000
0000
,  // measure 7
0000
0000
0000
0000
0000
0000
0000
0000
0000
3001
0000
1000
0000
0001
0000
1000
0000
0001
0000
1000
0000
0001
0000
1000
,  // measure 8
0001
0010
0001
0010
0001
0010
0001
0010
,  // measure 9
0001
0000
0000
0000
0010
0000
0000
0000
0001
0000
0000
0000
0010
0000
0000
0000
0001
0010
0001
0000
0010
0000
0001
0000
0010
0000
0001
0000
0010
0000
0001
0000
,  // measure 10
1000
0010
1000
0010
1000
0010
1000
0010
,  // measure 11
1000
0000
0000
0000
0010
0000
0000
0000
1000
0000
0000
0000
0010
0000
0000
0000
1000
0010
1000
0000
0010
0000
1000
0000
0010
0000
1000
0000
0010
0000
1000
0000
,  // measure 12
0001
0010
0001
0010
0001
0010
0001
0010
,  // measure 13
0001
0000
0000
0000
0010
0000
0000
0000
0001
0000
0000
0000
0010
0000
0000
0000
0001
0010
0001
0000
0010
0000
0001
0000
0010
0000
0001
0000
0010
0000
0001
0000
,  // measure 14
0100
0010
0100
0010
0100
0010
0100
0010
,  // measure 15
0100
0000
0000
0000
0010
0000
0000
0000
0100
0000
0000
0000
0010
0000
0000
0000
0100
0010
0100
0000
0010
0000
0100
0000
0010
0000
0100
0000
0010
0000
0100
0000
,  // measure 16
0001
0010
0100
0010
0100
0010
0100
0010
,  // measure 17
0100
0000
0000
0000
0010
0000
0000
0000
0100
0000
0000
0000
0010
0000
0000
0000
0100
0010
0100
0000
0010
0000
0100
0000
0010
0000
0100
0000
0010
0000
0100
0000
,  // measure 18
1000
0001
0100
0001
0100
0001
0100
0001
,  // measure 19
0100
0000
0000
0000
0001
0000
0000
0000
0100
0000
0000
0000
0001
0000
0000
0000
0100
0001
0100
0000
0001
0000
0100
0000
0001
0000
0100
0000
0001
0000
0100
0000
,  // measure 20
0010
1000
0100
1000
0100
1000
0100
1000
,  // measure 21
0100
0000
0000
0000
1000
0000
0000
0000
0100
0000
0000
0000
1000
0000
0000
0000
0100
1000
0100
0000
1000
0000
0100
0000
1000
0000
0100
0000
1000
0000
0100
0000
,  // measure 22
0010
0001
1000
0001
1000
0001
1000
0001
,  // measure 23
1000
0000
0000
0000
0001
0000
0000
0000
1000
0000
0000
0000
0001
0000
0000
0000
1000
0001
1000
0000
0001
0000
1000
0000
0001
0000
1000
0000
0001
0000
1000
0000
,  // measure 24
0001
0010
1000
0010
0001
1000
M010
0010
,  // measure 25
0001
0100
1000
0100
M100
M100
M100
M100
,  // measure 26
1000
0000
0001
0010
0001
0010
0001
0000
0100
0010
0100
1000
0100
0000
0002
0000
,  // measure 27
1003
0000
0100
0000
1000
0000
0100
0000
1000
0100
1000
0100
1000
0100
1000
0100
,  // measure 28
1000
0010
0001
0010
1000
0001
001M
0010
,  // measure 29
1000
0000
0001
0000
1000
0000
0200
0000
0001
0000
0000
0300
0200
0000
0001
0000
,  // measure 30
0000
0300
0200
0000
0001
0000
0000
0300
0200
0000
0001
0000
0000
0300
0200
0000
,  // measure 31
0001
0000
0000
0300
0200
0000
0001
0000
0000
0300
0200
0000
1300
0001
1000
0001
,  // measure 32
1000
0100
0001
0100
1000
0001
010M
0100
,  // measure 33
1000
0010
0001
0010
001M
001M
001M
001M
,  // measure 34
0001
0000
1000
0100
1000
0100
1000
0000
0010
0100
0010
0001
0010
0000
2000
0000
,  // measure 35
3001
0000
0010
0000
0001
0000
0010
0000
0001
0010
0001
0010
0001
0010
0001
0010
,  // measure 36
0001
0100
1000
0100
0001
1000
M100
0100
,  // measure 37
0001
0000
1000
0000
0001
0000
0020
0000
1000
0000
0000
0030
0020
0000
1000
0000
,  // measure 38
0000
0030
0020
0000
1000
0000
0000
0030
0020
0000
1000
0000
0000
0030
0020
0000
,  // measure 39
1000
0000
0000
0030
0020
0000
1000
0000
M030
0000
0000
0000
0001
0000
1000
0000
,  // measure 40
0001
0000
0001
0010
0000
0010
0000
0000
0001
0000
0001
0010
0000
0010
0000
0000
,  // measure 41
0001
0000
0000
0000
0000
0000
0001
0000
0000
0010
0000
0000
0000
0000
0000
0010
0000
0000
0000
0000
0000
0000
0000
0000
0001
0000
0000
0000
0000
0000
0001
0000
0000
0010
0000
0000
0000
0000
0000
0010
0000
0000
0001
0000
1000
0000
0001
0000
,  // measure 42
1000
0000
1000
0010
0000
0010
0000
0000
1000
0000
1000
0010
0000
0010
0000
0000
,  // measure 43
1000
0000
0000
0000
0000
0000
1000
0000
0000
0010
0000
0000
0000
0000
0000
0010
0000
0000
0000
0000
0000
0000
0000
0000
1000
0000
0000
0010
0000
0000
0100
0000
0000
0010
0000
0000
1000
0000
0000
0010
0000
0000
0100
0000
0001
0000
0100
0000
,  // measure 44
0001
0000
0000
0000
0000
0000
0001
0000
0000
0010
0000
0000
0000
0000
0000
0010
0000
0000
0001
0000
1000
0000
0001
0000
1000
0000
0000
0000
0000
0000
1000
0000
0000
0010
0000
0000
0000
0000
0000
0010
0000
0000
1000
0000
0001
0000
1000
0000
,  // measure 45
0001
0000
0000
0000
0000
0000
0001
0000
0000
0010
0000
0000
0000
0000
0000
0010
0000
0000
0001
0000
1000
0000
0001
0000
1000
0000
0000
0000
0000
0000
1000
0000
0000
0010
0000
0000
0000
0000
0000
0010
0000
0000
1000
0000
0001
0000
1000
0000
,  // measure 46
0001
0000
0000
0000
0000
0000
0001
0000
0000
0100
0000
0000
0000
0000
0000
0100
0000
0000
0001
0000
1000
0000
0001
0000
1000
0000
0000
0000
0000
0000
1000
0000
0000
0100
0000
0000
0000
0000
0000
0100
0000
0000
1000
0000
0001
0000
1000
0000
,  // measure 47
0001
0000
0001
0100
0000
0100
0001
0010
0001
0100
0001
0010
0002
0000
0000
0000
,  // measure 48
1003
0000
0010
1000
0000
1000
0000
0010
1000
0000
0010
1000
0000
1000
0000
0010
,  // measure 49
1000
0000
0000
0000
0000
0000
0010
0000
0000
1000
0000
0000
0000
0000
0000
1000
0000
0000
0000
0000
0000
0010
0000
0000
1000
0000
0000
0000
0000
0000
1000
0000
0000
0000
0000
0000
1000
0000
0000
0000
0000
0000
1000
0000
0001
0000
1000
0000
,  // measure 50
0001
0000
0010
0001
0000
0001
0000
0010
0001
0000
0010
0001
0000
0001
0000
0010
,  // measure 51
0001
0000
0000
0000
0000
0000
0010
0000
0000
0001
0000
0000
0000
0000
0000
0001
0000
0000
0000
0000
0000
0010
0000
0000
0001
0000
0000
0000
0000
0000
0010
0000
0000
0000
0000
0000
0001
0000
0000
0000
0000
0000
0010
0000
0001
0000
0100
0000
,  // measure 52
0001
0000
0100
0001
0000
0001
0000
0100
0001
0000
0100
0001
0000
0001
0000
0100
,  // measure 53
0001
0000
0000
0000
0000
0000
0100
0000
0000
0001
0000
0000
0000
0000
0000
0001
0000
0000
0000
0000
0000
0100
0000
0000
0001
0000
0000
0000
0000
0000
0001
0000
0000
0000
0000
0000
0001
0000
0000
0000
0000
0000
0001
0000
1000
0000
0001
0000
,  // measure 54
1000
0000
0100
1000
0000
1000
0000
0100
1000
0000
0100
1000
0000
1000
0000
0100
,  // measure 55
1000
0000
0100
1000
0000
1000
0000
0100
1000
0000
0100
1000
0002
0000
0000
0000
,  // measure 56
1003
0001
1000
0001
1000
0001
1000
0001
,  // measure 57
1000
0000
0000
0000
0001
0000
0000
0000
1000
0000
0000
0000
0001
0000
0000
0000
1000
0001
1000
0000
0001
0000
1000
0000
0001
0000
1000
0000
0001
0000
1000
0000
,  // measure 58
0001
0100
0001
0100
0001
0100
0001
0100
,  // measure 59
0001
0000
0000
0000
0100
0000
0000
0000
0001
0000
0000
0000
0100
0000
0000
0000
0001
0100
0001
0000
0100
0000
0001
0000
0100
0000
0001
0000
0100
0000
0001
0000
,  // measure 60
1000
0100
1000
0100
1000
0100
1000
0100
,  // measure 61
1000
0000
0000
0000
0100
0000
0000
0000
1000
0000
0000
0000
0100
0000
0000
0000
1000
0100
1000
0000
0100
0000
1000
0000
0100
0000
1000
0000
0100
0000
1000
0000
,  // measure 62
0010
0100
0010
0100
0010
0100
0010
0100
,  // measure 63
0010
0000
0000
0000
0100
0000
0000
0000
0010
0000
0000
0000
0100
0000
0000
0000
0010
0100
0010
0000
0100
0000
0010
0000
0100
0000
0010
0000
0100
0000
0010
0000
,  // measure 64
0100
0001
0010
0001
0010
0001
0010
0001
,  // measure 65
0010
0000
0000
0001
0000
0000
0010
0000
0000
0001
0000
0010
0000
0001
0000
0010
0000
0001
0000
0010
0000
0001
0000
1000
,  // measure 66
0010
1000
0010
1000
0010
1000
0010
1000
,  // measure 67
0010
0000
0000
1000
0000
0000
0010
0000
0000
1000
0000
0010
0000
1000
0000
0010
0000
1000
0000
0010
0000
1000
0000
0001
,  // measure 68
0010
0001
0010
0001
0010
0001
0010
0001
,  // measure 69
0010
0000
0000
0001
0000
0000
0010
0000
0000
0001
0000
0010
0000
0001
0000
0010
0000
0001
0000
0010
0000
0001
0000
1000
,  // measure 70
0010
1000
0010
1000
0010
1000
0010
1000
,  // measure 71
0010
1000
0010
1000
0002
0000
0003
0000
;
