#TITLE:Cranberry City ft. Luschel;
#SUBTITLE:;
#ARTIST:lapix;
#TITLETRANSLIT:;
#SUBTITLETRANSLIT:;
#ARTISTTRANSLIT:;
#GENRE:;
#CREDIT:;
#BANNER:Cranberry City ft. Luschel.png;
#BACKGROUND:Cranberry City ft. Luschel-bg.png;
#LYRICSPATH:;
#CDTITLE:cdtitle.png;
#MUSIC:Cranberry City ft. Luschel.ogg;
#OFFSET:0.000000;
#SAMPLESTART:48.695999;
#SAMPLELENGTH:13.913000;
#SELECTABLE:YES;
#BPMS:0.000000=138.000000
;
#STOPS:
;
#BGCHANGES:;
#KEYSOUNDS:;
#ATTACKS:;

//---------------dance-single - MEGAtive----------------
#NOTES:
     dance-single:
     :
     Beginner:
     4:
     0.210107,0.369730,0.186762,0.280143,0.000000,189.000000,165.000000,24.000000,36.000000,0.000000,0.000000,0.210107,0.369730,0.186762,0.280143,0.000000,189.000000,165.000000,24.000000,36.000000,0.000000,0.000000:
// measure 0
0000
0000
0000
0000
,  // measure 1
0000
0000
0000
0000
,  // measure 2
0000
0000
0000
0000
,  // measure 3
0000
0000
0000
0000
,  // measure 4
1000
0010
0000
0010
,  // measure 5
1000
0100
0000
0100
,  // measure 6
0010
0001
0000
0001
,  // measure 7
0100
0010
0000
0010
,  // measure 8
1000
0001
0000
0001
,  // measure 9
0010
0100
0000
0100
,  // measure 10
1000
0010
0000
0010
,  // measure 11
2002
0000
0000
3003
,  // measure 12
0002
0003
2000
3000
,  // measure 13
0220
0000
0000
0330
,  // measure 14
2000
3000
0002
0003
,  // measure 15
0220
0330
0010
0010
,  // measure 16
0001
1000
1000
0000
,  // measure 17
0010
0100
0100
0000
,  // measure 18
0001
0001
1000
1000
,  // measure 19
0100
0100
0000
0010
,  // measure 20
2001
0000
0000
0000
,  // measure 21
0100
0100
3100
0000
,  // measure 22
1002
0000
0000
0000
,  // measure 23
0100
0100
0103
0000
,  // measure 24
1001
0110
2002
3003
,  // measure 25
0011
1100
0022
0033
,  // measure 26
2002
0000
0000
0000
0000
0000
0000
3003
,  // measure 27
0001
1000
0110
1001
,  // measure 28
0001
0000
0100
0100
,  // measure 29
0010
0000
1000
1000
,  // measure 30
0100
0000
0010
0010
,  // measure 31
0001
0000
0100
0100
,  // measure 32
0001
0000
0010
0010
,  // measure 33
0100
0000
1000
1000
,  // measure 34
0010
0000
0100
0100
,  // measure 35
0220
0000
0330
0110
,  // measure 36
2002
3003
0220
0330
,  // measure 37
2002
3003
0220
0330
,  // measure 38
0001
1000
0100
0100
,  // measure 39
0010
0000
0001
0001
,  // measure 40
0100
0000
0010
0010
,  // measure 41
1000
0000
0000
1001
0000
0000
0000
0000
,  // measure 42
0001
0000
1000
1000
,  // measure 43
0100
0000
0020
0030
,  // measure 44
2001
0000
0000
0000
,  // measure 45
0000
0000
0000
0000
,  // measure 46
3002
0000
0000
0000
,  // measure 47
0000
0000
0000
0000
,  // measure 48
0013
0001
0000
0100
,  // measure 49
0010
1000
0000
0100
,  // measure 50
0010
0001
0000
0100
,  // measure 51
0020
0000
0200
0330
,  // measure 52
1001
1000
1000
0000
,  // measure 53
0100
0100
0100
0000
,  // measure 54
0010
0010
0010
0000
,  // measure 55
0001
0001
0001
0000
,  // measure 56
1000
1000
1000
0000
,  // measure 57
0010
0010
0010
0000
,  // measure 58
0100
0100
0100
0000
,  // measure 59
2002
0000
0000
3003
,  // measure 60
0001
0010
0000
0010
,  // measure 61
0100
1000
0000
0010
,  // measure 62
0100
0001
0000
1000
,  // measure 63
0100
0010
0000
0001
,  // measure 64
1000
0010
0000
0100
,  // measure 65
0001
0010
0000
0100
,  // measure 66
0010
0001
0100
0010
,  // measure 67
2000
0000
0000
0000
0000
0000
0000
3001
;

//---------------dance-single - MEGAtive----------------
#NOTES:
     dance-single:
     :
     Easy:
     9:
     0.400204,0.435777,0.521376,0.303488,0.042800,360.000000,293.000000,67.000000,39.000000,0.000000,0.000000,0.400204,0.435777,0.521376,0.303488,0.042800,360.000000,293.000000,67.000000,39.000000,0.000000,0.000000:
0000
0000
0000
0000
,
0000
0000
0000
0000
,
0000
0000
0000
0000
,
0000
0000
0000
0000
,
0001
0000
0101
0000
1000
0010
1000
0000
,
1000
0000
1100
0000
0001
0010
0001
0000
,
0001
0000
0101
0000
1000
0010
1000
0000
,
1000
0000
1100
0000
0001
0010
0001
0000
,
1000
0000
1010
0000
0001
0100
0001
0000
,
0001
0000
0011
0000
1000
0100
1000
0000
,
1000
0000
1010
0000
0001
0100
0001
0000
,
0001
0000
0000
1001
0000
1000
0000
1100
0000
0000
0000
0000
0110
0000
0000
0000
,
0022
0033
2020
3030
,
2002
0000
0000
3003
,
2200
3300
0202
0303
,
2002
0000
3003
0000
0001
0010
0001
0000
,
1000
0000
1010
0000
0010
0100
0001
0000
,
0001
0000
0011
0000
0010
0100
1000
0000
,
0001
0101
1000
1100
,
0001
0011
1000
1010
,
1002
0000
0100
0000
,
2003
3200
0320
0031
,
2001
0000
0010
0000
,
3002
0023
0230
1300
,
0001
0010
0001
0100
0020
0000
0000
0000
,
1030
0100
1000
0010
0200
0000
0000
0000
,
0302
0000
0000
0000
,
1003
0000
1010
0000
0001
0000
0011
0000
0000
1001
0000
0000
,
0001
0000
0101
0000
0001
0010
0100
1000
,
0001
0000
0011
0000
0001
0100
0010
1000
,
0001
0000
1001
0000
1000
0100
0010
0100
,
1000
0101
1001
1100
,
1000
0000
1010
0000
1000
0100
0010
0001
,
1000
0000
1100
0000
1000
0010
0100
0001
,
1000
0000
1001
0000
0001
0010
0100
0010
,
0001
0000
0000
0100
0000
0000
0010
0000
1000
0000
0000
0000
1001
0000
0000
0000
,
0022
0033
2020
3030
,
2200
3300
0202
0303
,
0110
0000
1001
0000
1000
0100
0010
0001
,
1000
1010
0001
0011
,
1000
0000
1100
0000
1000
0010
0100
0001
,
1000
0000
0100
0000
0010
0000
0000
0011
0000
0000
2000
0000
3000
0000
0000
0000
,
0001
0000
0101
0000
0001
0010
0100
1000
,
0001
0000
0000
0100
0000
0000
0001
0000
1000
0000
0000
0000
0110
0000
0000
0000
,
2001
0000
0000
0000
,
3020
0000
0000
0000
,
0230
0000
0000
0000
,
0302
0000
0000
0000
,
0013
0000
0110
0000
0000
0100
1000
0010
,
0100
0000
0110
0000
0010
0100
0001
0010
,
0100
0000
0110
0000
0000
0100
1000
0000
,
2002
0000
3003
0110
,
0001
0000
0011
0000
1000
0010
0100
0010
,
1000
0000
1100
0000
0001
0010
0100
0010
,
0001
0101
1000
1100
,
1000
0010
0100
0001
0010
0000
0110
0000
,
1000
0000
1100
0000
0001
0100
0010
0100
,
0001
0000
0011
0000
1000
0100
0010
0100
,
1000
1010
0001
0011
,
0001
0000
0000
1001
0000
1000
0000
1010
0000
0000
0000
0000
0110
0000
0000
0000
,
1000
0100
1000
0000
0001
0100
0001
0000
,
1000
0100
1000
0010
0100
0010
1000
0000
,
0001
0010
0001
0000
1000
0010
1000
0000
,
0001
0010
0001
0100
0010
0100
0001
0000
,
1000
0000
1000
0100
1000
0000
0001
0100
,
0001
0000
0010
0001
0100
0010
1000
0000
,
0001
0010
0001
0100
0010
0100
0001
0010
,
0001
0000
0001
0100
0010
1000
0001
0020
,
0000
0000
0000
0000
,
0000
0000
0000
0000
,
0030
0000
0000
0000
;

//---------------dance-single - MEGAtive----------------
#NOTES:
     dance-single:
     :
     Medium:
     11:
     0.506925,0.626430,0.435777,0.295706,0.350178,456.000000,400.000000,56.000000,38.000000,0.000000,0.000000,0.506925,0.626430,0.435777,0.295706,0.350178,456.000000,400.000000,56.000000,38.000000,0.000000,0.000000:
0000
0000
0000
0000
,
0000
0000
0000
0000
,
0000
0000
0000
0000
,
0000
0000
0000
0000
,
0001
0000
0000
0000
0011
0000
0000
1000
0000
1000
0100
0000
1100
0000
0000
0000
,
1000
0000
0000
0000
1010
0000
0000
0001
0000
0001
0100
0000
0101
0000
0000
0000
,
0001
0000
0000
0000
0011
0000
0000
1000
0000
1000
0100
0000
1100
0000
0000
0000
,
1000
0000
0000
0000
1010
0000
0000
0001
0000
0001
0100
0000
0101
0000
0000
0000
,
0001
0000
0000
0000
0011
0000
0000
1000
0000
1000
0010
0000
1010
0000
0000
0000
,
1000
0000
0000
0000
1010
0000
0000
0001
0000
0001
0010
0000
0011
0000
0000
0000
,
0001
0000
0000
0000
0011
0000
0000
1000
0000
1000
0010
0000
1010
0000
0000
0000
,
1000
0000
0001
0010
0000
0100
0000
0010
0000
0100
1000
0000
0010
0000
0000
0000
,
1001
0000
0022
0033
1001
0000
2020
3030
,
2002
0000
0000
3003
0001
0001
0101
0000
,
1000
0000
0100
0000
0010
0000
0000
0001
1000
0000
0010
0000
0100
0000
0000
0000
,
2002
0000
3003
0000
1000
1000
1100
0000
,
1001
0000
0000
0000
0001
0000
0010
0100
0000
0010
0100
0000
0000
0000
1000
0000
,
0001
0000
0000
0000
1000
0000
0010
0100
0000
0010
0100
0000
0002
0000
2003
0000
,
3100
0000
0010
0001
0010
0000
0100
0000
0000
0000
1000
0010
1000
0000
0001
0000
,
0010
0100
1000
0001
1000
0010
0100
0000
,
1002
0013
2001
3010
,
0210
1000
0301
0011
,
1002
0103
2001
3100
,
0120
0001
1030
1001
,
0001
0010
0100
1000
0002
0000
0000
0000
,
1003
0010
0100
0001
2000
0000
0000
3000
,
0220
0000
0000
0000
0000
0000
0000
0330
,
0001
0100
0001
1000
0100
1000
0001
0000
0000
0101
0000
0000
,
1000
0000
0001
0000
1000
0000
0000
0100
0000
0100
0000
0010
0001
0010
0000
0000
,
0001
0000
1000
0000
0001
0000
0000
0100
0000
0100
0000
0001
0100
0000
0010
0000
,
1000
0000
0001
0000
1000
0000
0000
0100
0000
0100
0000
0010
0100
0000
1000
0000
,
0001
0100
0000
0010
1000
0001
0020
0000
,
0031
0000
1000
0000
0001
0000
0000
0100
0000
0100
0000
0010
0000
1000
0100
0000
,
1000
0000
0001
0000
1000
0000
0010
0100
0000
0000
0001
0000
0010
0000
0100
0000
,
1000
0010
0100
0001
0010
0100
0010
0001
,
1000
0000
1000
0001
0000
0000
0100
0000
0110
0000
0000
0000
1001
0000
0000
0000
,
0012
1003
2010
3001
,
1200
0310
1020
0031
,
0110
0000
0000
0000
1001
0000
0000
0001
0000
0010
0000
0100
0010
0000
0100
0000
,
1000
0010
0000
0100
0001
0010
0000
0000
,
1000
0000
0001
0000
1000
0000
0000
0100
0000
0100
0000
0010
0000
0001
1000
0000
,
0010
0000
0010
0000
0100
0000
0100
0001
0000
0000
2002
0000
3003
0000
0000
0000
,
1000
0100
0010
0001
0100
0010
1000
0001
,
0010
0000
0000
0110
0000
0000
0100
0000
2000
0000
0000
0000
3001
0000
0000
0000
,
1002
0000
0010
0000
,
2003
0000
0010
0000
,
3002
0000
0100
0000
,
2003
0000
0100
0000
,
3001
0000
0101
0000
0001
0010
0100
0000
,
1000
0000
0010
0000
0100
0000
0000
0001
0000
0000
0010
0000
0110
0000
0000
0000
,
1000
0000
1010
0000
0001
0010
0100
0000
,
2002
0000
3003
0110
,
1000
0000
0001
0000
1000
0000
0100
0010
0000
0100
0000
0010
0000
0000
0000
0000
,
0001
0000
1000
0000
0001
0000
0100
0010
0000
0100
0000
0010
0000
1000
0000
0000
,
0001
0000
1000
0000
0100
0010
0000
0010
0100
0000
0100
0010
0000
0010
0100
0000
,
1000
0000
0010
0000
0100
0000
0001
1000
0000
0001
0000
0000
0000
0000
0000
0000
,
1000
0000
0001
0000
1000
0000
0100
0010
0000
0100
0000
0010
0000
0000
0001
0000
,
1000
0000
0001
0000
0100
0000
0010
1000
0010
0000
0000
0000
1000
0001
0000
0000
,
0001
0000
1000
0000
0001
0000
0010
0100
0000
0010
0000
0000
0001
0100
0001
0000
,
1000
0000
0100
0010
0000
0110
0000
0110
0000
0100
1000
0000
0001
0000
0000
0000
,
1000
0010
0100
0001
0010
0001
0100
0010
,
0100
0001
0010
0100
1000
0010
1000
0001
,
0010
0100
1000
0010
0100
0001
0100
0010
,
1000
0100
0010
0001
0100
0010
1000
0001
,
0010
0100
1000
0010
0100
0001
1000
0100
,
0010
0000
0010
0000
0001
1000
0000
1010
0000
0010
0100
0000
0220
0000
0330
0000
,
0001
0000
1000
0010
1000
0000
0001
0010
0001
0000
1000
0010
1000
0000
0001
0000
,
1000
0000
0100
0000
0010
0001
0000
1001
0000
0110
0000
0010
0100
0000
2002
0000
,
0000
0000
0000
0000
,
0000
0000
0000
0000
,
3003
0000
0000
0000
;

//---------------dance-single - MEGAtive----------------
#NOTES:
     dance-single:
     :
     Hard:
     14:
     0.584742,0.680902,0.427996,0.396869,0.439668,526.000000,471.000000,55.000000,51.000000,0.000000,0.000000,0.584742,0.680902,0.427996,0.396869,0.439668,526.000000,471.000000,55.000000,51.000000,0.000000,0.000000:
0000
0000
0000
0000
,
0000
0000
0000
0000
,
0000
0000
0000
0000
,
0000
0000
0000
0000
,
0001
0000
0010
0000
0100
0000
0000
1000
0000
1000
0010
0000
0110
0000
0000
0000
,
1000
0000
0010
0000
0100
0000
0000
0001
0000
0001
0010
0000
0110
0000
0000
0000
,
1000
0000
0100
0000
0010
0000
0000
0001
0000
0001
0100
0000
0110
0000
0000
0000
,
1000
0000
0010
0000
0100
0000
0000
0001
0000
0001
0010
0000
0110
0000
0010
0001
,
1000
0000
0010
0000
0100
0000
0000
0001
0000
0001
0100
0000
0110
0000
0000
0000
,
0001
0000
0010
0000
0100
0000
0000
1000
0000
1000
0100
0000
0110
0000
0000
0000
,
1000
0000
0010
0000
0100
0000
0000
0001
0000
0001
0100
0000
0110
0000
0010
1000
,
0001
0000
0001
0010
0000
0110
0000
1001
0000
1000
0010
0000
0110
0000
0000
0000
,
0101
1000
0200
0300
1100
0001
0200
0300
,
2002
0000
0000
0000
3003
0000
0000
0000
1000
0001
1000
0001
1000
0000
0010
0000
,
2001
0100
3001
0000
1002
0100
1003
0000
,
2200
0000
0000
0000
3300
0000
0000
0000
0001
0010
0001
1000
0010
0000
0100
0000
,
2002
0000
3003
0000
0011
0000
1000
0010
0000
0001
0010
0000
1000
0000
0001
0000
,
1000
0000
0100
0000
0001
0000
0100
1000
0000
0010
0100
0000
2001
0000
0001
0000
,
3001
0000
0010
0100
0010
0000
0001
0000
1000
0000
0010
0100
0010
0000
1000
0000
,
0001
0000
0010
0100
0010
0000
0010
0001
0000
0001
0100
0000
0110
0000
0000
0000
,
1002
0000
0010
0000
2003
0000
0010
3000
,
0022
0033
2020
3030
0022
0033
1001
0000
,
2000
0000
0100
0000
3002
0000
0100
0003
,
2200
0000
3300
0000
0202
0000
0303
0000
1000
0100
0000
1100
0000
0100
0010
0000
,
1001
0001
1000
1000
2020
0000
0000
3030
,
1001
1000
0001
0001
0022
0000
0000
0033
,
2002
0000
0000
0000
0000
0000
0000
3003
,
1000
1000
0010
0010
0100
0100
0101
0000
0000
1001
0000
0000
,
0001
0000
0010
0000
0100
0000
1000
0010
0000
0100
0000
0010
1000
0001
0000
0000
,
1000
0000
0100
0000
0010
0000
0001
0100
0000
0010
0000
0100
0001
0000
1000
0000
,
0001
0000
0010
0000
0100
0000
1000
0010
0000
0100
0000
0010
1000
0000
0001
0000
,
1000
0000
0100
0000
0010
0000
0001
0010
0001
0000
0010
0000
0100
0000
1000
0000
,
0001
0000
0100
0000
0010
0000
1000
0100
0000
0010
0000
0100
1000
0001
1000
0000
,
0001
0000
0100
0000
0010
0000
1000
0100
1000
0000
0100
0000
0010
0000
0001
0000
,
1000
0000
0010
0000
0100
0000
0001
0010
0001
0000
0010
0000
0001
0000
0100
0000
,
0010
0000
1000
0002
0000
0000
0100
0000
2003
0000
3000
0000
1001
0000
0000
0000
,
1002
0010
1003
0000
2001
0010
3001
0000
,
1002
0100
1003
0000
2001
0100
3001
0000
,
0110
0000
0000
0000
1001
0000
0001
0010
0000
0100
0000
1000
0001
0000
0100
0000
,
0010
0100
0001
0010
0100
0010
0001
1000
,
0001
0000
0100
0000
0010
0000
1000
0100
0000
0010
0000
0010
0001
0100
0001
0000
,
1010
0000
1001
0000
0011
0000
0010
0100
0000
0000
2002
0000
3003
0000
0000
0000
,
1000
0000
0010
0000
0100
0000
0001
0010
0001
0000
0100
0000
0010
0000
1000
0000
,
1001
0000
0001
0010
0000
0000
0100
0000
2000
0000
0000
0000
3001
0000
0000
0000
,
1002
0000
0100
0000
,
2003
0000
0100
0000
,
3002
0000
0010
0000
,
2003
0000
0010
0000
,
3001
0010
0001
0100
0001
0010
0100
0010
,
0001
1000
0010
1000
0001
0010
0100
0000
,
1000
0010
1000
0100
1000
0010
0100
0010
,
2000
0000
3001
1001
,
0001
0000
0100
0000
0010
0000
1000
0100
0000
0001
0000
0100
0000
1000
0001
0000
,
1000
0000
0010
0000
0100
0000
0001
0010
0000
1000
0000
0010
0000
0001
1000
0000
,
0001
0000
0100
0000
0010
1000
0000
1000
0100
0000
0100
0010
0000
0010
0001
0000
,
1000
0000
0010
0000
0001
0000
0010
1000
0000
0200
0000
0000
0001
0000
0010
0000
,
1300
0000
0100
0000
0010
0000
0001
0100
0000
1000
0000
0200
0000
0000
0301
1000
,
0001
0000
0010
0000
0100
0000
1000
0001
2000
0000
0000
0000
3010
0000
0100
0000
,
0001
0000
0010
0000
0100
0000
1000
0010
0000
0001
0000
0000
0010
1000
0001
0000
,
1000
0000
0100
0100
0000
0110
0000
0011
0000
0001
1000
0000
2010
0000
0001
0000
,
3001
0010
0100
1000
0010
0100
0001
0010
,
0001
0000
0100
0010
0100
0000
0001
0000
1000
0000
0100
0000
0010
0001
0000
0001
,
0100
0000
0010
1000
0001
0000
0010
0000
0100
0000
1000
0000
0010
0000
0100
0000
,
0001
0010
0100
0000
1000
0000
0010
0000
0100
0000
0001
0000
0020
0000
0000
0000
,
0031
0100
0010
0000
1000
0000
0001
0010
0100
0000
1000
0000
0010
0100
0001
0000
,
1000
0000
0100
0000
0010
0001
0000
1001
0000
1000
0010
0000
0110
0000
0100
0000
,
0001
0000
0010
0000
0100
1000
0100
1000
0001
0000
0100
0001
0100
0001
1000
0000
,
1001
0000
0001
0000
1000
0100
0000
0001
0000
0100
0000
1000
0010
0000
0002
0000
,
0000
0000
0000
0000
,
0000
0000
0000
0000
,
0003
0000
0000
0000
;
