#TITLE:Cover of Red Canyon;
#SUBTITLE:;
#ARTIST:Hidenori Shoji;
#TITLETRANSLIT:;
#SUBTITLETRANSLIT:;
#ARTISTTRANSLIT:;
#GENRE:;
#CREDIT:;
#MUSIC:Cover of Red Canyon.ogg;
#BANNER:;
#BACKGROUND:;
#CDTITLE:;
#SAMPLESTART:18.171;
#SAMPLELENGTH:13.913;
#SELECTABLE:YES;
#OFFSET:-0.347;
#BPMS:0.000=138.000;
#STOPS:;
#BGCHANGES:;
#FGCHANGES:;

//--------------- dance-single - ----------------
#NOTES:
     dance-single:
     :
     Beginner:
     4:
     0,0,0,0,0:
0000
0000
0000
0000
,
0000
0000
0000
0000
,
0000
0000
1000
0000
0000
0100
0000
0000
,
1000
0000
0001
0000
0000
0100
0000
0000
,
0001
0000
0010
0000
0000
0001
0000
0000
,
1000
0000
0010
0000
0000
0100
0000
0000
,
0001
0000
1000
0000
0000
0010
0000
0000
,
1000
0000
0001
0000
0000
0010
0000
0000
,
0001
0000
0100
0000
0000
0010
0000
0000
,
1000
0000
0001
0000
0000
0010
0000
0000
,
0100
1000
0010
0000
,
0100
0010
1000
0000
,
0000
0001
0010
0000
,
0100
0010
0001
0000
,
0000
1000
0100
0000
,
0010
0100
1000
0000
,
0000
0001
0100
0000
,
0010
0100
0001
0000
,
0000
1000
0100
0000
,
1000
0010
0100
0000
,
0000
0001
0010
0000
,
0001
0100
0010
0000
,
0000
1000
0100
0000
,
0010
0100
1000
0000
,
0000
0010
0100
0000
,
0001
0010
0100
0010
,
0100
1000
0010
0000
,
0100
1000
0100
0000
,
0001
1000
0100
0000
,
0010
1000
0010
0000
,
0001
0000
1000
0000
0000
0010
0000
0000
,
0001
0010
1000
0100
,
0010
0000
0001
0000
0000
0100
0000
0000
,
1000
0100
0001
0010
,
0100
1000
0010
0100
,
1000
0100
0001
0010
,
0100
1000
0010
0001
,
0010
0100
0001
0010
,
0100
1000
0010
1000
,
0100
0010
0001
0100
,
0001
0010
0100
1000
,
0010
0000
1000
0000
0000
0100
0000
0000
,
0010
0001
0001
0100
,
0100
0010
0010
1000
,
1000
0001
0000
0000
;

//--------------- dance-single - ----------------
#NOTES:
     dance-single:
     :
     Easy:
     6:
     0,0,0,0,0:
0000
1000
0000
0100
,
0000
0010
0000
0001
,
0000
1000
0010
0100
,
0010
1000
0001
0010
,
0001
0100
0010
1000
,
0001
0010
0100
0010
,
0001
1000
0010
0100
,
1000
0100
0001
1000
,
0100
0001
0100
0010
,
0001
1000
0100
0001
,
0100
1000
0100
0010
,
0100
1000
0001
0100
,
0001
0010
0001
1000
,
0010
0100
0001
0010
,
0001
1000
0100
0010
,
1000
0010
0001
1000
,
0010
0001
0010
0100
,
0001
1000
0010
0001
,
0010
1000
0100
1000
,
0001
0100
0010
0100
,
0001
0010
0001
1000
,
0010
0100
0001
0010
,
0100
1000
0010
0001
,
0010
0100
0001
1000
,
0100
0001
0100
0010
,
0001
0100
1000
0100
,
0001
1000
0100
0010
,
1000
0010
0001
0100
,
0010
1000
0001
0010
,
0100
0010
0001
0100
,
0010
1000
0100
1000
,
0010
0100
0001
0010
,
0001
1000
0010
1000
,
0100
0010
0001
0100
,
0001
1000
0010
0100
,
1000
0100
0001
0010
,
0001
1000
0010
0100
,
0001
0010
0100
0010
,
0001
1000
0010
1000
,
0100
0010
0001
0100
,
0001
1000
0100
1000
,
0010
0000
0100
0000
0000
0001
0000
0000
,
0010
0001
1000
0001
,
1000
0010
0100
0010
,
0100
1001
0000
0000
;

//--------------- dance-single - ----------------
#NOTES:
     dance-single:
     :
     Medium:
     10:
     0,0,0,0,0:
0000
1000
0100
0010
,
0001
1000
0010
0100
,
0001
0000
1000
0100
0010
1000
0000
0010
,
0001
0000
1000
0100
0001
0100
0000
0010
,
0001
0000
1000
0010
0100
1000
0000
0100
,
0001
0000
1000
0010
0001
0010
0000
0100
,
0001
0000
1000
0100
1000
0010
0000
0100
,
0001
0000
0010
0001
0100
0010
0000
1000
,
0100
0000
1000
0010
1000
0100
0000
0010
,
0001
0000
0100
0001
0010
0100
0000
1000
,
0010
0000
1000
0100
0001
0100
1000
0000
,
0001
0000
0100
0010
0100
0001
1000
0100
,
0010
0001
1000
0010
0001
0010
1000
0000
,
0001
0000
0010
0100
0010
0001
0100
0010
,
1000
0000
0001
0010
1000
0010
0001
0000
,
1000
0000
0010
0100
0010
1000
0001
0010
,
0100
1000
0001
0100
1000
0100
0001
0000
,
1000
0000
0100
0010
0100
1000
0010
0100
,
0001
0000
1000
0100
1000
0001
0100
0010
,
0100
0001
0010
0001
1000
0010
0100
0001
,
0010
0000
0001
0100
0001
1000
0100
0010
,
0100
1000
0010
0100
0001
1000
0100
0010
,
0100
1000
0001
0010
0001
1000
0010
0100
,
0010
1000
0100
1000
0001
0100
0010
1000
,
0100
0000
1000
0010
1000
0001
0010
0100
,
0010
0001
0100
0010
1000
0001
0010
0100
,
0010
0001
1000
0010
0100
0010
1000
0000
,
0001
0010
0100
0010
0001
0100
0010
1000
,
0001
0010
0001
0100
0010
0100
0001
0000
,
1000
0100
0010
0100
1000
0010
0100
0001
,
1000
0100
1000
0100
0010
0100
1000
0000
,
0001
0100
0010
0100
0001
0010
0001
1000
,
0010
0100
0001
0010
0100
0010
0001
0000
,
1000
0010
0100
0010
1000
0100
1000
0001
,
0100
0010
1000
1000
0100
0001
0000
0100
,
0010
0001
1000
0010
1000
0100
0010
0001
,
0100
0001
1000
1000
0010
0001
0000
0010
,
0100
0001
1000
0100
1000
0010
0100
0001
,
0010
0001
1000
0000
0010
0100
0000
1000
,
0100
0001
1000
0000
0100
0001
0000
0100
,
0010
0001
1000
0000
0010
0001
0000
0010
,
0100
0001
1000
0100
0100
0001
0010
0010
,
1000
0001
0010
0001
,
0100
0010
1000
0100
,
1000
1001
0000
0000
;

//--------------- dance-single - ----------------
#NOTES:
     dance-single:
     :
     Hard:
     13:
     0,0,0,0,0:
0000
0000
1000
0100
0010
0001
1000
0100
,
0010
0001
1000
0010
0100
0001
1000
0010
,
0100
0001
1000
0100
0010
1000
0010
0001
,
0100
0010
1000
0100
1000
0010
0100
0001
,
0010
0001
1000
0010
0100
1000
0100
0001
,
0010
0100
1000
0010
1000
0100
0010
0001
,
0100
0001
1000
0100
0001
0100
0010
0001
,
0100
0010
1000
0001
0010
0001
0100
0010
,
1000
0100
1000
0010
0001
0010
0100
0001
,
0010
0100
1000
0001
0100
0001
0010
0100
,
1000
0000
0010
0000
1000
0100
0000
0100
0001
0000
0000
0000
0000
0000
0010
0001
,
1000
0010
0100
0000
0001
0010
0000
0010
0100
0000
1000
0000
0001
0000
0100
0000
,
0010
0000
1000
0000
0001
0010
0000
0010
1000
0000
0000
0000
0000
0000
0100
1000
,
0001
0100
0010
0000
1000
0100
0000
0100
0010
0000
0001
0000
1000
0000
0010
0000
,
0100
0000
0000
0000
0000
0000
0001
0000
0000
0000
0000
0000
1000
0000
0000
0000
0100
0000
0000
0000
0010
0000
0000
0000
0100
0000
0000
0000
0000
0000
0000
0000
0000
0000
0000
0000
1000
0000
0000
0000
0000
0000
0001
0000
0000
0100
0000
0000
,
0010
0100
0001
0000
0010
0001
0000
1000
0010
0000
0100
0000
0001
0000
0010
0000
,
0100
0000
0000
0000
0000
0000
1000
0000
0000
0000
0000
0000
0001
0000
0000
0000
0100
0000
0000
0000
0010
0000
0000
0000
0100
0000
0000
0000
0000
0000
0000
0000
0000
0000
0000
0000
0001
0000
0000
0000
0000
0000
1000
0000
0000
0100
0000
0000
,
0010
0100
1000
0000
0010
0000
0000
1000
0000
0000
0001
0000
0000
0000
0010
0000
,
0000
0000
0000
0000
0001
0100
0000
0100
1000
0000
0000
0000
0000
0000
0010
0100
,
0001
1000
0100
0000
1000
0010
0000
0010
0100
0000
0001
0000
1000
0000
0100
0000
,
0010
0000
0001
0000
1000
0010
0000
0010
0001
0000
0000
0000
0000
0000
0100
0010
,
1000
0001
0010
0000
0001
0100
0000
0100
0010
0000
0000
0000
1000
0000
0100
1000
,
0001
0000
0000
0100
0000
0000
0001
0000
0000
0000
0000
0000
0010
0000
0000
0000
0001
0000
0000
0000
1000
0000
0000
0000
0010
0000
0000
0000
0000
0000
0000
0000
0000
0000
0000
0000
0100
0000
0000
0000
0000
0000
0001
0000
0000
0010
0000
0000
,
0100
0010
0001
0000
1000
0010
0000
0010
0001
0000
0000
0000
0100
0000
0010
0000
,
1000
0000
0000
0000
0000
0000
0001
0000
0000
0000
0000
0000
0010
0000
0000
0000
1000
0000
0000
0000
0001
0000
0000
0000
0010
0000
0000
0000
0000
0000
0000
0000
0000
0000
0000
0000
0100
0000
0000
0000
0000
0000
1000
0000
0000
0010
0000
0000
,
0100
0010
1000
0000
0001
0100
0000
0100
1000
0000
0001
0100
0001
0000
0010
0001
,
1000
0000
0010
0100
0001
0010
0000
0010
0100
0000
0000
0000
0000
0000
0010
0001
,
1000
0010
0100
0000
0010
1000
0000
0002
0000
0000
0000
0000
0000
0000
0103
0000
,
0010
0000
1000
0000
0001
0100
0000
0100
0010
0000
0000
0000
0000
0000
0100
0001
,
1000
0100
0010
0000
0100
1000
0000
0002
0000
0000
0000
0000
0000
0000
0103
0010
,
1000
0001
0010
0000
0001
0000
0000
0100
0000
0000
0010
0000
0000
0000
0000
0000
,
0100
0000
0001
0000
0010
0000
0100
0000
0001
0100
1000
0000
0010
0000
0100
0000
,
0010
0000
1000
0001
2000
0000
0000
0000
0000
0000
0000
0000
0000
0000
0000
0000
,
3010
0000
0010
0000
0100
0010
1000
0001
0010
0000
0100
0000
0010
0000
0001
1000
,
0010
0000
1000
1000
0100
0001
0000
0100
,
0010
0001
0100
0010
0100
0010
2000
0000
,
3001
0000
0010
0001
1000
0010
0000
0100
,
0001
0000
0010
0000
0100
0000
0000
0000
0000
0000
0000
1000
0000
0000
0000
0000
,
0010
0100
0001
0000
0000
0000
0000
0000
,
0010
0100
0001
0000
0000
0000
0000
0100
,
0000
1000
0010
0000
0000
0000
0000
0100
,
0001
1000
0000
0000
,
0000
0000
0000
0001
0010
0000
0000
0000
0100
0000
0000
0000
0010
0000
0000
0000
,
0001
1000
0010
0000
0100
0000
0000
0000
0010
0000
0000
0000
1000
0100
1000
0001
,
0100
0001
0110
0000
0000
0000
0000
0000
;

//--------------- dance-single - ----------------
#NOTES:
     dance-single:
     :
     Challenge:
     15:
     0,0,0,0,0:
0000
0000
1000
0100
0010
0001
1000
0100
,
0010
0001
1000
0010
0100
0001
1000
0010
,
0100
0000
0001
0000
1000
0000
0100
0000
1000
0000
0001
0000
0100
0010
0100
0001
,
0010
0001
1000
0010
0100
0000
0001
0000
0010
0000
0001
0000
1000
0010
1000
0100
,
0010
0000
0001
0100
0001
0000
0010
0000
0001
0000
1000
0000
0010
0100
0010
1000
,
0100
1000
0001
0100
0010
0000
1000
0000
0100
0000
1000
0000
0001
0100
0001
0010
,
0100
0000
1000
0000
0001
0000
0100
0000
0001
0000
1000
0000
0100
0010
0100
1000
,
0010
0100
0001
1000
0100
0000
0010
0000
0100
0000
1000
0000
0001
0010
0001
0100
,
0010
0000
1000
0100
1000
0000
0010
0000
1000
0000
0001
0000
0010
0100
0010
0001
,
0100
0010
1000
0001
0010
0100
0010
0001
1000
0100
1000
0010
0100
0001
0010
0001
,
0100
0010
0100
0010
1000
0100
0000
0100
0001
0000
0010
0000
0001
1000
0010
0100
,
0001
0010
0001
0000
1000
0010
0000
0010
0100
0000
0100
0001
0010
0100
1000
0000
,
0010
0000
0100
0000
0001
0010
0000
0010
1000
0000
0100
0000
1000
0001
0100
0010
,
1000
0100
1000
0000
0001
0100
0000
0100
0010
0000
0010
1000
0100
0010
0001
0000
,
0100
0000
0000
0000
0000
0000
0010
0000
0000
0000
0000
0000
1000
0000
0000
0000
0100
0000
0000
0000
0010
0000
0000
0000
1000
0000
0000
0000
0000
0000
0010
0000
0000
0000
0000
0000
0001
0000
0000
0000
0000
0000
0100
0000
0000
0010
0000
0000
,
1000
0001
0010
0000
0100
0010
0000
0001
1000
0000
0010
0000
0100
0010
1000
0000
,
0100
0000
0000
0000
0000
0000
0010
0000
0000
0000
0000
0000
0001
0000
0000
0000
0100
0000
0000
0000
0010
0000
0000
0000
0001
0000
0000
0000
0000
0000
0010
0000
0000
0000
0000
0000
1000
0000
0000
0000
0000
0000
0100
0000
0000
1000
0000
0000
,
0001
0100
0010
0000
1000
0100
0000
1000
0001
0000
0100
0000
0010
1000
0001
0000
,
0010
0000
0100
0000
1000
0010
0000
1000
0100
0000
0010
0000
0001
0000
0100
0001
,
0010
0001
1000
0000
0010
0100
0000
0001
0010
0000
0100
1000
0010
0100
0010
1000
,
0100
0000
1000
0000
0001
0010
0000
0001
0100
0000
0010
0000
1000
0000
0100
1000
,
0010
0100
0001
0000
1000
0100
0000
0010
0100
0000
1000
0000
0010
0000
0100
0001
,
0010
0000
0000
0000
0000
0000
0100
0000
0000
0000
0000
0000
1000
0000
0000
0000
0010
0000
0000
0000
0100
0000
0000
0000
1000
0000
0000
0000
0000
0000
0100
0000
0000
0000
0000
0000
0001
0000
0000
0010
0000
0000
0001
0000
0000
0100
0000
0000
,
0010
1000
0100
0000
1000
0000
0010
0000
0100
0000
0001
0010
0001
0100
0010
1000
,
0100
0000
0000
0000
0000
0000
1000
0000
0000
0000
0000
0000
0001
0000
0000
0000
0010
0000
0000
0000
0100
0000
0000
0000
0001
0000
0000
0000
0000
0000
0100
0000
0000
0000
0000
0000
1000
0000
0000
0010
0000
0000
1000
0000
0000
0100
0000
0000
,
0010
0001
0100
0000
0001
0010
0100
0000
1000
0000
0010
1000
0100
0010
0001
0100
,
0001
0010
0100
0000
1000
0010
0000
0100
1000
0000
0100
0000
0001
0010
0100
0010
,
0001
1000
0010
0000
0100
1000
0000
0100
0001
0000
0010
0000
0100
0000
1000
0000
,
0010
0000
1000
0000
0001
0010
0000
0100
0001
0000
0100
0000
1000
0010
0100
0010
,
1000
0001
0010
0000
0100
0001
0000
0100
1000
0000
0010
0000
0100
0001
0010
0100
,
0010
0001
1000
0000
0001
0000
0010
0000
0001
0000
1000
0000
0010
1000
0001
0010
,
0100
0010
0100
0000
1000
0000
0010
0000
1000
0000
0001
0000
0010
0001
0100
0000
,
0010
0000
1000
0001
0010
0000
0100
0000
0010
0000
0001
0000
1000
0010
1000
0000
,
0100
0010
0001
0000
1000
0010
0100
0010
1000
0000
0001
0010
0100
0010
0001
1000
,
0010
0000
0000
0000
0100
0000
0010
0000
1000
0000
0001
0000
0010
0100
0010
0000
,
0001
0000
1000
0000
0010
0000
1000
0000
0100
0000
0010
0000
0001
0100
0001
0000
,
1000
0000
0000
0000
0100
0000
1000
0000
0001
0000
0100
0000
0010
1000
0100
0000
,
1000
0000
0001
0000
0010
0000
0001
0000
0100
0000
0010
0000
1000
0000
0100
1000
,
0001
0000
0100
0000
0001
0000
0010
0100
0010
0000
0001
0000
1000
0010
0100
0000
,
0010
0000
1000
0000
0001
0000
0010
0000
0001
0000
0100
0000
0010
1000
0100
0000
,
1000
0000
0001
0000
1000
0000
0100
0000
0010
0000
0100
0000
1000
0001
0100
0000
,
0010
0100
0011
1000
1000
0011
0100
0100
,
0011
0000
0000
0001
1000
0000
0000
0000
0100
0000
0000
0000
0010
0000
0000
0000
,
0100
1000
0001
0000
0100
0000
0000
0000
0010
0000
0000
0000
0100
0001
1000
0100
,
0010
0001
1001
0000
0000
0000
0000
0000
;
