#VERSION:0.83;
#TITLE:Couch Potato;
#SUBTITLE:;
#ARTIST:Jakübi;
#TITLETRANSLIT:;
#SUBTITLETRANSLIT:;
#ARTISTTRANSLIT:Jakubi;
#GENRE:;
#ORIGIN:;
#CREDIT:vincentw;
#BANNER:Couch Potato.png;
#BACKGROUND:Couch Potato-bg.png;
#PREVIEWVID:;
#JACKET:Couch Potato-jacket.png;
#CDIMAGE:;
#DISCIMAGE:;
#LYRICSPATH:;
#CDTITLE:cdtitle.png;
#MUSIC:Couch Potato.ogg;
#OFFSET:0.000000;
#SAMPLESTART:87.999580;
#SAMPLELENGTH:21.333336;
#SELECTABLE:YES;
#BPMS:0.000=90.000,
96.000=45.000,
106.000=90.000;
#STOPS:;
#DELAYS:;
#WARPS:;
#TIMESIGNATURES:0.000=4=4,
96.000=4=2,
106.000=4=4;
#TICKCOUNTS:0.000=4;
#COMBOS:0.000=1;
#SPEEDS:0.000=1.000=0.000=0;
#SCROLLS:0.000=1.000,
96.000=0.010,
96.125=0.013,
96.250=0.018,
96.375=0.024,
96.500=0.032,
96.625=0.042,
96.750=0.056,
96.875=0.075,
97.000=0.100,
97.125=0.133,
97.250=0.178,
97.375=0.237,
97.500=0.316,
97.625=0.422,
97.750=0.562,
97.875=0.750,
98.000=1.000;
#FAKES:;
#LABELS:0.000=Song Start;
#BGCHANGES:15.333=Couch Potato.avi=1.000=1=0=0=StretchNoLoop==CrossFade==,
185.500=Couch Potato-bg.png=1.000=1=0=1===CrossFade==,
99999=-nosongbg-=1.000=0=0=0 // don't automatically add -songbackground-
;
#KEYSOUNDS:;
#ATTACKS:
;

//---------------dance-single - ----------------
#NOTEDATA:;
#CHARTNAME:;
#STEPSTYPE:dance-single;
#DESCRIPTION:;
#CHARTSTYLE:Pad;
#DIFFICULTY:Beginner;
#METER:2;
#RADARVALUES:0.099893,0.137970,0.030075,0.090226,0.000000,93.000000,89.000000,4.000000,12.000000,0.000000,0.000000,0.000000,0.000000,0.000000,0.099893,0.137970,0.030075,0.090226,0.000000,93.000000,89.000000,4.000000,12.000000,0.000000,0.000000,0.000000,0.000000,0.000000;
#CREDIT:vincentw;
#NOTES:
// measure 0
0000
0000
0000
0000
,  // measure 1
0000
0000
0000
0000
,  // measure 2
0000
0000
0000
0000
,  // measure 3
0000
0000
0000
0000
,  // measure 4
0000
0000
0000
0000
,  // measure 5
0001
0000
0000
0000
,  // measure 6
1000
0000
0000
0000
,  // measure 7
0010
0000
0000
0000
,  // measure 8
0100
0000
0000
0000
,  // measure 9
0001
0000
0001
0000
,  // measure 10
0002
0000
0003
0000
,  // measure 11
1000
0000
1000
0000
,  // measure 12
2000
0000
3000
0000
,  // measure 13
0010
0010
0000
0000
,  // measure 14
0100
0100
0000
0000
,  // measure 15
0010
0100
0000
0000
,  // measure 16
0100
0000
0100
0000
,  // measure 17
1001
0000
1000
0000
,  // measure 18
0001
0000
1000
0000
,  // measure 19
0001
0000
0100
0000
,  // measure 20
0010
0000
0100
0000
,  // measure 21
0010
0000
1000
0000
,  // measure 22
1000
0000
0100
0000
,  // measure 23
0100
0000
0010
0000
,  // measure 24
0110
0000
0000
0001
,  // measure 25
1000
1000
0010
0010
,  // measure 26
0100
0000
0001
0000
,  // measure 27
0001
0000
0010
0010
,  // measure 28
0010
0000
0100
0000
,  // measure 29
0100
0000
2000
0000
,  // measure 30
0002
3003
1001
0000
,  // measure 31
1000
1000
0001
0000
,  // measure 32
0001
0001
1000
0000
,  // measure 33
0100
0100
0010
0000
,  // measure 34
0010
0010
0100
0000
,  // measure 35
1000
0001
1000
0000
,  // measure 36
0001
1000
0002
0000
,  // measure 37
2003
0000
0002
0000
,  // measure 38
0000
3003
1000
0010
,  // measure 39
0020
0030
0100
0010
,  // measure 40
0020
0030
1000
0001
,  // measure 41
0002
0003
0010
0001
,  // measure 42
0002
0003
0000
1001
,  // measure 43
0000
0001
1000
0001
,  // measure 44
1000
0000
0010
0000
,  // measure 45
0100
0000
0000
0000
0020
0000
0000
0030
;

//---------------dance-single - ----------------
#NOTEDATA:;
#CHARTNAME:;
#STEPSTYPE:dance-single;
#DESCRIPTION:;
#CHARTSTYLE:Pad;
#DIFFICULTY:Hard;
#METER:10;
#RADARVALUES:0.322234,0.493421,0.150376,0.172932,0.266917,300.000000,280.000000,20.000000,23.000000,0.000000,0.000000,0.000000,0.000000,0.000000,0.322234,0.493421,0.150376,0.172932,0.266917,300.000000,280.000000,20.000000,23.000000,0.000000,0.000000,0.000000,0.000000,0.000000;
#CREDIT:vincentw;
#NOTES:
// measure 0
0000
0000
0000
0000
,  // measure 1
0000
0000
0000
0000
,  // measure 2
0000
0000
0000
0000
,  // measure 3
0000
0000
0000
0000
,  // measure 4
0000
0000
0000
0000
0000
1000
0001
0100
,  // measure 5
0010
0000
0000
0000
0000
0000
0000
0000
0000
0000
0000
0000
0000
0000
0000
0000
0110
0000
0000
0000
0000
0000
0000
0000
0000
0000
0000
0000
0000
0100
0000
0000
0000
0000
0000
0000
0000
0000
0000
0000
0001
0000
0000
0000
0000
0000
0000
0000
0010
0000
0000
0000
0000
0000
0000
0000
0100
0000
0000
0000
0000
0000
0000
0000
,  // measure 6
1000
0000
0000
0000
0000
0000
0000
0000
0000
0000
0000
0000
0000
0000
0000
0000
1100
0000
0000
0000
0000
0000
0000
0000
0000
0000
0000
0000
0000
0200
0000
0000
0000
0000
0000
0000
0000
0000
0000
0000
0300
0000
0000
0000
0000
0000
0000
0000
1000
0000
0000
0000
0000
0000
0000
0000
0010
0000
0000
0000
0000
0000
0000
0000
,  // measure 7
0100
0000
0000
0000
0000
0000
0000
0000
0010
0000
0000
0000
0000
0000
0000
0000
2000
0000
0000
0000
0000
0000
0000
0000
0000
0000
0000
0000
0000
3001
0000
0000
0000
0000
0000
0000
0000
0000
0000
0000
1000
0000
0000
0000
0000
0000
0000
0000
0100
0000
0000
0000
0000
0000
0000
0000
0001
0000
0000
0000
0000
0000
0000
0000
,  // measure 8
0100
0000
0000
0000
0000
0000
0000
0000
1000
0000
0000
0000
0000
0000
0000
0000
0000
0000
0000
0000
0000
0000
0000
0000
0001
0000
0000
0000
0000
0000
0000
0000
0100
0000
0000
0000
0000
0000
0000
0000
1000
0000
0000
0000
0000
0000
0000
0000
0200
0000
0000
0000
0000
0000
0000
0000
0000
0000
0000
0000
0000
0301
0000
0000
,  // measure 9
0000
0000
1000
0010
0100
0000
0001
0010
,  // measure 10
0100
0010
0001
1000
0100
0000
1000
0001
,  // measure 11
0100
0001
1000
0010
0100
0000
0001
0010
,  // measure 12
1000
0010
0100
0010
0001
0000
1000
1000
,  // measure 13
0001
0000
0000
0000
0000
0000
0000
0000
0100
0000
0000
0000
0000
0000
0000
0000
0010
0000
0000
0000
0000
0000
0000
0000
0000
0000
0000
0000
0000
0010
0000
0000
0000
0000
0000
0000
0000
0000
0000
0000
0000
0000
0000
0000
0000
0000
0000
0000
0100
0000
0000
0000
0000
0000
0000
0000
0100
0000
0000
0000
0000
0000
0000
0000
,  // measure 14
0001
0000
0000
0000
0000
0000
0000
0000
1000
0000
0000
0000
0000
0000
0000
0000
0100
0000
0000
0000
0000
0000
0000
0000
0000
0000
0000
0000
0000
0020
0000
0000
0000
0000
0000
0000
0000
0000
0000
0000
0030
0000
0000
0000
0000
0000
0000
0000
0001
0000
0000
0000
0000
0000
0000
0000
0001
0000
0000
0000
0000
0000
0000
0000
,  // measure 15
0010
0000
0000
0000
0000
0000
0000
0000
0100
0000
0000
0000
0000
0000
0000
0000
1000
0000
0000
0000
0000
0000
0000
0000
0000
0000
0000
0000
0000
2000
0000
0000
0000
0000
0000
0000
0000
0000
0000
0000
3001
0000
0000
0000
0000
0000
0000
0000
0001
0000
0000
0000
0000
0000
0000
0000
0010
0000
0000
0000
0000
0000
0000
0000
,  // measure 16
1000
0001
0001
0100
1000
0001
1000
0000
,  // measure 17
0010
0000
0000
0000
0000
0000
0000
0000
0000
0000
0000
0000
0000
0000
0000
0000
0110
0000
0000
0000
0000
0000
0000
0000
0000
0000
0000
0000
0000
0000
0000
0000
1000
0000
0000
0000
0000
0000
0000
0000
1000
0000
0000
0000
0000
0000
0000
0000
0001
0000
0000
0000
0000
0000
0000
0000
0000
0000
0000
0000
0000
0010
0000
0000
,  // measure 18
0000
0000
0000
0000
0000
0100
0000
0000
0000
0000
0000
0000
0000
0000
0000
0000
1100
0000
0000
0000
0000
0000
0000
0000
0000
0000
0000
0000
0000
0000
0000
0000
1000
0000
0000
0000
0000
0000
0000
0000
1000
0000
0000
0000
0000
0000
0000
0000
0001
0000
0000
0000
0000
0000
0000
0000
0000
0000
0000
0000
0000
0100
0000
0000
,  // measure 19
0000
0000
0000
0000
0000
0001
0000
0000
0000
0000
0000
0000
0000
0000
0000
0000
0101
0000
0000
0000
0000
0000
0000
0000
0000
0000
0000
0000
0000
0000
0000
0000
1000
0000
0000
0000
0000
0000
0000
0000
1000
0000
0000
0000
0000
0000
0000
0000
0001
0000
0000
0000
0000
0000
0000
0000
0000
0000
0000
0000
0000
0010
0000
0000
,  // measure 20
0000
0000
0000
0000
0000
0100
0000
0000
0000
0000
0000
0000
0000
0001
0000
0000
0000
0000
0000
0000
0000
1000
0000
0000
0000
0000
0000
0000
0000
0010
0000
0000
0000
0000
0000
0000
0000
0100
0000
0000
0000
0000
0000
0000
0000
1000
0000
0000
0000
0000
0000
0000
0000
0002
0000
0000
0000
0000
0000
0000
0000
0000
0000
0000
,  // measure 21
0103
0000
0000
0000
0000
0000
0000
0000
0000
0000
0000
0000
0000
0000
0000
0000
0110
0000
0000
0000
0000
0000
0000
0000
0000
0000
0000
0000
0000
0000
0000
0000
0001
0000
0000
0000
0000
0000
0000
0000
0001
0000
0000
0000
0000
0000
0000
0000
1000
0000
0000
0000
0000
0000
0000
0000
0000
0000
0000
0000
0000
0010
0000
0000
,  // measure 22
0000
0000
0000
0000
0000
1000
0000
0000
0000
0000
0000
0000
0000
0000
0000
0000
1010
0000
0000
0000
0000
0000
0000
0000
0000
0000
0000
0000
0000
0000
0000
0000
0010
0000
0000
0000
0000
0000
0000
0000
1000
0000
0000
0000
0000
0000
0000
0000
0100
0000
0000
0000
0000
0000
0000
0000
0001
0000
0000
0000
0000
0000
0000
0000
,  // measure 23
0100
0010
0001
0010
0000
0000
0001
1000
0100
1000
0000
0000
,  // measure 24
1001
0000
0000
0000
0000
0000
0000
0000
0000
0000
0000
0000
0000
0000
0000
0000
0000
0000
0000
0000
0000
0000
0000
0000
0001
0000
0001
0000
0000
0000
0010
0000
0100
0000
0000
0000
1000
0000
0000
0000
0000
0000
0010
0000
0000
0100
0000
0000
,  // measure 25
0010
0000
0010
0000
0000
1000
0000
0000
0001
0000
0000
1000
0000
0000
0000
0000
0000
0000
0001
0000
0000
0010
0000
0000
1000
0000
0000
0000
0000
0000
1000
0000
0000
0010
0000
0000
0001
0000
0000
0000
0000
0000
1000
0000
0000
0010
0000
0000
,  // measure 26
0001
0000
0000
0000
1000
0000
0000
0000
0001
0000
0000
0000
0010
0000
0000
0000
1000
0000
0000
0000
0000
0000
0000
0000
0001
0000
0000
0000
0001
0000
0000
0000
1000
0000
0000
0000
0000
0000
0000
0000
0010
0000
0000
0000
0000
0000
0000
0000
0200
0000
0000
0000
0000
0000
0000
0000
0000
0000
0000
0000
0000
0301
0000
0000
,  // measure 27
0000
0000
0000
0000
0000
0010
0000
0000
0000
0000
0000
0000
0000
0001
0000
0000
0000
0000
0000
0000
0000
0010
0000
0000
0000
0000
0000
0000
0000
0000
0000
0000
0001
0000
0000
0000
0000
0000
0000
0000
1000
0000
0000
0000
0000
0000
0000
0000
0200
0000
0000
0000
0000
0000
0000
0000
0000
0000
0000
0000
0000
1300
0000
0000
,  // measure 28
0000
0000
0000
0000
0000
0001
0000
0000
0000
0000
0000
0000
0000
0200
0000
0000
0000
0000
0000
0000
0000
0000
0000
0000
0000
0000
0300
0000
0000
0000
0000
0000
0001
0000
0000
0000
0000
0000
0000
0000
0010
0000
0000
0000
0000
0000
0000
0000
0200
0000
0000
0000
0000
0000
0000
0000
0000
0000
0000
0000
0000
1300
0000
0000
,  // measure 29
0000
0000
0000
0000
0000
0001
0000
0000
0000
0000
0000
0000
0000
0100
0000
0000
0000
0000
0000
0000
0000
0001
0000
0000
0000
0000
0000
0000
0000
0000
0000
0000
1000
0000
0000
0000
0000
0000
0000
0000
0010
0000
0000
0000
0000
0000
0000
0000
0100
0000
0000
0000
0000
0000
0000
0000
1000
0000
0000
0000
0000
0000
0000
0000
,  // measure 30
0001
0000
0000
0000
0000
0000
0000
0000
0010
0000
0000
0000
0000
0000
0000
0000
0100
0000
0000
0000
0000
0000
0000
0000
0000
0000
0000
0000
0000
0001
0000
0000
1000
0000
0000
0000
0000
0000
0000
0000
0000
0000
0000
0000
0000
0000
0000
0000
1001
0000
0000
0000
0000
0000
0000
0000
0000
0000
0000
0000
0000
0000
0000
0000
,  // measure 31
0001
0000
0000
0000
0000
0000
0000
0000
0010
0000
0000
0000
0000
0000
0000
0000
0001
0000
0000
0000
0000
0000
0000
0000
1000
0000
0000
0000
0000
0100
0000
0000
0000
0000
0000
0000
0000
0100
0000
0000
0000
0000
0000
0000
0000
0000
0000
0000
0110
0000
0000
0000
0000
0000
0000
0000
0000
0000
0000
0000
0000
0000
0000
0000
,  // measure 32
0001
0000
0000
0000
0000
0000
0000
0000
0001
0000
0000
0000
0000
0000
0000
0000
1000
0000
0000
0000
0000
0000
0000
0000
0010
0000
0000
0000
0000
0100
0000
0000
0000
0000
0000
0000
0000
0001
0000
0000
0000
0000
0000
0000
0000
0000
0000
0000
1100
0000
0000
0000
0000
0000
0000
0000
0000
0000
0000
0000
0000
0000
0000
0000
,  // measure 33
0100
0000
0000
0000
0000
0000
0000
0000
0010
0000
0000
0000
0000
0000
0000
0000
1000
0000
0000
0000
0000
0000
0000
0000
0010
0000
0000
0000
0000
0100
0000
0000
0000
0000
0000
0000
0000
1000
0000
0000
0000
0000
0000
0000
0000
0010
0000
0000
0000
0000
0000
0000
0000
0001
0000
0000
0000
0000
0000
0000
0000
0100
0000
0000
,  // measure 34
0000
0000
0000
0000
0000
0001
0000
0000
0000
0000
0000
0000
0000
0010
0000
0000
0000
0000
0000
0000
0000
2000
0000
0000
0000
0000
0000
0000
0000
0000
0000
0000
0001
0000
0000
0000
0000
0000
0000
0000
0000
0000
3000
0000
0000
0000
0000
0000
1001
0000
0000
0000
0000
0000
0000
0000
0000
0000
0000
0000
0000
0000
0000
0000
,  // measure 35
1000
0000
0000
0000
0000
0000
0000
0000
1000
0000
0000
0000
0000
0000
0000
0000
0100
0000
0000
0000
0000
0000
0000
0000
0010
0000
0000
0000
0000
0100
0000
0000
0000
0000
0000
0000
0000
1000
0000
0000
0000
0000
0000
0000
0000
0000
0000
0000
0101
0000
0000
0000
0000
0000
0000
0000
0000
0000
0000
0000
0000
0000
0000
0000
,  // measure 36
0001
0000
0000
0010
0000
0000
1000
0000
0000
0001
0000
0000
1000
0000
0010
0000
0001
0000
0100
0000
0000
0000
0001
0000
,  // measure 37
1000
0000
0000
0000
0000
0000
0000
0000
0000
0000
0000
0000
0000
0000
0000
0000
0010
0000
0000
0000
0000
0000
0000
0000
0000
0000
0000
0000
0000
0000
0000
0000
0001
0000
0000
0000
0000
0000
0000
0000
0000
0000
0000
0000
0000
0000
0000
0000
0010
0000
0000
0000
0000
0000
0000
0000
0000
0000
0000
0000
0000
0000
0000
0000
0000
0000
0000
0000
0000
0000
0000
0000
0100
0000
0000
0000
0000
0000
0000
0000
0000
0000
0000
0000
0000
0000
0000
0000
0000
0000
0000
0000
0000
0000
0000
0000
0002
0000
0000
0000
0000
0000
0000
0000
0000
0000
0000
0000
0000
0000
0000
0000
0000
0000
0000
0000
0000
0000
0000
0000
0000
0000
0000
0000
0000
0000
0000
0000
0000
0000
0000
0000
0000
0000
0000
0203
0000
0000
0000
0000
0000
0000
0000
0000
0000
0000
0000
0000
0000
0000
0000
0000
0000
0000
0000
0000
0000
0000
0000
0000
0000
0000
0000
0000
0000
0000
0000
0000
2300
0000
0000
0000
0000
0000
0000
0000
0000
0000
0000
0000
0000
0000
0000
0000
0000
0000
0000
0000
0000
0000
0000
0000
,  // measure 38
0000
0000
0000
0000
0000
3020
0000
0000
0000
0000
0000
0000
0000
0000
0000
0000
0031
0000
0000
0000
0000
0000
0000
0000
0000
0000
0000
0000
0000
0000
0000
0000
1000
0000
0000
0000
0000
0000
0000
0000
0000
0000
0000
0000
0000
0000
0000
0000
0101
0000
0000
0000
0000
0000
0000
0000
0000
0000
0000
0000
0000
0000
0000
0000
,  // measure 39
0001
0100
0010
0100
0001
0000
1001
0000
,  // measure 40
1000
0010
0001
0010
1000
0000
1010
0000
,  // measure 41
0010
0100
1000
0100
0001
0000
1100
0000
,  // measure 42
1000
0100
0000
0002
0000
0003
0011
0000
,  // measure 43
0010
0001
0100
0001
0010
0000
0110
0000
,  // measure 44
1000
0000
0000
0001
0000
0000
0100
0000
0000
0001
0000
0000
0020
0000
0000
1000
0000
0000
0230
0000
0300
0000
0000
0000
,  // measure 45
0200
0000
0000
0001
0000
0000
0320
0000
0030
0000
0000
0000
1002
0000
0000
0000
0000
0000
0203
0000
0000
0002
0000
0000
,  // measure 46
0000
0000
0000
0000
0000
0000
0000
0303
;

//---------------dance-single - ----------------
#NOTEDATA:;
#CHARTNAME:;
#STEPSTYPE:dance-single;
#DESCRIPTION:;
#CHARTSTYLE:Pad;
#DIFFICULTY:Easy;
#METER:4;
#RADARVALUES:0.161117,0.211466,0.052632,0.067669,0.000000,150.000000,143.000000,7.000000,9.000000,0.000000,0.000000,0.000000,0.000000,0.000000,0.161117,0.211466,0.052632,0.067669,0.000000,150.000000,143.000000,7.000000,9.000000,0.000000,0.000000,0.000000,0.000000,0.000000;
#CREDIT:vincentw;
#NOTES:
// measure 0
0000
0000
0000
0000
,  // measure 1
0000
0000
0000
0000
,  // measure 2
0000
0000
0000
0000
,  // measure 3
0000
0000
0000
0000
,  // measure 4
0000
0000
0000
0001
,  // measure 5
1000
2000
3000
1000
,  // measure 6
0010
0020
0030
0010
,  // measure 7
0100
0200
0300
0100
,  // measure 8
0001
0001
2000
3000
,  // measure 9
0001
0010
0100
0000
,  // measure 10
0010
0100
1000
0000
,  // measure 11
1000
0010
0100
0000
,  // measure 12
0010
0100
0001
0000
,  // measure 13
1000
0100
1000
0000
,  // measure 14
0001
0100
0001
0000
,  // measure 15
1000
0010
1000
0000
,  // measure 16
0001
0010
0001
1000
,  // measure 17
1001
0000
0001
0001
,  // measure 18
0100
0000
1000
1000
,  // measure 19
0100
0000
0001
0001
,  // measure 20
0010
0000
1000
1000
,  // measure 21
0010
0000
0001
0010
,  // measure 22
1000
0000
1000
0010
,  // measure 23
0002
0000
2003
0000
,  // measure 24
3001
0000
0000
0000
0000
0001
0000
1000
,  // measure 25
0000
0010
0000
0100
0000
0001
0000
1000
,  // measure 26
0000
0010
0000
0000
1000
0000
0100
0000
,  // measure 27
0010
0001
0010
0100
,  // measure 28
1000
0000
0001
0100
,  // measure 29
0010
1000
0010
0010
,  // measure 30
0100
0100
0110
0000
,  // measure 31
0010
0010
0100
0000
0100
0000
0000
0000
,  // measure 32
0001
0001
1000
0000
1000
0000
0000
0000
,  // measure 33
0100
0100
0010
0000
0010
0000
0001
0000
,  // measure 34
1000
0010
0100
0001
,  // measure 35
0010
0010
0001
0000
1000
0000
0100
0000
,  // measure 36
0010
0010
0100
0000
0011
0000
0000
0000
,  // measure 37
1100
0000
0002
0000
,  // measure 38
0000
0003
1000
0010
,  // measure 39
1000
0010
1000
0000
0001
0000
0100
0000
,  // measure 40
0001
0100
0001
0000
1000
0000
0100
0000
,  // measure 41
1000
0001
1000
0000
0001
0000
0010
0000
,  // measure 42
0001
1000
0001
0000
0000
0000
1001
0000
,  // measure 43
1000
0100
0010
0000
0001
0000
1000
0000
,  // measure 44
0001
0100
0010
0000
0101
0000
0000
0000
,  // measure 45
1010
0000
0000
0000
0002
0000
0000
2003
,  // measure 46
0000
0000
0000
0000
0000
0000
0000
3000
;

//---------------dance-single - ----------------
#NOTEDATA:;
#CHARTNAME:;
#STEPSTYPE:dance-single;
#DESCRIPTION:;
#CHARTSTYLE:Pad;
#DIFFICULTY:Medium;
#METER:6;
#RADARVALUES:0.259936,0.281955,0.187970,0.105263,0.000000,242.000000,217.000000,25.000000,14.000000,0.000000,0.000000,0.000000,0.000000,0.000000,0.259936,0.281955,0.187970,0.105263,0.000000,242.000000,217.000000,25.000000,14.000000,0.000000,0.000000,0.000000,0.000000,0.000000;
#CREDIT:vincentw;
#NOTES:
// measure 0
0000
0000
0000
0000
,  // measure 1
0000
0000
0000
0000
,  // measure 2
0000
0000
0000
0000
,  // measure 3
0000
0000
0000
0000
,  // measure 4
0000
0000
0000
0110
,  // measure 5
0001
1000
0001
0000
1000
0000
1000
0000
,  // measure 6
0010
0100
0010
0000
0100
0000
0100
0000
,  // measure 7
0001
0010
0001
0000
1000
0000
0100
0000
,  // measure 8
1000
0010
1000
0000
0001
0100
0001
0000
,  // measure 9
1000
0001
0100
0100
,  // measure 10
0001
0000
0001
1000
0010
0000
1000
0000
,  // measure 11
0001
0000
1000
0100
0001
0000
0100
0000
,  // measure 12
0010
0000
1000
0010
0001
0000
1000
0000
,  // measure 13
0010
0100
0010
0000
1000
0000
1000
0000
,  // measure 14
0100
0010
0100
0000
1000
0000
0001
0000
,  // measure 15
0010
0100
0010
0000
0001
0000
0001
0000
,  // measure 16
0100
0010
0100
0000
0001
1000
0001
0000
,  // measure 17
1000
0000
1100
0000
0010
0100
0010
0000
,  // measure 18
0001
0000
0011
0000
1000
0001
1000
0000
,  // measure 19
0010
0000
1010
0000
1000
0010
0100
0000
,  // measure 20
0001
0100
1000
0000
1000
0100
0001
0000
,  // measure 21
0001
0000
0101
0000
0010
0100
0010
0000
,  // measure 22
1000
0000
1001
0000
0001
0010
0100
1000
,  // measure 23
0002
0010
2003
0100
,  // measure 24
3001
0000
0000
0000
0001
0010
0100
1000
,  // measure 25
0100
0010
0001
0000
1000
0010
0100
0001
,  // measure 26
0100
0010
1000
0000
0001
0000
0101
0000
,  // measure 27
1000
0010
1000
0000
0001
0000
0011
0000
,  // measure 28
1000
0100
1000
0000
0001
0000
1001
0000
,  // measure 29
0010
0100
0010
0000
0110
0000
1001
0000
,  // measure 30
1100
0001
1001
0100
,  // measure 31
0001
1000
0100
1000
0001
0000
1010
0000
,  // measure 32
1000
0100
0010
0001
1000
0000
1001
0000
,  // measure 33
0001
1000
0100
0000
0010
0001
1000
0100
,  // measure 34
0001
0100
1000
0000
0001
0000
0101
0000
,  // measure 35
1000
0010
0100
0010
1000
0000
1001
0000
,  // measure 36
1000
0100
0010
0100
2000
0000
3020
0000
,  // measure 37
0032
0000
0203
0000
2300
0000
0000
3002
,  // measure 38
0000
1003
0010
0110
,  // measure 39
1000
0001
0100
0001
1000
0000
1100
0000
,  // measure 40
0001
0010
0001
0100
0010
0000
1010
0000
,  // measure 41
1000
0010
0001
0010
1000
0000
0101
0000
,  // measure 42
0001
1000
0100
0010
0000
0000
0011
0000
,  // measure 43
0001
0010
1000
0010
0001
0000
1001
0000
,  // measure 44
1000
0000
0000
0100
0000
0000
0010
0000
0000
0000
0000
0000
0001
0000
0000
0100
0000
0000
0020
0000
0030
0000
0000
0000
,  // measure 45
1000
0000
0000
0100
0000
0000
0020
0000
0030
0000
0000
0000
0220
0000
0000
0000
0000
0000
0330
0000
0000
2002
0000
0000
,  // measure 46
0000
0000
0000
0000
0000
0000
0000
3003
;
