#TITLE:Cosmic Explorer (Silver Spirit);
#SUBTITLE:;
#ARTIST:Perfume;
#TITLETRANSLIT:;
#SUBTITLETRANSLIT:;
#ARTISTTRANSLIT:;
#GENRE:;
#CREDIT:;
#BANNER:Cosmic Explorer.png;
#BACKGROUND:Cosmic Explorer-bg.png;
#LYRICSPATH:;
#CDTITLE:;
#MUSIC:Cosmic Explorer.ogg;
#OFFSET:2.400000;
#SAMPLESTART:86.319916;
#SAMPLELENGTH:14.480000;
#LASTBEATHINT:2.333333;
#SELECTABLE:YES;
#BPMS:0.000000=100.000000
;
#STOPS:
;
#BGCHANGES:;
#KEYSOUNDS:;
#ATTACKS:;

//---------------dance-single - ----------------
#NOTES:
     dance-single:
     :
     Hard:
     11:
     0.416807,0.478039,0.196078,0.282353,0.294118,372.000000,347.000000,25.000000,36.000000,0.000000,0.000000,0.416807,0.478039,0.196078,0.282353,0.294118,372.000000,347.000000,25.000000,36.000000,0.000000,0.000000:
// measure 0
0000
0000
0000
0000
,  // measure 1
0000
0000
0000
0000
,  // measure 2
0000
0000
0000
0000
,  // measure 3
0000
0000
0000
0000
,  // measure 4
0000
0000
0000
0000
,  // measure 5
1001
1000
1000
0100
0010
0001
1000
0001
,  // measure 6
0100
0010
1000
0100
0010
0100
1000
0001
,  // measure 7
0110
1001
1100
0011
,  // measure 8
1001
0001
0001
1001
0002
0000
1003
0000
,  // measure 9
1000
0000
0000
0001
0010
0000
0100
0010
0000
0010
0100
0000
0000
0010
0001
2000
,  // measure 10
0000
0000
0000
0000
3001
0000
0000
0100
0001
1000
0001
1000
0000
0001
0010
0000
,  // measure 11
0200
0000
0000
0000
1300
0000
0001
0000
0100
0010
0100
0010
0000
0100
0020
0000
,  // measure 12
0000
2030
3002
0203
,  // measure 13
0310
0000
0000
1000
0001
0000
0001
1000
0000
0001
1000
0000
0000
0001
0010
0200
,  // measure 14
0000
0000
0000
0000
0310
0000
0000
0100
1000
0100
1000
0100
0000
1000
0010
0000
,  // measure 15
0200
0000
0000
0000
0301
0000
1000
0000
0100
0010
0100
0010
0000
0100
0020
0000
,  // measure 16
0000
0000
0000
0000
1030
0000
0000
1000
0000
0100
1000
0100
1000
0100
1000
0100
,  // measure 17
1000
0001
1001
0000
1000
0100
1100
0000
,  // measure 18
0001
0010
0011
0000
0010
0100
0110
0000
,  // measure 19
0100
1000
1100
0000
1000
0010
1010
0000
,  // measure 20
0100
0001
0101
0000
0001
1000
1001
0000
,  // measure 21
2000
0000
0001
0000
0001
0000
0001
0000
3001
0000
0100
0000
0001
0000
1000
0001
,  // measure 22
2000
0100
0100
0100
3100
0000
1001
0000
,  // measure 23
0002
0000
0010
0000
0010
0000
0010
0000
0013
0000
0100
0000
1000
0000
0001
0100
,  // measure 24
0020
1000
1000
1000
1030
0000
1001
0000
,  // measure 25
0002
0100
0100
0100
0103
0010
1000
0001
,  // measure 26
0200
0001
0001
0001
0301
0000
1001
0000
,  // measure 27
0002
1000
1000
1000
1003
0100
0010
0001
,  // measure 28
1001
1000
0100
1000
0002
0000
1000
1000
,  // measure 29
1003
0000
0100
1000
0000
1000
0100
0000
0010
0000
0001
0010
0000
0010
0002
0000
,  // measure 30
1000
0100
0010
1003
,  // measure 31
0011
0000
0000
0001
0000
0000
0010
0000
1100
0000
0000
0100
0000
0000
2000
0000
,  // measure 32
0001
0100
0010
3001
,  // measure 33
0010
0000
0001
0010
0000
0010
0001
0000
1000
0000
0100
1000
0000
1000
0200
0000
,  // measure 34
1000
0010
1000
0310
,  // measure 35
2001
0000
3100
0000
0011
0010
0100
0000
,  // measure 36
2000
0000
0002
3003
,  // measure 37
0001
0000
0000
1000
0100
0000
0010
0100
0000
0100
0010
0000
0000
0100
1000
0002
,  // measure 38
0000
0000
0000
0000
1003
0000
0000
0010
1000
0001
1000
0001
0000
1000
0100
0000
,  // measure 39
0020
0000
0000
0000
0031
0000
1000
0000
0010
0100
0010
0100
0000
0010
0200
0000
,  // measure 40
0000
0302
2003
3020
,  // measure 41
0130
0000
0000
0001
1000
0000
1000
0001
0000
1000
0001
0000
0000
1000
0100
0020
,  // measure 42
0000
0000
0000
0000
0130
0000
0000
0010
0001
0010
0001
0010
0000
0001
0010
0000
,  // measure 43
0200
0000
0000
0000
1300
0000
0001
0000
0010
0100
0010
0100
0000
0010
0200
0000
,  // measure 44
1000
0010
1000
0310
,  // measure 45
1000
0000
0001
0000
0100
0000
0010
0000
1000
0000
0100
1000
0000
1000
0100
0000
,  // measure 46
0010
0000
0001
0000
1000
0000
0001
0000
0100
0000
0010
1000
0000
1000
0010
0000
,  // measure 47
1000
0000
0100
0000
0010
0000
0001
0000
1000
0000
0001
1000
0000
1000
0001
0000
,  // measure 48
1001
0000
0000
0001
0000
0000
0010
0000
0000
0100
0000
0000
1000
0001
0100
0010
1000
0001
2000
0000
0000
0000
0000
0000
,  // measure 49
3001
1000
0010
0100
0002
0000
1003
0000
,  // measure 50
0001
0010
0100
0010
0002
0000
1003
1000
,  // measure 51
1000
0001
0100
0010
1000
0100
0010
0000
,  // measure 52
1000
0001
0010
0001
1000
0001
0100
0000
,  // measure 53
1001
0000
0000
0000
;
