#TITLE:Contra Medley Mix;
#SUBTITLE:;
#ARTIST:NEKOJIRA;
#TITLETRANSLIT:;
#SUBTITLETRANSLIT:;
#ARTISTTRANSLIT:;
#GENRE:;
#CREDIT:;
#MUSIC:Contra Medley Mix.ogg;
#BANNER:Contra Medley Mix.png;
#BACKGROUND:Contra Medley Mix-bg.png;
#CDTITLE:;
#SAMPLESTART:14.417;
#SAMPLELENGTH:15.000;
#SELECTABLE:YES;
#OFFSET:1.557;
#BPMS:0.000=150.000
,248.000=130.135
,255.000=129.375
,258.250=127.375
,259.000=125.375
,259.500=129.000
;
#STOPS:;
#DISPLAYBPM:150.000;
#BGCHANGES:;
#FGCHANGES:;

//--------------- dance-single - forcednature ----------------
#NOTES:
     dance-single:
     forcednature:
     Beginner:
     5:
     0,0,0,0,0:
0000
0000
0000
0000
,
0000
0000
0000
0000
,
0001
1000
0000
0010
,
0000
0010
0000
0100
,
0001
1000
0000
0100
,
0000
0100
0000
0010
,
1000
0010
0000
0100
,
0000
1000
0000
0001
,
0100
0010
0000
0001
,
0000
0010
0100
0000
,
1000
1000
0000
0000
0001
0001
0000
0000
,
1000
1000
0000
0000
0001
0001
0000
0000
,
0001
0001
0000
0000
1000
1000
0000
0000
,
0001
0001
0000
0000
1000
0000
1000
0000
,
2002
0000
0000
3003
,
1000
0100
0000
0100
,
0000
0010
0000
0010
,
0000
0001
0000
1000
,
0000
0001
0000
1000
,
0000
0010
0000
0100
,
0000
0001
0000
1000
,
0000
0100
0000
1000
,
0000
0010
0000
0000
,
1000
0000
0001
0000
,
1000
0000
0001
0000
,
0100
0000
0010
0000
,
0100
0000
0010
0000
,
1000
0000
0001
0000
,
1000
0000
0001
0000
,
0010
0000
0100
0000
,
2000
0000
0000
0002
0000
0000
0000
0000
,
0000
0000
0000
0000
,
0000
0000
0000
0000
,
0000
0000
3003
0000
,
0200
0000
0000
0300
,
0200
0000
0000
0300
,
0020
0000
0000
0030
,
0020
0000
0000
0030
,
1000
0000
0100
0000
,
0001
0000
0100
0000
,
1000
0000
0010
0000
,
0001
0000
0010
0000
,
1000
0000
0000
0000
,
0001
0000
0000
0000
,
0010
0000
0000
0000
,
0100
0000
0010
0010
,
1000
0000
0001
0000
,
0100
0000
0001
0000
,
1000
0000
0100
0000
,
1000
0000
0001
0000
,
0010
0000
0001
0000
,
0100
0000
0010
0000
,
0100
0000
1000
0000
,
0100
0000
0001
0000
,
1001
1000
0001
1000
,
0001
1000
0001
1000
,
0100
0010
0100
0010
,
0100
0010
0100
0010
,
1000
0001
1000
0001
,
1000
0001
1000
0001
,
0010
0100
0010
0100
,
0100
0100
0100
0100
,
2002
0000
0000
0000
,
0000
3003
0000
1000
,
0000
0000
0001
0000
0000
0000
0100
0000
0000
0000
0000
0010
0000
0000
2000
0000
,
0000
0000
0000
3000
;

//--------------- dance-single - forcednature ----------------
#NOTES:
     dance-single:
     forcednature:
     Easy:
     8:
     0,0,0,0,0:
0000
0000
0000
0000
,
0000
0000
0000
0000
,
1001
1000
0010
0100
,
0001
0010
0100
1000
,
0001
0100
1000
0100
,
0001
0010
1000
0010
,
0110
1000
0001
0100
,
0010
1000
0001
1000
,
0100
0010
0001
0100
,
0010
1000
0001
0000
,
1000
0000
1000
0000
0000
0001
0000
0000
1000
0000
1000
0000
0000
0001
0000
0000
,
0100
0000
0100
0000
0000
0010
0000
0000
0100
0000
0100
0000
0000
0010
0000
0000
,
0010
0000
0010
0000
0000
0100
0000
0000
0010
0000
0010
0000
0000
0100
0000
0000
,
0001
0000
0001
0000
0000
1000
0000
0000
0001
0000
0000
0000
1000
0000
0000
0000
,
0110
1001
0110
1001
,
1001
0000
0000
0000
1000
0100
1000
0000
,
0010
0100
0001
0010
,
0200
2300
3200
0302
,
0203
0320
0230
0300
,
1000
0001
1000
0000
0010
0000
0100
0000
,
0001
1000
0001
0000
0010
0000
0100
0000
,
2000
3020
0032
0203
,
2300
3200
0302
0023
,
1030
0000
0000
0001
0000
0000
0100
0000
,
0001
0000
0000
1000
0000
0000
0100
0000
,
1000
0000
0000
0001
0000
0000
0010
0000
,
0001
0000
0000
1000
0000
0000
0010
0000
,
0110
0000
0000
0110
0000
0000
1001
0000
,
1001
0000
0000
1001
0000
0000
0110
0000
,
0110
0000
0000
0110
0000
0000
1001
0000
,
0100
0000
0000
0000
0000
0000
0000
0000
0000
0000
0000
0000
0100
0000
0000
0000
0000
0000
0000
0000
0000
0000
0000
2002
0000
0000
0000
0000
0000
0000
0000
0000
,
0000
0000
0000
0000
,
0000
0000
0000
0000
,
0000
0000
0000
0000
0000
0000
0000
0000
0000
0000
0000
0000
0000
0000
0000
0000
0000
0000
0000
3003
0000
0000
0000
0000
0000
0000
0000
0000
0000
0000
0000
0000
,
1000
1000
0000
0000
0000
0000
0000
0000
,
0001
0001
0000
0000
0000
0000
0000
0000
,
1000
1000
0000
0000
0000
0000
0000
0000
,
0001
0001
0000
0000
0000
0000
0000
0000
,
0100
0001
0100
0000
0001
0000
0100
0000
,
0010
1000
0010
0000
1000
0000
0010
0000
,
1000
0100
1000
0000
0100
0000
1000
0000
,
0001
0010
0001
0000
0010
0000
0001
0000
,
0100
0000
0000
0010
0000
0000
0000
0000
1000
0000
0000
0000
0001
0000
0000
0000
,
0010
0000
0000
0100
0000
0000
0000
0000
1000
0000
0000
0000
0001
0000
0000
0000
,
1000
0000
0000
0001
0000
0000
0000
0000
0100
0000
0000
0000
0010
0000
0000
0000
,
1000
0000
0000
0001
0000
0000
0000
0000
0110
0000
0000
0000
0110
0000
0000
0000
,
1000
0010
1000
0000
0001
0000
0100
0000
,
0001
0010
0001
0000
1000
0000
0100
0000
,
1000
0100
0001
0000
0100
0000
1000
0000
,
0001
0100
1000
0000
0100
0000
0001
0000
,
1000
0010
0100
0000
0010
0000
1000
0000
,
0001
0010
0100
0000
0010
0000
0001
0000
,
0100
0010
1000
0000
0100
0000
0010
0000
,
0100
0010
0001
0000
0100
0000
0010
0000
,
2000
3200
0302
0203
,
2300
3200
0302
0203
,
2300
3020
0032
0023
,
2030
3020
0032
0023
,
2030
3200
2300
3020
,
2030
3200
2300
3020
,
0230
0000
0302
0000
0023
0000
0032
0003
,
0101
1010
0011
1100
,
2002
0000
0000
0000
,
0000
0000
0000
0000
0000
3003
0000
0000
0000
0000
0000
0000
1000
0001
0000
0000
,
0000
0000
0100
0010
0000
0000
1000
0001
0000
0000
0000
0010
0100
0000
2002
0000
,
0000
0000
0000
3003
;

//--------------- dance-single - forcednature ----------------
#NOTES:
     dance-single:
     forcednature:
     Medium:
     10:
     0,0,0,0,0:
0000
0000
0000
0000
,
0000
0000
0000
0000
,
1001
0000
1000
0000
0010
0100
0001
0000
,
0010
0000
0100
0000
1000
0001
0100
0000
,
0110
0000
0010
0000
1000
0001
1000
0000
,
0100
0000
0010
0000
0001
0100
0010
0000
,
1100
0000
0001
0000
0010
0001
0100
0000
,
0110
0000
1000
0000
0010
1000
0001
0000
,
1100
0000
0101
0000
0100
0010
1000
0000
,
0011
0000
0110
0000
1000
0001
1000
0010
,
0100
0000
0001
0000
0000
0100
0000
0000
0010
0000
1000
0000
0000
1001
0000
0000
,
0001
0000
0010
0000
0000
0100
0000
0000
1000
0000
0010
0000
0000
0100
0000
0000
,
0001
0000
1000
0000
0000
0100
0000
0000
0010
0000
0001
0000
0000
0110
0000
0000
,
1000
0000
0001
0000
0000
1000
0000
0000
0010
0000
1000
0000
0000
0001
0000
0000
,
0101
0011
1100
1010
,
1001
0000
1000
0100
0010
0001
0100
0010
,
1000
0000
0001
0010
0100
1000
0010
0100
,
0001
0000
1000
0100
1000
0010
0100
0001
,
0010
0001
0100
0010
,
1000
0000
0001
0010
0001
1000
0100
1000
,
0010
0000
1000
0100
0010
0001
0100
0010
,
1000
0000
0001
0100
0001
1000
0010
1000
,
0001
1000
0010
0100
,
0210
0000
0000
0302
0000
0000
1003
0000
,
2100
0000
0000
3020
0000
0000
0031
0000
,
0201
0000
0000
0320
0000
0000
1030
0000
,
0210
0000
0000
0302
0000
0000
1003
0000
,
1020
0000
0000
0032
0000
0000
0103
0000
,
0021
0000
0000
2030
0000
0000
3100
0000
,
0210
0000
0000
0302
0000
0000
1003
0000
,
0110
0000
0000
0000
1000
0000
0000
0000
0000
0000
0000
0000
0110
0000
0000
0000
0001
0000
0000
0000
0000
0000
0000
2002
0000
0000
0000
0000
0000
0000
0000
0000
,
0000
0000
0000
0000
,
0000
0000
0000
0000
,
0000
0000
0000
0000
0000
0000
0000
0000
0000
0000
0000
0000
0000
0000
0000
0000
0000
0000
0000
0000
0000
0000
0000
3003
0000
0000
0000
0000
0000
0000
0000
0000
,
1000
0000
1000
0000
0001
0000
0000
0000
0100
0000
0000
0010
0000
0000
1000
0000
,
0001
0000
0001
0000
0010
0000
0000
0000
0100
0000
0000
1000
0000
0000
0001
0000
,
0100
0000
0100
0000
0010
0000
0000
0000
1000
0000
0000
0001
0000
0000
1000
0000
,
0100
0000
0100
0000
0010
0000
0000
0000
0001
0000
0000
1000
0000
0000
0001
0000
,
0100
0010
0100
1000
0100
0001
0100
0010
,
0100
1000
0100
0001
0100
0010
0100
0000
,
0010
1000
0010
0100
0010
0001
0010
1000
,
0010
0001
0010
0100
0010
1000
0010
0000
,
1000
0001
0000
1000
0000
0000
0000
0000
0100
0000
0100
0000
0010
0000
0000
0000
,
0001
1000
0000
0001
0000
0000
0000
0000
0100
0000
0100
0000
0010
0000
0000
0000
,
1000
0100
0000
1000
0000
0000
0000
0000
0100
0000
0100
0000
0010
0000
0000
0000
,
0001
0100
0000
0001
0000
0000
0000
0000
1000
0100
0000
0000
0010
0001
0000
0000
,
0100
0010
1000
0001
0100
0010
1000
0001
,
1000
0100
0010
0001
0100
0010
1000
0000
,
0001
0010
0100
1000
0010
0100
0001
1000
,
0100
0010
0001
0100
0010
1000
0001
0000
,
1000
0010
1000
0001
0010
0100
1000
0001
,
0100
0010
1000
0100
0010
0001
0100
0000
,
0001
1000
0010
1000
0001
0010
0100
1000
,
0010
0100
0001
1000
0100
0010
0001
0000
,
2000
3200
0302
0203
,
2300
3020
0032
0023
,
2030
3200
0320
0032
,
0203
0320
2030
3002
,
1003
0100
1000
0100
0010
0001
0010
0001
,
0100
0001
0100
0001
1000
0010
1000
0000
,
0001
0010
0001
0010
0100
1000
0100
0000
,
1100
0110
0011
0110
,
2002
0000
0000
0000
,
0000
0000
0000
0000
3003
0000
0000
0000
0000
0000
0000
0000
1000
0000
0001
1000
,
0000
0000
0010
0000
0100
0000
0001
0000
1000
0100
0000
0010
0001
0000
2000
0000
,
0000
0000
0000
3000
;

//--------------- dance-single - forcednature ----------------
#NOTES:
     dance-single:
     forcednature:
     Hard:
     13:
     0,0,0,0,0:
0000
0000
0000
0000
,
0000
0000
0000
0000
,
1000
0000
0010
0000
1000
0000
0001
0000
0000
0100
0001
0000
0010
0000
0100
1000
,
0100
0000
0010
0000
0001
0000
1000
0000
0000
0010
0100
0000
0001
0000
1000
0100
,
1000
0000
0010
0000
0100
0000
0001
0000
0000
0010
0001
0000
1000
0000
0010
0100
,
0010
0000
1000
0000
0100
0000
0010
0000
0000
0001
1000
0000
0001
0010
0001
0010
,
0100
0000
1000
0000
0010
0000
0001
0000
0000
0010
0100
0000
0001
0000
0010
0100
,
0010
0000
0001
0000
1000
0000
0010
0000
0000
1000
0001
0000
0100
0000
0010
0001
,
0010
0000
1000
0000
0100
0000
0010
0000
0000
0001
1000
0000
0100
0000
0010
0100
,
0010
0000
0001
0000
1000
0000
0000
0000
0010
0000
0100
0000
0001
1000
0001
1000
,
0100
0000
0110
0000
0000
1001
0000
0000
1000
0000
1010
0000
0000
0101
0000
0000
,
0010
0000
0011
0000
0000
1100
0000
0000
0010
0000
0110
0000
1000
0001
0000
0000
,
1000
0000
1100
0000
0000
0001
0000
0000
0010
0000
0110
0000
0000
1000
0000
0000
,
0001
0000
0101
0000
0000
0010
0000
0000
1001
0000
0000
0000
0110
0000
0000
0000
,
1000
0000
0100
0010
0100
0000
1000
0001
1000
0000
0010
0100
0010
0000
1000
0000
,
1001
0000
0000
0000
0001
0000
0000
0010
0100
0000
1000
0000
0010
0000
0100
0001
,
0100
0000
0010
0000
0001
0000
0010
0000
1000
0100
0000
0000
0010
0000
0010
0001
,
0020
2030
3002
0203
,
2300
0000
0000
0000
3010
0100
0001
1000
0010
0000
0000
0000
0100
0000
0001
0010
,
0001
0000
0000
0100
0000
0000
0010
1000
0010
0000
0100
0000
1000
0000
0100
0000
,
0001
0000
0000
0000
1000
0000
0100
0010
0100
0000
1000
0000
0010
0000
0100
0000
,
0002
0203
2300
3002
,
0023
0000
0000
0000
1030
0000
0000
1000
0100
0000
0000
0000
0010
0100
0010
0000
,
1001
0001
0100
1000
0001
0010
1000
0100
,
0010
1000
0001
0100
0010
0001
1000
0100
,
0001
0100
0010
1000
0010
0001
1000
0010
,
0100
0001
0100
1000
0100
0010
1000
0001
,
1000
0100
0001
0100
1000
0010
0100
0001
,
1000
0010
0001
1000
0100
0001
1000
0010
,
1000
0100
0001
0100
0010
1000
0010
0001
,
1000
0000
0001
0000
1000
0000
0001
0000
0000
0000
0000
0000
0100
0000
0010
0000
0100
0000
0010
0000
0000
0000
0000
2002
0000
0000
0000
0000
0000
0000
0000
0000
,
0000
0000
0000
0000
,
0000
0000
0000
0000
,
0000
0000
3003
0000
,
1000
0000
1000
0000
0001
0000
0100
0000
0010
0000
0000
1000
0000
0000
0001
0000
,
0010
0000
0010
0000
0100
0000
1000
0000
0001
0000
0000
0100
0000
0000
1000
0000
,
0100
0000
0100
0000
0010
0000
1000
0000
0100
0000
0000
0010
0000
0000
0001
0000
,
0010
0000
0010
0000
0100
0000
1000
0000
0001
0000
0000
0100
0010
0100
0010
0100
,
0010
0000
1000
0000
0010
0000
0100
0000
0001
0000
0000
0010
0000
0000
1000
0000
,
0010
0000
0100
0000
1000
0000
0001
0000
0100
0000
0000
1000
0000
0000
0100
0000
,
0010
0000
1000
0000
0100
0000
0010
0000
0001
0000
0000
0010
0000
0000
1000
0000
,
0010
0000
0100
0000
1000
0000
0001
0000
0100
0000
0000
0010
0000
0000
1000
0000
,
0100
0010
0000
0100
0000
0010
0100
0000
1000
0000
0001
0000
0100
0010
0100
0000
,
0010
1000
0000
0010
0000
1000
0010
0000
1000
0000
0100
0000
0010
0001
0010
0000
,
0001
0100
0000
0001
0000
0100
0001
0000
1000
0000
0010
0000
1000
0100
1000
0000
,
0010
0100
0000
0010
0000
0000
0000
0000
1000
0001
0000
0000
0100
0010
0100
0010
,
0100
0000
0001
0000
0100
0000
0010
0000
1000
0000
0000
0100
0000
0000
0001
0000
,
0100
0000
0010
0000
1000
0000
0010
0000
0001
0000
0000
1000
0000
0000
0010
0000
,
1000
0000
0001
0000
1000
0000
0100
0000
1000
0000
0000
0010
0000
0000
0100
0000
,
0001
0000
0100
0000
1000
0000
0100
0000
0010
0000
0000
1000
0000
0000
0001
0000
,
0010
0000
1000
0000
0010
0000
0001
0000
0100
0000
0000
0010
0000
0000
1000
0000
,
0001
0000
0100
0000
1000
0000
0100
0000
0010
0000
0000
1000
0000
0000
0100
0000
,
0010
0000
0001
0000
0010
0000
1000
0000
0010
0000
0000
0001
0000
0000
0100
0000
,
0010
0000
1000
0000
0001
0000
1000
0000
0100
0010
0100
0000
1000
0000
0010
0100
,
0020
2030
3200
0302
,
2003
3020
0032
0203
,
2300
3002
0023
2030
,
3200
0000
0000
0000
0302
0000
0000
0000
2003
0000
0000
0000
3010
0001
0010
0001
,
0010
0100
1000
0010
0100
0001
0100
1000
,
0100
0010
1000
0100
0001
0100
0010
1000
,
0010
0001
1000
0010
0100
0001
0100
0010
,
0110
1010
1001
0101
,
0220
0000
0000
0000
,
0000
0000
0000
0000
0330
0000
0000
0000
0000
0000
0000
0000
1000
0010
1000
0010
,
0000
0000
0100
0010
0100
0010
0100
0001
0100
0001
0000
1000
0100
0010
0002
0000
,
0000
0000
0000
0003
;

//--------------- dance-single - forcednature ----------------
#NOTES:
     dance-single:
     forcednature:
     Challenge:
     15:
     0,0,0,0,0:
0000
0000
0000
0000
,
0000
0000
0000
0000
,
1000
0000
0001
0000
0100
0000
0001
0000
1000
0010
1000
0000
0001
0000
0000
0010
,
0100
0000
0001
0000
0100
0000
1000
0000
0010
0100
0010
0000
1000
0000
0100
0001
,
0100
0000
0010
0000
0001
0000
1000
0000
0010
0001
0010
0000
0100
0000
0000
0001
,
1000
0000
0100
0000
0001
0000
0100
0000
1000
0001
1000
0000
0010
0100
0001
0000
,
0010
0000
0001
0000
0100
0000
1000
0000
0100
0010
0100
0000
0001
0000
0000
0010
,
1000
0000
0010
0000
0001
0000
1000
0000
0010
0100
0010
0000
1000
0000
0001
0100
,
0001
0000
0010
0000
0100
0000
1000
0000
0001
0010
0001
0000
1000
0000
0000
0010
,
0100
0000
1000
0000
0100
0000
0001
0000
0101
0000
1010
0000
1000
0001
1000
0001
,
1001
0000
1010
0000
0000
0101
0000
0000
1001
0000
0011
0000
0000
0010
0100
0010
,
0110
0000
1100
0000
0000
1001
0000
0000
0011
0000
0101
0000
1000
0010
0000
0000
,
1100
0000
1010
0000
0000
0101
0000
0000
1001
0000
0101
0000
0000
0001
0010
0001
,
0011
0000
0101
0000
0000
1010
0000
0000
1001
0000
0000
0000
0110
0000
0000
0000
,
1000
0100
0010
0001
0010
0100
1000
0001
1000
0100
0010
0100
1000
0001
0010
0100
,
0010
0000
0001
0000
0100
0000
0010
0000
1000
0100
0001
0000
0100
0000
0010
0100
,
1000
0000
0010
0000
0100
0000
0001
0000
0100
0010
1000
0000
0001
0000
0010
1000
,
0010
0000
0100
0000
1000
0000
0001
0000
1000
0100
1000
0000
0010
0000
0100
1000
,
0100
0000
0001
0000
1000
0100
0010
0001
0100
0010
1000
0000
0001
0000
0010
1000
,
0010
0000
0000
0001
0100
0000
0010
1000
0010
1000
0001
0000
0100
0000
0010
1000
,
0100
0000
0000
0010
0001
0000
0100
0010
0100
0010
1000
0000
0001
0000
1000
0100
,
0010
0000
0001
0000
0100
0000
0010
0000
1000
0100
1000
0000
0001
0000
1000
0010
,
1000
0000
0001
0000
0100
0000
1000
0000
0100
0010
0100
0000
0001
1000
0001
0000
,
1001
0000
1000
0000
0001
0000
1001
0000
1000
0100
0010
0000
0110
0000
0000
0000
,
0011
0000
0001
0000
0010
0000
0011
0000
0001
0100
0010
0000
1010
0000
0000
0000
,
0101
0000
0100
0000
0001
0000
0101
0000
0001
0010
0100
0000
1100
0000
0000
0000
,
1001
0000
1000
0000
0001
0000
1000
0100
0010
0001
0100
0000
0010
1000
0010
0000
,
0110
0000
0100
0000
0010
0000
0110
0000
0001
0100
1000
0000
0110
0000
0000
0000
,
1001
0000
0001
0000
1000
0000
1001
0000
0010
0100
0010
0000
1001
0000
0000
0000
,
1100
0000
0100
0000
1000
0000
1100
0000
0001
0010
0100
0000
1001
0000
0000
0000
,
1000
0000
0010
0000
0100
0000
0001
0000
0000
0000
0000
0000
0001
0000
0010
0000
0100
0000
1000
0000
0000
0000
0000
2002
0000
0000
0000
0000
0000
0000
0000
0000
,
0000
0000
0000
0000
,
0000
0000
0000
0000
,
0000
0000
0000
3003
,
1001
0000
1001
0000
0001
0000
0100
0000
0020
0000
0000
1000
0000
0000
0031
0000
,
0110
0000
0110
0000
0001
0000
1000
0000
0200
0000
0000
0001
0000
0000
1300
0000
,
0110
0000
0110
0000
1000
0000
0001
0000
2000
0000
0000
0100
0000
0000
3001
0000
,
1010
0000
1010
0000
0001
0000
0100
0000
0020
0000
0000
0001
0000
0000
1030
0000
,
0110
0000
0001
0000
0100
0000
0010
0000
2000
0000
0000
0100
0000
0000
3001
0000
,
1000
0000
0010
0000
0001
0000
0010
0000
0200
0000
0000
1000
0000
0000
0301
0000
,
0100
0000
0010
0000
1000
0000
0001
0000
0020
0000
0000
1000
0000
0000
0031
0000
,
0010
0000
0100
0000
1000
0000
0001
0000
2000
0000
0000
0001
0000
0000
3100
1000
,
0100
0000
0000
1000
0000
0000
0000
0000
0000
1100
0000
0000
0000
0000
0000
0001
0000
0000
0010
0000
0000
0000
0000
0000
0001
0000
0000
0000
0000
0000
0100
0000
0000
0000
0000
0000
0010
0000
0000
0000
1000
0000
0010
0000
0000
0000
0000
0000
,
0100
0000
0000
0001
0000
0000
0000
0000
0000
1001
0000
0000
0000
0000
0000
1000
0000
0000
0100
0000
0000
0000
0000
0000
0010
0000
0000
0000
0000
0000
0001
0000
0000
0000
0000
0000
0100
0000
0000
0000
0010
0000
1000
0000
0000
0000
0000
0000
,
0001
0000
0000
0100
0000
0000
0000
0000
0000
0110
0000
0000
0000
0000
0000
0010
0000
0000
1000
0000
0000
0000
0000
0000
0100
0000
0000
0000
0000
0000
0010
0000
0000
0000
0000
0000
0001
0000
0000
0000
1000
0000
0100
0000
0000
0000
0000
0000
,
0010
0001
0000
1001
0000
1000
0100
0000
0010
0001
0000
0000
0010
0100
0010
0100
,
1000
0000
0000
0000
0010
0000
0000
0000
0100
0000
0000
0001
0010
0000
0000
0000
0100
0000
0000
0000
1000
0000
0100
0000
0010
0000
0000
0001
0100
0000
0000
0000
,
0010
0000
0000
0000
1000
0000
0000
0000
0001
0000
0000
0010
0100
0000
0000
0000
1000
0000
0000
0000
0010
0000
0100
0000
0001
0000
0000
0010
0100
0000
0000
0000
,
0010
0000
0000
0000
0001
0000
0000
0000
1000
0000
0000
0001
0100
0000
0000
0000
0010
0000
0000
0000
1000
0000
0100
0000
0010
0000
0000
0001
1000
0000
0000
0000
,
0010
0000
0000
0000
0100
0000
0000
0000
0001
0000
0000
1000
0100
0000
0000
0000
0010
0000
0000
0000
0001
0000
0100
0000
0010
0000
0000
1000
0001
0000
0000
0000
,
1000
0000
0000
0000
0100
0000
0010
0000
0100
0000
0000
1000
0010
0000
0000
0000
0100
0000
0000
0000
0001
0000
0010
0000
0001
0000
0000
1000
0010
0000
0000
0000
,
0100
0000
0000
0000
0001
0000
0010
0000
0100
0000
0000
0001
0100
0000
0000
0000
1000
0000
0000
0000
0010
0000
0100
0000
0001
0000
0000
1000
0010
0000
0000
0000
,
0001
0000
0000
0000
0010
0000
0100
0000
0001
0000
0000
1000
0100
0000
0000
0000
0010
0000
0000
0000
0001
0000
0010
0000
1000
0000
0000
0010
0100
0000
0000
0000
,
1000
0000
0000
0000
0001
0000
0100
0000
0010
0000
0000
1000
0001
0000
0000
0000
0010
0000
0100
0000
0010
0000
0000
0000
0001
0000
0000
0000
0100
0000
0010
0000
,
0200
2300
3020
0032
,
0203
2300
3020
0032
,
0203
2300
3020
0032
,
0203
2300
3020
0032
,
0103
0010
1000
0100
0001
0010
0001
0100
,
1000
0010
0100
0001
1000
0010
0001
0010
,
1000
0100
0001
0100
1000
0100
0010
0001
,
0100
0001
0100
0010
1000
0001
1000
0100
0010
0001
0100
0010
1000
0001
0010
0100
,
2000
0000
0000
0000
,
0000
0000
0000
0000
3000
0000
0000
0000
0000
0000
0000
0000
1000
0010
1000
0010
,
0000
0000
0100
0010
0100
0010
0100
0001
0100
0001
0000
1000
0100
0010
0002
0000
,
0000
0000
0000
0003
;

//--------------- dance-double - forcednature ----------------
#NOTES:
     dance-double:
     forcednature:
     Easy:
     8:
     0,0,0,0,0:
00000000
00000000
00000000
00000000
,
00000000
00000000
00000000
00000000
,
00011000
00000100
00000010
00000001
,
00000100
00001000
00010000
00100000
,
10010000
10000000
01000000
00100000
,
00001000
00010000
00000100
00000010
,
00001001
00000001
00000100
00001000
,
00000100
00000010
00010000
00001000
,
01100000
00010000
10000000
00100000
,
10000000
01000000
00100000
00001000
,
00010000
00000000
00010000
00000000
00000000
00001000
00000000
00000000
00010000
00000000
00010000
00000000
00000000
00001000
00000000
00000000
,
00001000
00000000
00001000
00000000
00000000
00010000
00000000
00000000
00001000
00000000
00001000
00000000
00000000
00010000
00000000
00000000
,
00000100
00000000
00000100
00000000
00000000
00010000
00000000
00000000
00000100
00000000
00000100
00000000
00000000
00010000
00000000
00000000
,
01000000
00000000
01000000
00000000
00000000
00001000
00000000
00000000
01001000
00000000
00000000
00000000
00010100
00000000
00000000
00000000
,
00011000
00011000
00011000
00011000
,
00000100
00001000
00000100
00000000
00000010
00000000
00000001
00000000
,
00000100
00000010
00000100
00000000
00001000
00000000
00010000
00000000
,
01000000
00100000
01000000
00000000
10000000
00000000
00010000
00000000
,
10000000
00100000
10000000
00000000
00010000
00000000
00100000
00000000
,
00001000
00010000
00001000
00000000
00000010
00000000
00000100
00000000
,
00001000
00000010
00001000
00000000
00000001
00000000
00000100
00000000
,
00000001
00000010
00000001
00000000
00000100
00000000
00000010
00000000
,
00001000
00000100
00001000
00000000
00000010
00000000
00010000
00000000
,
00001000
00000000
00000000
00010000
00000000
00000000
00100000
00000000
,
10000000
00000000
00000000
01000000
00000000
00000000
00100000
00000000
,
00001000
00000000
00000000
00010000
00000000
00000000
00000010
00000000
,
00000100
00000000
00000000
00000001
00000000
00000000
00001000
00000000
,
00000110
00000000
00000000
00001001
00000000
00000000
00000110
00000000
,
00001010
00000000
00000000
00000101
00000000
00000000
00001010
00000000
,
00011000
00000000
00000000
00110000
00000000
00000000
11000000
00000000
,
01100000
00000000
00000000
00000000
00000000
00000000
00000000
00000000
00000000
00000000
00000000
00000000
00110000
00000000
00000000
00000000
00000000
00000000
00000000
00000000
00000000
00000000
00000000
00022000
00000000
00000000
00000000
00000000
00000000
00000000
00000000
00000000
,
00000000
00000000
00000000
00000000
,
00000000
00000000
00000000
00000000
,
00000000
00000000
00033000
00000000
,
00001000
00001000
00010000
00000000
00000000
00000000
00000000
00000000
,
00001000
00001000
00010000
00000000
00000000
00000000
00000000
00000000
,
00001000
00001000
00010000
00000000
00000000
00000000
00000000
00000000
,
00001000
00001000
00010000
00000000
00000000
00000000
00000000
00000000
,
00000100
00001000
00000100
00000000
00010000
00000000
00001000
00000000
,
01000000
00010000
01000000
00000000
00001000
00000000
00010000
00000000
,
00000010
00001000
00000010
00000000
00010000
00000000
00001000
00000000
,
00100000
00010000
00100000
00000000
00001000
00000000
00010000
00000000
,
00000100
00000000
00000000
00010000
00000000
00000000
00000000
00000000
00002000
00000000
00000000
00000000
00203000
00000000
00000000
00000000
,
01300000
00000000
00000000
10000000
00000000
00000000
00000000
00000000
00200000
00000000
00000000
00000000
02300000
00000000
00000000
00000000
,
03001000
00000000
00000000
00010000
00000000
00000000
00000000
00000000
00000200
00000000
00000000
00000000
00000320
00000000
00000000
00000000
,
00000031
00000000
00000000
00000100
00000000
00000000
00000000
00000000
00000002
00000000
00000000
00000000
00000023
00000000
00000000
00000000
,
00000130
00001000
00000100
00000000
00010000
00000000
00001000
00000000
,
00100000
00010000
00100000
00000000
01000000
00000000
10000000
00000000
,
00010000
01000000
00010000
00000000
00100000
00000000
00001000
00000000
,
00010000
00000100
00010000
00000000
00000001
00000000
00000010
00000000
,
00000100
00001000
00000100
00000000
00010000
00000000
00001000
00000000
,
00100000
00010000
00100000
00000000
00001000
00000000
00010000
00000000
,
00000010
00001000
00000010
00000000
00000100
00000000
00000001
00000000
,
00001000
00000100
00001000
00000000
00010000
00000000
01000000
00000000
,
00200000
20300000
32000000
03200000
,
00302000
00023000
00030020
00000230
,
00002300
00023000
00030200
00000302
,
00002003
00003020
00000230
00020300
,
00032000
02003000
03020000
20030000
,
30200000
00320000
00032000
00023000
,
02030000
03020000
00032000
00003200
,
00000302
00002003
00003200
00020300
,
00032000
00000000
00000000
00000000
,
00000000
00000000
00000000
00000000
00003000
00000000
00000000
00000000
00000000
00000000
00000000
00000000
00010000
00001000
00000000
00000000
,
00000000
00000000
00100000
00010000
00000000
00000000
10000000
00100000
00000000
00000000
00000000
01000000
00001000
00000000
00022000
00000000
,
00000000
00000000
00000000
00033000
;

//--------------- dance-double - forcednature ----------------
#NOTES:
     dance-double:
     forcednature:
     Medium:
     10:
     0,0,0,0,0:
00000000
00000000
00000000
00000000
,
00000000
00000000
00000000
00000000
,
00011000
00000000
00001000
00000000
01000000
00010000
00100000
00000000
,
01000000
10000000
00010000
00000000
00100000
00001000
00010000
00000000
,
00011000
00000000
00001100
00000000
00000001
00000100
00000010
00000000
,
00001000
00000100
00000010
00000000
00000100
00010000
00001000
00000000
,
00110000
00000000
10010000
00000000
10000000
00100000
00010000
00000000
,
00100000
01000000
00001000
00000000
00010000
00000100
00000010
00000000
,
00000110
00000000
00001001
00000000
00000001
00000100
00000010
00000000
,
00001000
00000100
00000010
00000000
00000001
00001000
00000001
00001000
,
00000010
00000000
00001000
00000000
00000000
00000001
00000000
00000000
00000010
00000000
00000001
00000000
00000000
00001000
00000000
00000000
,
00000100
00000000
00010000
00000000
00000000
00001000
00000000
00000000
00010000
00000000
00000100
00000000
00000000
00001000
00000000
00000000
,
00000010
00000000
00010000
00000000
00000000
00001000
00000000
00000000
00100000
00000000
00001000
00000000
00000000
00010000
00000000
00000000
,
01000000
00000000
10000000
00000000
00000000
00010000
00000000
00000000
01000000
00000000
00010000
00000000
00000000
10000000
00000000
00000000
,
10010000
10100000
10010000
01010000
,
01100000
00000000
10000000
01000000
00100000
01000000
10000000
00000000
,
00010000
00100000
00001000
00000000
00010000
00001000
00100000
00000000
,
00011000
00000000
00000100
00001000
00000020
00000000
00000230
00000000
,
00000301
00000010
00000100
00001000
00000001
00000100
00000010
00000000
,
00001001
00000000
00001000
00000100
00010000
00001000
00100000
00000000
,
00011000
00000000
00001000
01000000
00010000
10000000
00100000
00000000
,
01100000
00000000
00100000
10000000
01000000
00100000
00010000
00000000
,
01000000
00001000
00010000
00000000
00000100
00010000
00001000
00000000
,
00011000
00000000
00200000
00010000
00000000
01300000
00100000
00000000
,
10010000
00000000
00002000
00010000
00000000
00103000
00001000
00000000
,
00010100
00000000
00002000
00000010
00000000
00003001
00001000
00000000
,
00000101
00000000
00020000
00001000
00000000
00030100
00010000
00000000
,
01100000
00000000
00020000
00100000
00000000
01030000
00010000
00000000
,
00001100
00000000
00020000
00000010
00000000
00030100
00010000
00000000
,
00011000
00000000
02000000
00010000
00000000
13000000
01000000
00000000
,
00001000
00000000
00000000
00000000
00010000
00000000
00000000
00000000
00000000
00000000
00000000
00000000
00001000
00000000
00000000
00000000
00010000
00000000
00000000
00000000
00000000
00000000
00000000
00022000
00000000
00000000
00000000
00000000
00000000
00000000
00000000
00000000
,
00000000
00000000
00000000
00000000
,
00000000
00000000
00000000
00000000
,
00000000
00000000
00000000
00033000
,
00001000
00000000
00010000
00000000
00001000
00000000
00000000
00000000
00100000
00000000
00000000
00010000
00000000
00000000
00100000
00000000
,
01000000
00000000
01000000
00000000
10000000
00000000
00000000
00000000
00100000
00000000
00000000
01000000
00000000
00000000
00100000
00000000
,
10000000
00000000
10000000
00000000
00010000
00000000
00000000
00000000
01000000
00000000
00000000
00001000
00000000
00000000
00010000
00000000
,
00000100
00000000
00000100
00000000
00001000
00000000
00000000
00000000
00000010
00000000
00000000
00000100
00000000
00000000
00000001
00000000
,
00000010
00000000
00000000
00000000
00000001
00000000
00000100
00000000
00000010
00000000
00000000
00001000
00000000
00000000
00000100
00000000
,
00010000
00000000
00000000
00000000
00001000
00000000
00100000
00000000
00010000
00000000
00000000
10000000
00000000
00000000
00100000
00000000
,
01000000
00000000
00000000
00000000
00010000
00000000
00100000
00000000
01000000
00000000
00000000
10000000
00000000
00000000
00010000
00000000
,
01000000
00000000
00000000
00000000
00001000
00000000
00010000
00000000
00000100
00000000
00000000
00001000
00000000
00000000
00000010
00000000
,
00000110
00000000
00000000
00000110
00000000
00000000
00000000
00000000
00000001
00000000
00001000
00000000
00000001
00000000
00000000
00000000
,
00001100
00000000
00000000
00001100
00000000
00000000
00000000
00000000
00010000
00000000
00001000
00000000
00100000
00000000
00000000
00000000
,
00110000
00000000
00000000
00110000
00000000
00000000
00000000
00000000
00010000
00000000
01000000
00000000
00100000
00000000
00000000
00000000
,
10010000
00000000
00000000
10010000
00000000
00000000
00000000
00000000
01100000
00000000
00000000
00000000
00011000
00000000
00000000
00000000
,
01000000
00000000
00000000
00000000
00010000
00000000
00100000
00000000
01000000
00000000
00000000
10000000
00000000
00000000
00010000
00000000
,
01000000
00000000
00000000
00000000
00001000
00000000
00010000
00000000
00000100
00000000
00000000
00001000
00000000
00000000
00000001
00000000
,
00000100
00000000
00000000
00000000
00000010
00000000
00001000
00000000
00000100
00000000
00000000
00000010
00000000
00000000
00000001
00000000
,
00000100
00000000
00000000
00000000
00000010
00000000
00001000
00000000
00000100
00000000
00000000
00010000
00000000
00000000
00001000
00000000
,
00100000
00000000
00000000
00000000
00010000
00000000
10000000
00000000
00100000
00000000
00000000
01000000
00000000
00000000
00010000
00000000
,
00100000
00000000
00000000
00000000
01000000
00000000
10000000
00000000
00010000
00000000
00000000
01000000
00000000
00000000
00010000
00000000
,
10000000
00000000
00000000
00000000
00100000
00000000
00010000
00000000
00001000
00000000
00000000
00000100
00000000
00000000
00001000
00000000
,
00010000
00000000
00000000
00000000
00000100
00000000
00001000
00000000
00000001
00000000
00000000
00000100
00000000
00000000
00000001
00000000
,
00000020
00002030
00023000
00230000
,
20300000
32000000
03020000
00032000
,
00003200
00000320
00002030
00003002
,
00000203
00000000
00002300
00000000
00023000
00000000
02030000
03000000
,
10010000
00000000
00010000
01000000
00001000
00000000
00010000
00000100
,
00001000
00000000
00000010
00001000
00000001
00000000
00000100
00000010
,
00001000
00000000
00000100
00010000
00001000
00000000
00100000
00010000
,
01010000
10100000
10010000
01100000
,
00022000
00000000
00000000
00000000
,
00000000
00000000
00000000
00000000
00033000
00000000
00000000
00000000
00000000
00000000
00000000
00000000
01000000
00000000
00001000
00010000
,
00000000
00000000
00000100
00000000
00010000
00000000
00001000
00000000
00100000
00010000
00000000
10000000
00010000
10000000
00020000
00000000
,
00000000
00000000
00000000
00030000
;

//--------------- dance-double - forcednature ----------------
#NOTES:
     dance-double:
     forcednature:
     Hard:
     13:
     0,0,0,0,0:
00000000
00000000
00000000
00000000
,
00000000
00000000
00000000
00000000
,
00010000
00000000
00001000
00000000
00000100
00000000
00001000
00000000
00010000
00000000
01000000
00000000
10000000
00000000
00000000
00010000
,
01000000
00000000
00100000
00000000
10000000
00000000
01000000
00000000
00100000
00000000
00001000
00000000
00010000
00000000
00000100
00000010
,
00000100
00000000
00001000
00000000
00000001
00000000
00000100
00000000
00000010
00000000
00001000
00000000
00000100
00000000
00000000
00010000
,
00001000
00000000
00010000
00000000
00100000
00000000
10000000
00000000
01000000
00000000
00100000
00000000
00010000
10000000
00010000
10000000
,
00010000
00000000
00100000
00000000
00001000
00000000
00010000
00000000
00001000
00000000
00000100
00000000
00000001
00000000
00000000
00001000
,
00000100
00000000
00000010
00000000
00000100
00000000
00001000
00000000
00000001
00000100
00000001
00000000
00000010
00000000
00000100
00001000
,
00000100
00000000
00010000
00000000
00001000
00000000
00100000
00000000
00010000
10000000
00010000
00000000
01000000
00000000
00000000
00100000
,
00010000
00000000
00001000
00000000
00000100
00000000
00000000
00000000
00000001
00000000
00001000
00000000
00000100
00000010
00000100
00000010
,
00000100
00000000
00001100
00000000
00000000
00000001
00000000
00000000
00000101
00000000
00001001
00000000
00000000
00001000
00000000
00000000
,
00011000
00000000
00101000
00000000
00000000
01000000
00000000
00000000
01100000
00000000
10100000
00000000
10000000
01000000
00000000
00000000
,
01100000
00000000
00110000
00000000
00000000
00001000
00000000
00000000
00010100
00000000
00011000
00000000
00000000
00000010
00000000
00000000
,
00000101
00000000
00001100
00000000
00000000
00000010
00000000
00000000
00001100
00000000
00001010
00000000
00001000
00000000
00000000
00000000
,
00000001
00000100
00001000
00010000
01000000
10000000
00010000
00000000
,
10000000
01000000
00100000
00010000
01000000
00001000
00000100
00000010
,
00001000
00000100
00000001
00000100
00001000
00000001
00000100
00000010
,
00001000
00000100
00010000
00001000
00010000
00100000
10000000
00010000
,
10000000
00100000
00010000
00001000
00010000
00000010
00010000
00000100
,
00010000
01000000
10000000
00010000
01000000
00100000
10000000
01000000
,
00010000
00001000
00000100
00000001
00001000
00000001
00000100
00000010
,
00001000
00000001
00000010
00001000
00010000
00000010
00000100
00001000
,
00010000
01000000
00100000
00010000
10000000
00100000
00010000
00001000
,
00020000
00000000
00000000
00030200
00000000
00000000
00000302
00000000
,
00002003
00000000
00000000
00003020
00000000
00000000
00020030
00000000
,
02030000
00000000
00000000
03200000
00000000
00000000
20300000
00000000
,
32000000
00000000
00000000
03002000
00000000
00000000
00003020
00000000
,
00000230
00000000
00000000
00000302
00000000
00000000
00002003
00000000
,
00003200
00000000
00000000
00020300
00000000
00000000
02030000
00000000
,
23000000
00000000
00000000
30020000
00000000
00000000
00030200
00000300
,
00000220
00000000
00000000
00000000
00000000
00000000
00000000
00000330
00000000
00000000
00000000
00000000
00002002
00000000
00000000
00000000
00000000
00000000
00000000
00003003
00000000
00000000
00000000
00000200
00000000
00000000
00000000
00000000
00000000
00000000
00000000
00000000
,
00000000
00000000
00000000
00000000
,
00000000
00000000
00000000
00000000
,
00000000
00000000
00000000
00000300
,
00000001
00000000
00000010
00000000
00000001
00000000
00000100
00000000
00001000
00000000
00000000
00000100
00000000
00000000
00000010
00000000
,
00001000
00000000
00000100
00000000
00010000
00000000
00001000
00000000
01000000
00000000
00000000
00010000
00000000
00000000
10000000
00000000
,
00100000
00000000
00010000
00000000
00001000
00000000
00010000
00000000
01000000
00000000
00000000
10000000
00000000
00000000
00010000
00000000
,
01000000
00000000
00100000
00000000
10000000
00000000
01000000
00000000
00010000
00000000
00000000
00000100
00000000
00000000
00000010
00000000
,
00000001
00000000
00000100
00000000
00000001
00000000
00000010
00000000
00000001
00000000
00000000
00000100
00000000
00000000
00001000
00000000
,
00000100
00000000
00000010
00000000
00001000
00000000
00000100
00000000
00010000
00000000
00000000
01000000
00000000
00000000
10000000
00000000
,
00010000
00000000
01000000
00000000
00100000
00000000
10000000
00000000
00100000
00000000
00000000
00010000
00000000
00000000
00001000
00000000
,
00000010
00000000
00000001
00000000
00000100
00000000
00001000
00000000
00000100
00000000
00000000
00000010
00000000
00000000
00001000
00000000
,
00000001
00000100
00000000
00000001
00000000
00000100
00000010
00000000
00001000
00000000
00000010
00000000
00010000
00001000
00010000
00000000
,
00100000
10000000
00000000
00010000
00000000
01000000
00100000
00000000
10000000
00000000
01000000
00000000
00100000
00010000
00100000
00000000
,
00001000
00010000
00000000
00000100
00000000
00001000
00000001
00000000
00000100
00000000
00000010
00000000
00010000
00001000
00010000
00000000
,
00100000
01000000
00000000
00100000
00000000
10000000
00010000
00000000
10000000
01000000
00000000
00000000
00100000
00010000
00100000
00010000
,
00100000
00000000
00001000
00000000
00010000
00000000
00000100
00000000
00001000
00000000
00000000
00000001
00000000
00000000
00000100
00000000
,
00001000
00000000
00010000
00000000
01000000
00000000
10000000
00000000
00010000
00000000
00000000
01000000
00000000
00000000
00100000
00000000
,
10000000
00000000
01000000
00000000
00010000
00000000
00001000
00000000
01000000
00000000
00000000
00001000
00000000
00000000
00000010
00000000
,
00000100
00000000
00001000
00000000
00000001
00000000
00000100
00000000
00001000
00000000
00000000
00010000
00000000
00000000
00000100
00000000
,
00010000
00000000
00100000
00000000
10000000
00000000
00010000
00000000
10000000
00000000
00000000
01000000
00000000
00000000
00100000
00000000
,
00001000
00000000
00010000
00000000
00000010
00000000
00001000
00000000
00000001
00000000
00000000
00000100
00000000
00000000
00001000
00000000
,
00000100
00000000
00000010
00000000
00001000
00000000
00000100
00000000
00010000
00000000
00000000
00001000
00000000
00000000
00100000
00000000
,
00010000
00000000
01000000
00000000
00100000
00000000
10000000
00000000
01000000
00100000
01000000
00000000
10000000
00000000
00010000
01000000
,
00020000
00230000
00302000
00003200
,
00020300
00230000
00302000
00003200
,
00020300
02030000
03002000
00003020
,
00020030
02030000
03002000
00003020
,
00000031
00000100
00001000
00010000
01000000
10000000
10000000
10000000
,
10000000
01000000
00010000
00001000
00000100
00000001
00000001
00000001
,
00000001
00000010
00001000
00010000
00100000
10000000
10000000
10000000
,
11000000
00110000
00001010
00000101
,
00002002
00000000
00000000
00000000
,
00000000
00000000
00000000
00000000
00003003
00000000
00000000
00000000
00000000
00000000
00000000
00000000
00000001
00000100
00000001
00000100
,
00000000
00000000
00000010
00010000
00000010
00010000
00001000
00100000
00001000
00100000
00000000
00010000
01000000
00100000
20000000
00000000
,
00000000
00000000
00000000
30000000
;

//--------------- dance-double - forcednature ----------------
#NOTES:
     dance-double:
     forcednature:
     Challenge:
     15:
     0,0,0,0,0:
00000000
00000000
00000000
00000000
,
00000000
00000000
00000000
00000000
,
00010000
00000000
00001000
00000000
01000000
00000000
00100000
00000000
10000000
01000000
10000000
00000000
00010000
00000000
00000000
00100000
,
00001000
00000000
00010000
00000000
00000010
00000000
00000100
00000000
00000001
00001000
00000001
00000000
00000010
00000000
00000100
00001000
,
00000100
00000000
00010000
00000000
00001000
00000000
00100000
00000000
01000000
10000000
01000000
00000000
10000000
00000000
00000000
00100000
,
01000000
00000000
00001000
00000000
00010000
00000000
00000100
00000000
00000010
00000001
00000010
00000000
00000100
00001000
00000010
00000000
,
00000100
00000000
00001000
00000000
00010000
00000000
01000000
00000000
10000000
00010000
10000000
00000000
00100000
00000000
00000000
01000000
,
00010000
00000000
00100000
00000000
00001000
00000000
00010000
00000000
00000100
00001000
00000100
00000000
00000010
00000000
00000001
00000100
,
00000001
00000000
00000010
00000000
00001000
00000000
00010000
00000000
00100000
10000000
00100000
00000000
01000000
00000000
00000000
00010000
,
00100000
00000000
00001000
00000000
00010000
00000000
00000100
00000000
00010100
00000000
00011000
00000000
00100000
00010000
00100000
00010000
,
10010000
00000000
10100000
00000000
00000000
01010000
00000000
00000000
00011000
00000000
00001100
00000000
00000000
00000100
00000010
00000100
,
00000110
00000000
00000011
00000000
00000000
00001001
00000000
00000000
00001100
00000000
00011000
00000000
00100000
00010000
00000000
00000000
,
11000000
00000000
10100000
00000000
00000000
01010000
00000000
00000000
00011000
00000000
00001010
00000000
00000000
00000001
00000100
00000001
,
00000101
00000000
00000110
00000000
00000000
00001010
00000000
00000000
00001001
00000000
00000000
00000000
00011000
00000000
00000000
00000000
,
10000000
01000000
00100000
00010000
00100000
01000000
10000000
00100000
01000000
00001000
00010000
00000100
00000010
00000001
00001000
00000100
,
00000010
00000000
00001000
00000000
00010000
00000000
00100000
00000000
10000000
01000000
00010000
00000000
00001000
00000000
00100000
00001000
,
00010000
00000000
00000010
00000000
00000100
00000000
00001000
00000000
00000100
00000001
00000010
00000000
00000100
00000000
00010000
00001000
,
00010000
00000000
00100000
00000000
10000000
00000000
00010000
00000000
10000000
01000000
10000000
00000000
00010000
00000000
00100000
00001000
,
00100000
00000000
00010000
00000000
00001000
00000100
00000010
00000001
00000100
00000010
00001000
00000000
00000001
00000000
00000100
00001000
,
00000100
00000000
00000000
00010000
01000000
00000000
00100000
10000000
00010000
00100000
01000000
00000000
10000000
00000000
00010000
00100000
,
00001000
00000000
00000000
00000100
00000010
00000000
00001000
00000010
00000100
00000001
00001000
00000000
00000100
00000000
00010000
00001000
,
00100000
00000000
00010000
00000000
01000000
00000000
10000000
00000000
01000000
00100000
01000000
00000000
00001000
00000000
00010000
00000100
,
00010000
00000000
00000010
00000000
00000001
00000000
00000010
00000000
00000100
00001000
00000100
00000000
00000010
00010000
00000010
00000000
,
00011000
00000000
00001000
00000000
00100000
00000000
00110000
00000000
10000000
01000000
00100000
00000000
10010000
00000000
00000000
00000000
,
01010000
00000000
01000000
00000000
00001000
00000000
00011000
00000000
00010000
00000100
00000010
00000000
00001001
00000000
00000000
00000000
,
00000011
00000000
00000010
00000000
00000100
00000000
00010100
00000000
00010000
00001000
00100000
00000000
10010000
00000000
00000000
00000000
,
11000000
00000000
10000000
00000000
00010000
00000000
00100000
00001000
00010000
00000100
00010000
00000000
00001000
01000000
00001000
00000000
,
10010000
00000000
10000000
00000000
00100000
00000000
01100000
00000000
00001000
00010000
00000100
00000000
00001001
00000000
00000000
00000000
,
00000011
00000000
00000010
00000000
00000100
00000000
00010100
00000000
00010000
00001000
00100000
00000000
01010000
00000000
00000000
00000000
,
10100000
00000000
00100000
00000000
01000000
00000000
01001000
00000000
00001000
00010000
00000100
00000000
00001001
00000000
00000000
00000000
,
00000001
00000000
00000010
00000000
00000100
00000000
00001000
00000000
00000000
00000000
00000000
00000000
00010000
00000000
01000000
00000000
00100000
00000000
10000000
00000000
00000000
00000000
00000000
00022000
00000000
00000000
00000000
00000000
00000000
00000000
00000000
00000000
,
00000000
00000000
00000000
00000000
,
00000000
00000000
00000000
00000000
,
00000000
00000000
00000000
00033000
,
10010000
00000000
10010000
00000000
00010000
00000000
00100000
00000000
00002000
00000000
00000000
00010000
00000000
00000000
00003100
00000000
,
00000110
00000000
00000110
00000000
00001000
00000000
00000001
00000000
00000200
00000000
00000000
00001000
00000000
00000000
00010300
00000000
,
01100000
00000000
01100000
00000000
10000000
00000000
00010000
00000000
00200000
00000000
00000000
01000000
00000000
00000000
00301000
00000000
,
00010100
00000000
00010100
00000000
00000001
00000000
00000100
00000000
00000020
00000000
00000000
00001000
00000000
00000000
00010030
00000000
,
00001001
00000000
00001000
00000000
00000100
00000000
00010000
00000000
00002000
00000000
00000000
00100000
00000000
00000000
01003000
00000000
,
10000000
00000000
00100000
00000000
00010000
00000000
00001000
00000000
00000020
00000000
00000000
00000001
00000000
00000000
00001030
00000000
,
00000010
00000000
00000100
00000000
00010000
00000000
00001000
00000000
02000000
00000000
00000000
10000000
00000000
00000000
03010000
00000000
,
01000000
00000000
00001000
00000000
00010000
00000000
00000100
00000000
00020000
00000000
00000000
00001000
00000000
00000000
00030100
00010000
,
00000100
00000000
00000000
00010000
00000000
00000000
00000000
00000000
00000000
00011000
00000000
00000000
00000000
00000000
00000000
00001000
00000000
00000000
00100000
00000000
00000000
00000000
00000000
00000000
00010000
00000000
00000000
00000000
00000000
00000000
01000000
00000000
00000000
00000000
00000000
00000000
00100000
00000000
00000000
00000000
10000000
00000000
00100000
00000000
00000000
00000000
00000000
00000000
,
01000000
00000000
00000000
00010000
00000000
00000000
00000000
00000000
00000000
00110000
00000000
00000000
00000000
00000000
00000000
00100000
00000000
00000000
00001000
00000000
00000000
00000000
00000000
00000000
00010000
00000000
00000000
00000000
00000000
00000000
00000010
00000000
00000000
00000000
00000000
00000000
00000100
00000000
00000000
00000000
00000001
00000000
00001000
00000000
00000000
00000000
00000000
00000000
,
00000100
00000000
00000000
00010000
00000000
00000000
00000000
00000000
00000000
00011000
00000000
00000000
00000000
00000000
00000000
00001000
00000000
00000000
01000000
00000000
00000000
00000000
00000000
00000000
00100000
00000000
00000000
00000000
00000000
00000000
10000000
00000000
00000000
00000000
00000000
00000000
01000000
00000000
00000000
00000000
00100000
00000000
00010000
00000000
00000000
00000000
00000000
00000000
,
00001000
00000001
00000000
00001001
00000000
00001000
00000100
00000000
00000010
00000001
00000000
00000000
00000100
00001000
00000100
00001000
,
00010000
00000000
00000000
00000000
01000000
00000000
00000000
00000000
10000000
00000000
00000000
00010000
00100000
00000000
00000000
00000000
01000000
00000000
00000000
00000000
00100000
00000000
00001000
00000000
00010000
00000000
00000000
00000100
00001000
00000000
00000000
00000000
,
00000010
00000000
00000000
00000000
00000100
00000000
00000000
00000000
00000001
00000000
00000000
00001000
00000100
00000000
00000000
00000000
00010000
00000000
00000000
00000000
00001000
00000000
00100000
00000000
01000000
00000000
00000000
10000000
00010000
00000000
00000000
00000000
,
01000000
00000000
00000000
00000000
00001000
00000000
00000000
00000000
00010000
00000000
00000000
00000100
00001000
00000000
00000000
00000000
00000010
00000000
00000000
00000000
00000100
00000000
00000001
00000000
00000010
00000000
00000000
00000100
00010000
00000000
00000000
00000000
,
00001000
00000000
00000000
00000000
00100000
00000000
00000000
00000000
01000000
00000000
00000000
10000000
00010000
00000000
00000000
00000000
01000000
00000000
00000000
00000000
00001000
00000000
00010000
00000000
00000010
00000000
00000000
00001000
00000100
00000000
00000000
00000000
,
00000010
00000000
00000000
00000000
00000001
00000000
00000100
00000000
00000010
00000000
00000000
00001000
00000001
00000000
00000000
00000000
00000010
00000000
00000000
00000000
00000100
00000000
00010000
00000000
00001000
00000000
00000000
00100000
00010000
00000000
00000000
00000000
,
01000000
00000000
00000000
00000000
00100000
00000000
10000000
00000000
01000000
00000000
00000000
00100000
00010000
00000000
00000000
00000000
01000000
00000000
00000000
00000000
00001000
00000000
00010000
00000000
00100000
00000000
00000000
01000000
00001000
00000000
00000000
00000000
,
00010000
00000000
00000000
00000000
00000100
00000000
00001000
00000000
00000010
00000000
00000000
00001000
00010000
00000000
00000000
00000000
01000000
00000000
00000000
00000000
00100000
00000000
10000000
00000000
01000000
00000000
00000000
00010000
00001000
00000000
00000000
00000000
,
00000100
00000000
00000000
00000000
00000010
00000000
00001000
00000000
00000001
00000000
00000000
00000010
00000100
00000000
00000000
00000000
00010000
00000000
00001000
00000000
00010000
00000000
00000000
00000000
00100000
00000000
00000000
00000000
10000000
00000000
00010000
00000000
,
10000000
00010000
00001000
00000001
,
00000100
00000010
01000000
00100000
,
10000000
00010000
00001000
00000001
,
00000010
00000100
00100000
01000000
,
10000000
01000000
00001000
00000100
00000010
00000001
00000100
00001000
,
00010000
01000000
00100000
00010000
00001000
00000010
00000100
00000001
,
00000100
00010000
01000000
00100000
10000000
00010000
00100000
00001000
,
00010000
00000100
00010000
00001000
00100000
00001000
00100000
00010000
01000000
00100000
10000000
01000000
00100000
00010000
01000000
00001000
,
00020000
00000000
00000000
00000000
,
00000000
00000000
00000000
00000000
00030000
00000000
00000000
00000000
00000000
00000000
00000000
00000000
00000001
00000100
00000001
00000100
,
00000000
00000000
00001000
00010000
00001000
00010000
01000000
10000000
01000000
10000000
00000000
00100000
00010000
00001000
00000200
00000000
,
00000000
00000000
00000000
00000300
;
