#TITLE:Concrete;
#SUBTITLE:;
#ARTIST:Poppy;
#TITLETRANSLIT:;
#SUBTITLETRANSLIT:;
#ARTISTTRANSLIT:;
#GENRE:;
#CREDIT:;
#BANNER:;
#BACKGROUND:;
#LYRICSPATH:;
#CDTITLE:;
#MUSIC:Concrete.ogg;
#OFFSET:-4.354836;
#SAMPLESTART:26.128139;
#SAMPLELENGTH:12.000000;
#SELECTABLE:YES;
#BPMS:0.000000=88.000000
,16.000000=352.000000
,80.000000=176.000000
,128.000000=88.000000
,144.000000=78.000000
,151.000000=67.000000
,152.000000=115.000000
,200.000000=352.000000
,232.000000=176.000000
,276.000000=174.000000
,278.000000=165.000000
,282.000000=143.000000
,286.000000=115.000000
,288.000000=98.000000
;
#STOPS:
;
#BGCHANGES:;
#KEYSOUNDS:;
#ATTACKS:;

//---------------dance-single - ----------------
#NOTES:
     dance-single:
     :
     Beginner:
     4:
     0.113465,0.200900,0.026698,0.000000,0.000000,119.000000,115.000000,4.000000,0.000000,0.000000,0.000000,0.113465,0.200900,0.026698,0.000000,0.000000,119.000000,115.000000,4.000000,0.000000,0.000000,0.000000:
0000
0000
0000
0000
,
0000
0000
0000
0000
,
1000
0000
0001
0000
,
0100
0000
0010
0000
,
1000
0000
0000
0000
,
0000
0000
0000
0000
,
0100
0000
0000
0000
,
0000
0000
0000
0000
,
0010
0000
0000
0000
,
0000
0000
0000
0000
,
0001
0000
0000
0000
,
0001
0000
0000
0000
,
0100
0000
0000
0000
,
0000
0000
0000
0000
,
0010
0000
0000
0000
,
0000
0000
0000
0000
,
1000
0000
0000
0000
,
0000
0000
0000
0000
,
0001
0000
0000
0000
,
0001
0000
0000
0000
,
1000
0000
1000
0000
,
0010
0000
0000
0000
,
0100
0000
0100
0000
,
0001
0000
0000
0000
,
0010
0000
0010
0000
,
0100
0000
0100
0000
,
1000
0000
0000
0000
,
0001
0000
0000
0000
,
0100
0000
0000
0000
,
0010
0000
0000
0000
,
1000
0000
0001
0000
,
1001
0000
0000
0000
,
1000
0000
1000
0000
,
0001
0000
0000
0000
,
0100
0000
0100
0000
,
0010
0000
0000
0000
,
1000
0000
0001
0000
,
0100
0000
0010
0000
,
1001
0000
0000
0000
,
0000
0000
0000
0000
,
1000
0000
1000
0000
,
0001
0000
0000
0000
,
0001
0000
0001
0000
,
0100
0000
0000
0000
,
0010
0000
0010
0000
,
1000
0000
1000
0000
,
0100
0000
1000
0000
,
0001
0000
0000
0000
,
0010
0000
0001
0000
,
0001
0000
1000
0000
,
1000
0000
0000
0000
,
0000
0000
0000
0000
,
0100
0000
0000
0000
,
0000
0000
0000
0000
,
0010
0000
0000
0000
,
0000
0000
0000
0000
,
0001
0000
0000
0000
,
0000
0000
0000
0000
,
1000
0000
1000
0000
,
0010
0000
0000
0000
,
0100
0000
0100
0000
,
0001
0000
0000
0000
,
0010
0000
0010
0000
,
0100
0000
0100
0000
,
1000
0000
0000
0000
,
0001
0000
0000
0000
,
0100
0000
0000
0000
,
0010
0000
0010
0000
,
1000
0000
1000
0000
,
0001
0000
0001
0000
,
0010
0000
0100
0000
,
1000
0000
0001
0000
,
0100
0000
0000
0000
,
0000
0000
0000
1001
,
0001
0000
0001
0000
,
0100
0000
0100
0000
,
0010
0000
0010
0000
,
1000
0000
1000
0000
,
0100
0000
0100
0000
,
0010
0000
0010
0000
,
0001
0000
0001
0000
,
1000
0000
1000
0000
,
0010
0000
0100
0000
,
0001
0001
0001
0000
,
0010
0000
0100
0000
,
1000
1000
1000
0000
,
1001
0000
0000
0000
;

//---------------dance-single - ----------------
#NOTES:
     dance-single:
     :
     Easy:
     7:
     0.211674,0.319370,0.080093,0.080093,0.000000,222.000000,210.000000,12.000000,12.000000,0.000000,0.000000,0.211674,0.319370,0.080093,0.080093,0.000000,222.000000,210.000000,12.000000,12.000000,0.000000,0.000000:
0000
0000
0000
0000
,
0000
0000
0000
0000
,
1000
1000
0001
0001
,
0100
0100
0010
0010
,
1000
0000
0000
0000
,
0000
0000
1000
0000
,
0100
0000
0000
0000
,
0000
0000
0100
0000
,
0010
0000
0000
0000
,
0000
0000
0010
0000
,
0001
0000
0000
0000
,
0000
0000
0001
0000
,
1000
0000
0000
0000
,
1000
0000
0000
0000
,
0010
0000
0000
0000
,
0010
0000
0000
0000
,
0100
0000
0000
0000
,
0100
0000
0000
0000
,
0001
0000
0001
0000
,
0001
0000
0001
0000
,
1000
0000
1000
0000
,
0100
0100
0100
0000
,
0010
0000
0010
0000
,
0001
0001
0001
0000
,
1000
0000
1000
0000
,
0010
0100
0001
0010
,
0100
0100
0100
0000
,
0010
0010
0010
0000
,
0001
0001
0001
0000
,
1000
1000
1000
0000
,
0020
0030
0200
0300
,
2002
0000
0000
3003
,
1000
0000
0000
1000
1000
0000
0100
0000
,
0010
0000
1001
0000
,
0001
0001
0001
0100
,
0100
0010
0010
1000
,
1000
0000
0000
0100
0000
0000
0000
0000
,
0010
0000
0000
0001
0000
0000
0000
0000
,
2002
0000
0000
0000
,
0000
0000
0000
3003
,
1000
1000
0100
0100
,
0010
0010
0001
0000
,
0001
0001
0100
0100
,
0010
0010
1000
0000
,
1000
0001
1000
0001
,
0100
0010
0100
0010
,
1000
1000
0010
0010
,
0100
0100
0001
0000
,
0001
0001
0010
0010
,
0100
0100
1000
1000
,
1001
0000
0000
0000
,
0000
0000
0100
0000
,
1001
0000
0000
0000
,
0000
0000
0010
0000
,
1001
0000
0001
0000
,
1000
0000
1000
0000
,
0010
0000
0010
0000
,
0100
0000
0100
0000
,
0001
0000
0001
0000
,
0010
0100
1000
0000
,
0010
0000
0010
0000
,
0100
0001
1000
0000
,
0100
0000
0100
0000
,
1000
0010
0100
0001
,
1000
1000
1000
0000
,
0100
0100
0100
0000
,
0010
0010
0010
0000
,
0001
0001
0001
0100
,
0100
0000
0100
0000
,
0010
0000
0010
0000
,
1000
0000
0100
0000
,
0010
0000
0001
0000
,
2000
0000
0000
0000
,
0000
0000
3000
1001
,
0001
0100
0010
0010
,
1000
0100
0010
0010
,
0001
1000
0100
1001
,
1000
0001
0100
1001
,
0001
1000
0010
0010
,
0100
0001
0010
0100
,
1000
0001
1000
1010
,
1000
0001
1000
0011
,
0001
0000
0100
0000
,
0020
2030
3002
0003
,
0001
0010
0100
0100
,
1000
0010
0100
0100
,
2002
0000
0000
0000
,
3003
0000
0000
0000
;

//---------------dance-single - ----------------
#NOTES:
     dance-single:
     :
     Medium:
     10:
     0.333720,0.550055,0.186883,0.220255,0.046721,350.000000,322.000000,28.000000,33.000000,0.000000,0.000000,0.333720,0.550055,0.186883,0.220255,0.046721,350.000000,322.000000,28.000000,33.000000,0.000000,0.000000:
0000
0000
0000
0000
,
0000
0000
0000
0000
,
1000
1000
0001
0001
0100
0000
0010
0010
,
1000
1000
0000
0001
0010
0100
1000
0000
,
1000
0000
0010
0000
,
0100
0000
0001
0000
,
0001
0000
0010
0000
,
0100
0000
1000
0000
,
0001
0000
1000
0000
,
0010
0000
0100
0000
,
0001
1000
0001
0000
,
1000
0001
1000
0000
,
0001
0000
0010
0000
,
0100
1000
0100
0000
,
1000
0000
0010
0000
,
0100
0001
0100
0000
,
0001
0000
0010
0000
,
0100
1000
0001
0000
,
0100
0001
1000
0000
,
0010
1000
0001
0000
,
0010
1000
0100
1000
,
0010
0010
0010
0000
,
0100
0001
0010
0001
,
0100
0100
0100
0000
,
1001
0000
0110
0000
,
0001
0000
0010
0100
0000
0100
1000
0000
,
0010
1001
0100
1001
,
0001
0001
0100
0000
0001
0001
0010
0000
,
0100
0100
1000
0000
0010
0010
1000
0000
,
0100
1000
0001
0000
0100
0001
1000
0000
,
0220
0330
2002
3003
,
0220
0000
0000
0330
,
0001
0000
0000
0000
0010
0000
0100
0000
1000
0000
0000
0010
0000
0000
0100
0000
,
0001
1000
0100
0100
,
1000
1000
1000
1000
1000
0000
0001
0001
,
0100
0100
0000
0010
0010
1000
1000
0000
,
1001
0001
0010
1100
0000
1000
0010
0100
,
0101
0001
1000
1100
0000
1001
0000
0000
,
0110
0010
0010
0010
,
0010
0010
0010
0010
,
1000
0000
0000
0100
0000
0010
0001
0000
0001
0010
0000
0100
,
0000
0000
0100
1000
0000
0000
0010
0000
0000
0010
0000
0000
,
0100
0000
0000
0100
0000
0001
0010
0000
0010
0001
0000
0100
,
0000
0000
0100
0010
0000
0000
1000
0000
0000
1000
0000
0001
,
0010
0000
0000
0000
0000
0010
0100
0000
0000
0100
0000
0000
,
1000
0000
0000
0000
0000
1000
0001
0000
0000
0001
0000
0000
,
0100
0000
0000
0000
0000
0100
0010
0000
0000
0010
0000
0000
,
2000
0000
3002
0000
,
1003
1000
0100
0100
,
0010
0010
0001
0001
,
1000
0000
0010
0000
,
0100
0001
0100
0000
,
0001
0000
0010
0000
,
0100
1000
0100
0000
,
1000
0000
1000
0000
,
0001
0000
0001
0000
,
0100
0010
0100
0000
,
0010
0100
0010
0000
,
1000
0000
1000
0000
,
0100
0010
0001
0000
,
0001
0000
0001
0000
,
0100
0010
1000
0000
,
0010
0000
0010
0000
,
1000
0000
0001
1000
0000
0001
1000
0000
,
0010
1001
0100
1001
,
0001
1000
0100
0000
1000
0001
0100
0000
,
1000
0010
0100
0000
0001
0010
0100
0000
,
0100
1000
0001
0000
0100
0001
1000
0000
,
2200
3300
0022
0033
,
2020
3030
0202
0303
,
2002
3003
0220
0330
,
2020
3030
0202
0303
,
2002
0000
0000
0000
,
0000
0000
3003
0110
,
1100
0001
0010
0100
1000
0000
0001
0000
,
1000
0010
0100
0001
1000
0000
1000
0000
,
0100
1000
0010
0100
0001
0000
0001
0000
,
0100
0001
0010
0100
1000
0000
1000
0000
,
0001
1000
0010
0100
0010
0000
1000
0001
,
0000
0001
0000
1000
0000
1000
0000
0010
,
0000
0100
0001
0000
0010
0000
0100
1000
,
0000
0001
0100
0000
0010
0000
0100
0001
,
0020
0000
0000
0100
0230
0000
0000
1000
,
2300
0000
0000
3020
0000
0000
0230
0000
0301
0000
0000
0000
1001
0000
0000
0000
,
0001
0010
0100
1000
0001
0000
0100
0000
,
0100
0010
1000
0100
0010
0000
0001
0000
,
2002
0000
0000
3003
;

//---------------dance-single - ----------------
#NOTES:
     dance-single:
     :
     Hard:
     13:
     0.479604,0.752706,0.233604,0.307023,0.160186,503.000000,468.000000,35.000000,46.000000,0.000000,0.000000,0.479604,0.752706,0.233604,0.307023,0.160186,503.000000,468.000000,35.000000,46.000000,0.000000,0.000000:
0000
0000
0000
0000
,
0000
0000
0000
0000
,
1000
0100
1000
0000
0001
0000
0001
0000
0001
0000
0000
0000
0100
0001
0100
0010
,
1000
0000
1000
0000
0000
0000
0001
0010
0100
0000
0100
1000
0001
0000
0000
0000
,
1000
0001
0100
0010
,
1000
0100
0100
0100
,
0010
0001
0100
1000
,
0100
0010
0010
0010
,
1000
0001
0010
0100
,
1000
0001
0001
0001
,
1000
0010
0001
1000
,
0100
0001
0010
0100
,
1000
0100
1000
0100
,
1000
0010
1000
0010
,
0100
0001
0100
0001
,
0010
0100
0010
0100
,
1000
0001
0100
0001
,
1000
0010
1000
0001
,
0010
0010
0001
0001
,
1000
1000
0100
0100
,
1000
0000
0010
1000
0000
1000
0001
0000
,
0100
0001
0100
0001
0010
0100
0010
0000
,
0100
0000
1000
0001
0000
0001
1000
0000
,
0010
0100
0010
0100
0001
1000
0001
0000
,
1100
0001
0101
1000
,
0010
1000
0001
0010
0001
0100
0010
0000
,
1000
1000
0100
0000
1000
1000
0010
0000
,
0100
0100
0001
0001
0010
0010
0001
0000
,
0001
0001
0100
0100
0010
0010
1000
0000
,
0001
0001
0010
0100
1000
0100
0010
0001
,
2100
3001
0102
1003
,
0210
0301
0001
1000
,
1001
0000
0000
0000
0001
0000
0010
0000
0100
0000
0000
0100
1000
0000
0001
0000
,
0100
0010
0000
0000
0110
0000
0010
0000
1000
0000
0001
1000
1001
0000
0000
0000
,
0001
1000
0001
0000
0100
0000
0100
0000
0200
0000
0300
0000
0001
1000
0001
1000
,
0100
0000
0200
0000
0300
0000
1000
0001
1000
0000
0001
1000
0200
0000
0300
0000
,
1100
0000
0001
0100
0010
0000
0101
0000
0000
1000
0100
0010
0001
0100
0010
0000
,
1010
0000
0001
0010
0100
0000
0022
0000
0033
0000
0101
0000
0000
1010
0000
0000
,
2001
0001
0001
0001
,
0001
0001
0001
3001
,
1001
0000
0000
0001
0000
0100
0010
0000
0100
0010
0000
1000
,
0010
0100
0001
0010
,
0100
0000
0000
1000
0000
0001
1000
0000
0100
1000
0000
0001
,
1000
0000
0000
0010
0000
0000
0100
0000
0000
1000
0000
0100
,
0001
0000
0000
0010
0000
0100
0001
0000
0000
0100
0000
0000
,
1000
0000
0000
0001
0000
1000
0010
0000
0000
0001
0000
0000
,
0010
0000
0000
1000
0000
0001
0010
0000
0000
0100
0000
0000
,
0002
0203
2300
3001
,
1000
0000
1000
0001
0000
0001
1000
0000
1000
0010
0000
0010
,
0100
0001
0100
0001
0000
0100
0001
0000
0100
0001
0000
0000
,
1001
0001
0010
0100
,
1000
0010
0010
0010
,
0100
0001
0010
0100
,
1000
0001
0001
0001
,
1000
0010
0001
1000
,
0100
0001
0010
0100
,
1000
0100
0001
1000
,
0010
0001
0100
0010
,
1000
0000
0001
0100
0000
0100
0010
0000
,
1000
0001
1000
0001
0100
0010
0100
0000
,
0001
0000
0010
0100
0000
0010
0100
0000
,
1000
0010
1000
0010
0100
0001
0100
0000
,
0001
0011
1000
1010
,
0001
0010
0100
1000
0010
0100
0001
0000
,
2000
0100
3100
1000
0002
0100
0103
0000
,
0002
0010
0013
0001
2000
0010
3010
0000
,
2000
0100
3100
1000
0002
0100
0103
0000
,
0002
0010
0013
0001
2000
0010
3010
1000
,
2100
3001
0102
1003
,
0210
0301
0120
1030
,
2100
3001
0012
1003
,
0210
0301
0120
1030
,
2002
0000
0000
0000
,
0000
0000
3003
0110
,
0001
0000
0010
0000
0100
0000
1000
0000
0010
0000
0000
0100
0000
0000
1000
0000
,
0100
0000
0001
0000
0010
0000
0100
0000
0001
0000
0000
0100
0000
0000
1000
0000
,
0001
0000
0100
0000
1000
0000
0010
0000
0002
0000
0000
1000
0000
0000
1003
0000
,
0001
0000
0010
0000
1000
0000
0100
0000
0002
0000
0000
1000
0000
0000
1003
0000
,
0010
0000
0100
0000
0001
0000
0010
0000
0100
0000
0000
0110
0000
0000
0200
0000
,
1000
1300
0010
0200
0001
0301
0100
0001
,
1000
0000
0100
0000
0001
0000
0010
0000
2000
0000
0000
0001
0000
0000
3001
0000
,
1000
0000
0010
0000
0001
0000
0100
0000
2000
0000
0000
0001
0000
0000
3001
0000
,
0120
0000
0000
0000
1000
0000
1030
0000
0210
0000
0000
0000
0301
0000
0001
0010
,
0200
0000
0000
0302
0000
0000
0203
0000
2300
0000
0000
0000
3001
0000
0000
0000
,
1000
0000
0010
0000
0100
0000
0001
0000
0012
0000
0000
0100
0000
0000
1003
0000
,
0001
0000
0010
0000
0100
0000
1000
0000
2010
0000
0000
0100
0000
0000
3001
0000
,
2002
0000
0000
3003
;

//---------------dance-single - ----------------
#NOTES:
     dance-single:
     :
     Challenge:
     15:
     0.630255,0.926408,0.493906,0.367092,0.270314,661.000000,587.000000,74.000000,55.000000,0.000000,0.000000,0.630255,0.926408,0.493906,0.367092,0.270314,661.000000,587.000000,74.000000,55.000000,0.000000,0.000000:
// measure 0
0000
0000
0000
0000
,  // measure 1
0000
0000
0000
0000
,  // measure 2
1000
0010
0100
0000
0101
0000
0011
0000
1001
0000
0000
0000
0001
0010
0100
1000
,  // measure 3
1100
0000
1010
0000
0000
0000
0010
0100
0101
0000
0001
0010
0110
0000
0100
0000
,  // measure 4
1001
0000
1000
0010
1000
0010
0100
0001
,  // measure 5
0100
0000
0001
0000
0010
0100
0010
0000
,  // measure 6
1001
0000
1000
0001
0100
0001
0010
0100
,  // measure 7
1000
0000
0001
0000
0010
0100
0010
0000
,  // measure 8
0011
0000
0001
0100
0001
0100
0010
1000
,  // measure 9
0010
0000
1000
0000
0001
1000
0001
0000
,  // measure 10
0001
0010
1000
0001
,  // measure 11
0100
1000
0001
1000
,  // measure 12
1001
0000
0001
0100
0001
0100
0010
1000
,  // measure 13
0010
0000
1000
0000
0100
0010
0100
0000
,  // measure 14
1100
0000
0001
0010
0001
0010
0100
1000
,  // measure 15
0100
0000
1000
0000
0001
1000
0100
0000
,  // measure 16
1001
0000
0001
0100
0010
1000
0010
1000
,  // measure 17
0001
0000
0010
0000
0001
1000
0010
0000
,  // measure 18
1000
0100
0010
0001
1000
0001
0010
0100
,  // measure 19
1000
0001
0100
0010
1000
0001
1000
0010
,  // measure 20
0100
0001
0010
0100
1000
0100
1000
0000
,  // measure 21
0001
0001
1000
1000
0010
0010
0100
0000
,  // measure 22
0001
1000
0001
1000
0100
1000
0001
0000
,  // measure 23
1000
1000
0010
0010
0100
0100
0001
0000
,  // measure 24
1100
0001
1000
0000
0101
1000
0001
0000
,  // measure 25
1000
0010
0100
0001
0010
0100
1000
0001
,  // measure 26
2000
0001
3001
0000
0002
1000
1003
0000
,  // measure 27
2000
0010
3010
1000
0020
0100
0130
0010
,  // measure 28
0200
0001
0301
0100
0002
1000
1003
0100
,  // measure 29
0020
0100
0130
0010
0200
1000
1300
0001
,  // measure 30
2010
3001
0102
1003
,  // measure 31
0210
1000
0001
0301
,  // measure 32
1100
0000
0000
0000
0011
0000
0001
0000
0101
0000
0000
0100
0010
0000
1000
0000
,  // measure 33
0110
0010
0000
0000
1001
0000
0001
0000
0011
0001
0010
0100
0100
0000
1000
1000
,  // measure 34
0010
0010
0100
0000
0101
0000
0011
0000
0101
0000
0000
0000
0101
0100
0010
0010
,  // measure 35
1010
0000
1100
0000
2001
0000
0100
0100
0001
0000
0000
3010
0000
0100
0100
0010
,  // measure 36
1001
1000
0010
0100
0001
0010
0110
0000
0000
0010
0001
0100
0010
1000
0001
1000
,  // measure 37
1010
0010
0100
0001
0010
0100
0011
0000
0000
0001
0101
0000
0000
0000
0110
0000
,  // measure 38
2001
3002
2003
3002
,  // measure 39
0203
0320
0230
0320
,  // measure 40
1030
0000
0000
0100
0000
0010
0001
0000
0100
0010
0000
1000
,  // measure 41
0001
0010
0100
0010
,  // measure 42
0001
0000
0000
1000
0000
0010
0100
0000
0001
0010
0000
0100
,  // measure 43
1000
0000
0000
0001
0000
0000
1000
0000
0000
0001
0000
1000
,  // measure 44
0002
0000
0000
1003
0000
0010
0002
0000
0000
1003
0000
0100
,  // measure 45
0002
0000
0000
0013
0000
1000
0002
0000
0000
0103
0000
1000
,  // measure 46
0002
0000
0000
0103
0000
0100
0020
0000
0000
1030
0000
1000
,  // measure 47
0002
0000
0000
0013
0000
0010
0200
0000
0000
1300
0000
0000
,  // measure 48
1001
0110
1010
0101
,  // measure 49
0001
0010
0100
0010
0000
0100
1000
0100
1000
0001
0000
0001
,  // measure 50
1000
0000
0010
0100
0010
0100
0001
1000
,  // measure 51
0001
0000
0010
0000
0100
0010
0100
0000
,  // measure 52
1001
0000
0001
1000
0001
1000
0010
1000
,  // measure 53
0001
0000
1000
0000
0100
1000
0001
0000
,  // measure 54
0101
0000
0001
0010
0100
1000
0010
0100
,  // measure 55
0001
0000
1000
0000
0001
0100
0010
0000
,  // measure 56
1000
0100
1000
0100
0010
0001
0010
0001
,  // measure 57
1000
0010
0100
0001
0010
0100
1000
0001
,  // measure 58
1000
0000
0001
0001
0100
0010
1000
0000
,  // measure 59
0001
0010
0001
0010
0100
1000
0100
0000
,  // measure 60
1000
0000
0001
0100
0010
0100
0001
0000
,  // measure 61
1000
0010
0100
0001
0010
0100
1000
0000
,  // measure 62
0011
1000
0001
0000
1010
0001
1000
0000
,  // measure 63
0001
0100
0010
0100
0001
1000
0100
0000
,  // measure 64
2000
0001
3001
0000
0002
1000
1003
0000
,  // measure 65
2000
0010
3010
1000
0002
0100
0103
0001
,  // measure 66
0020
0100
0130
0010
0002
1000
1003
0001
,  // measure 67
0200
0010
0310
0100
0002
1000
1003
0010
,  // measure 68
2010
3001
0012
1003
,  // measure 69
2100
3001
0102
1003
,  // measure 70
0120
0031
0120
1030
,  // measure 71
0001
0000
0010
0000
1000
0000
0001
0000
0100
0000
1000
0000
,  // measure 72
2001
3002
2003
3002
,  // measure 73
2003
3002
1003
0110
,  // measure 74
1001
0000
0001
1000
0010
0000
0010
0100
0001
0000
0001
0010
0100
0000
0110
0000
,  // measure 75
1001
0000
1000
0010
0100
0000
0100
0001
0010
0000
0010
0100
1000
0000
1010
0000
,  // measure 76
0101
0000
0001
1000
0100
0000
1000
0000
0001
1000
0000
1000
0010
0000
0110
0000
,  // measure 77
0101
0000
0001
0010
0100
0000
0010
0000
0100
1000
0000
1000
0001
0000
0011
0000
,  // measure 78
1100
0000
0001
1000
0010
0000
0010
0100
0001
0000
0001
0010
0100
0000
0110
0000
,  // measure 79
1001
0000
1000
0010
0100
0000
0100
0010
1000
0000
1000
0100
0010
0000
0110
0000
,  // measure 80
0011
0000
0001
0100
0010
0000
0100
0000
0010
1000
0000
1000
0001
0000
0110
0000
,  // measure 81
1001
0000
1000
0100
0010
0000
0100
0000
1000
0010
1000
0010
0100
0001
0100
0000
,  // measure 82
0012
0000
0000
0000
0100
0000
0100
0000
2003
0000
0000
0000
0010
0000
3001
1000
,  // measure 83
0200
0000
0000
0320
0000
0000
0032
0000
1003
0000
1000
0000
0110
0000
0001
0000
,  // measure 84
1000
0000
0100
0000
0001
0000
0010
0000
1000
0000
0000
1000
0000
0000
0110
0000
,  // measure 85
0001
0000
0100
0000
1000
0000
0010
0000
0001
0000
0000
0001
0000
0000
0110
0000
,  // measure 86
2002
0000
0000
3003
;
