#TITLE:Comet;
#SUBTITLE:;
#ARTIST:Cosmograph;
#TITLETRANSLIT:;
#SUBTITLETRANSLIT:;
#ARTISTTRANSLIT:;
#GENRE:;
#CREDIT:;
#BANNER:Comet.png;
#BACKGROUND:Comet-bg.png;
#JACKET:Comet-jacket.png;
#LYRICSPATH:;
#CDTITLE:;
#MUSIC:Comet.ogg;
#OFFSET:-0.639000;
#SAMPLESTART:24.648001;
#SAMPLELENGTH:20.757000;
#SELECTABLE:YES;
#BPMS:0.000000=185.000000
;
#STOPS:
;
#BGCHANGES:1.896=Comet.avi=1.000=1=0=0=StretchNoLoop==CrossFade==,
99999=-nosongbg-=1.000=0=0=0 // don't automatically add -songbackground-
;
#KEYSOUNDS:;
#ATTACKS:;

//---------------dance-single - Telperion----------------
#NOTES:
     dance-single:
     Telperion:
     Beginner:
     3:
     0.127465,0.227221,0.202785,0.000000,0.000000,110.000000,85.000000,25.000000,0.000000,0.000000,0.000000,0.127465,0.227221,0.202785,0.000000,0.000000,110.000000,85.000000,25.000000,0.000000,0.000000,0.000000:
0000
0000
0000
0000
,
0000
0000
0000
0000
,
0000
0000
0000
0000
,
0000
0000
0000
0000
,
0000
0000
0000
0000
,
0000
0000
0000
0000
,
0000
0000
0000
0000
,
0000
0000
0000
0000
,
0000
0000
0000
0000
,
0000
0000
0000
0000
,
0000
0000
1000
0000
,
0001
0000
0100
0000
,
0000
0000
0001
0000
,
1000
0000
0100
0000
,
0000
0000
0010
0000
,
0001
0000
1000
0000
,
0010
0000
0100
0000
,
0000
0000
0000
0000
,
0000
0000
1001
0000
,
0000
0000
0100
0000
,
0000
0000
1001
0000
,
0000
0000
0010
0000
,
0000
0000
1001
0000
,
0000
0000
0100
0000
,
0000
0000
1001
0000
,
0000
0000
0010
0000
,
0000
0000
0000
0000
,
0000
0000
1000
0000
,
0000
0000
0110
0000
,
0000
0000
0001
0000
,
0000
0000
0110
0000
,
0000
0000
1000
0000
,
0000
0000
0110
0000
,
0000
0000
0001
0000
,
0000
0000
1001
0000
,
0000
0000
0000
0000
,
0000
0000
1001
0000
,
0000
0000
0000
0000
,
0000
0000
1000
0000
,
0001
0000
0100
0000
,
0000
0000
0001
0000
,
1000
0000
0100
0000
,
0000
0000
0010
0000
,
0000
0000
0110
0000
,
0000
0000
1001
0000
,
0000
0000
0000
0000
,
0000
0000
0010
0000
,
0000
0000
0110
0000
,
0000
0000
1001
0000
,
0000
0000
0000
0000
,
0000
0000
0100
0000
,
0000
0000
0110
0000
,
0000
0000
1001
0000
,
0000
0000
0000
0000
,
0000
0000
0100
0000
,
0000
0000
0110
0000
,
0000
0000
1001
0000
,
0000
0000
0000
0000
,
0000
0000
1000
0000
,
0000
0000
0000
0000
,
0000
0000
0010
0000
,
0000
0000
0000
0000
,
0000
0000
0001
0000
,
0000
0000
0000
0000
,
0000
0000
0100
0000
,
0000
0000
0000
0000
,
0000
0000
1000
0000
,
0001
0000
0010
0000
,
0000
0000
0001
0000
,
1000
0000
0010
0000
,
0000
0000
0100
0000
,
0001
0000
1000
0000
,
0100
0000
0010
0000
,
0000
0000
0000
0000
,
0000
0000
1001
0000
,
0000
0000
0010
0000
,
0100
0000
1001
0000
,
0000
0000
0010
0000
,
0100
0000
0110
0000
,
0000
0000
1000
0000
,
0001
0000
0110
0000
,
0000
0000
0000
0000
,
0000
0000
0100
0000
,
0000
0000
1001
0000
,
0000
0000
0100
0000
,
0010
0000
1001
0000
,
0000
0000
0100
0000
,
0010
0000
0110
0000
,
0000
0000
0001
0000
,
1000
0000
1001
0000
,
0000
0000
0100
0000
,
0000
0000
0000
0000
,
0000
0000
0010
0000
,
0000
0000
0000
0010
0000
0000
0000
0000
;

//---------------dance-single - Telperion----------------
#NOTES:
     dance-single:
     Telperion:
     Easy:
     8:
     0.300122,0.455659,0.421794,0.073003,0.044613,259.000000,207.000000,52.000000,9.000000,0.000000,0.000000,0.300122,0.455659,0.421794,0.073003,0.044613,259.000000,207.000000,52.000000,9.000000,0.000000,0.000000:
0000
0000
0000
0000
,
0000
0000
0000
0000
,
0000
0000
0000
0000
,
0000
0000
0000
0000
,
0000
0000
0000
0000
,
0000
0000
0000
0000
,
0000
0000
0000
0000
,
0000
0000
0000
0000
,
0000
0000
0000
0000
,
0000
0000
0000
0000
,
0000
0000
1001
0000
,
1000
0000
1100
0000
,
1000
0000
1001
0000
,
0001
0000
0101
0000
,
0100
0000
1001
1000
,
0100
1000
1001
0001
,
0100
0001
1001
0000
,
0110
0000
1001
0000
,
0000
0000
1000
1000
,
0010
0000
0000
0010
0000
0000
0010
0000
0000
0000
0000
0000
0000
0000
0000
0000
,
0100
0001
1000
1000
,
0100
0000
0000
0100
0000
0000
0100
0000
0000
0000
0000
0000
0000
0000
0000
0000
,
1001
0000
0001
0001
,
0010
0000
0000
0010
0000
0000
0010
0000
0000
0000
0000
0000
0000
0000
0000
0000
,
0100
1000
0001
0001
,
0100
0000
0000
0100
0000
0000
0100
0000
0000
0000
0000
0000
0010
0000
0000
0000
,
0000
0110
0000
0000
,
1000
0000
0000
0001
0000
0000
1000
0000
0000
0000
0000
0000
0000
0000
0000
0000
,
0010
0100
0001
0001
,
1000
0000
0000
0100
0000
0000
1000
0000
0000
0000
0000
0000
0000
0000
0000
0000
,
1001
0000
1000
1000
,
0001
0000
0000
0100
0000
0000
0001
0000
0000
0000
0000
0000
0000
0000
0000
0000
,
0010
0100
1000
1000
,
0001
0000
0000
0010
0000
0000
0001
0000
0000
0000
0000
0000
1000
0000
0000
0000
,
0001
0000
2100
0000
,
3001
0000
1000
0010
,
0100
0000
0102
0000
,
1003
0000
0001
0010
,
0100
0000
1100
0100
,
0010
0001
1001
0001
,
0100
0000
0101
0100
,
0010
1000
0001
0000
,
0000
0000
0010
0000
,
0110
0000
1100
0000
,
1001
0000
0100
0000
,
1001
0000
0000
1001
0000
0000
1001
0000
,
0000
0020
0030
0000
,
0110
0000
0101
0000
,
1001
0000
0100
0000
,
1001
0000
0001
0100
,
0010
1000
0000
0000
,
0110
0000
0011
0000
,
1001
0000
0100
0000
,
1001
0000
0000
1001
0000
0000
1001
0000
,
0000
0200
0300
0000
,
0110
0000
1010
0000
,
1001
0000
0010
0000
,
0110
0000
0000
1001
0000
0000
0110
0000
,
0000
1001
0000
0000
,
0000
0000
0000
0000
,
0000
0000
0000
0000
,
0000
0000
0000
0000
,
0000
0000
0000
0000
,
0000
0000
0000
0000
,
0000
0000
0000
0000
,
0000
0000
0000
0000
,
0000
0000
1000
0100
,
0010
0000
0000
0001
0000
0000
0010
0000
,
0100
1000
0001
0100
,
0010
0000
0000
1000
0000
0000
0010
0000
,
0100
0001
1000
1000
,
0100
0010
0001
0001
,
0100
0010
2002
0000
,
0000
0000
3003
0000
,
0100
0010
1001
0001
,
0100
0001
1001
1000
,
0100
0000
0110
1000
,
0001
1000
1010
0010
,
0100
0000
1001
1000
,
0100
1000
1001
0001
,
0100
0000
0110
0000
,
1001
0000
0000
0001
0000
0000
1000
0000
0000
0000
0000
0000
0000
0000
0000
0000
,
0000
0200
0300
1000
,
0100
0010
0001
0100
,
0010
0000
0110
0001
,
1000
0001
0010
0100
,
1000
0000
1001
0001
,
0100
0010
1000
0100
,
0010
0001
0100
0000
,
1001
0000
0000
0000
0000
0000
0000
0000
0010
0000
0000
0010
0000
0000
0010
0000
,
0000
0010
0000
0000
0020
0000
0000
0000
0030
0000
0000
0000
0000
0000
0000
0000
,
0000
0000
0000
0000
,
0000
0000
0000
0000
,
0000
0000
0000
0200
0000
0300
0000
0000
;

//---------------dance-single - Telperion----------------
#NOTES:
     dance-single:
     Telperion:
     Medium:
     13:
     0.600245,0.643793,0.681359,0.194674,0.113560,518.000000,434.000000,84.000000,24.000000,0.000000,0.000000,0.600245,0.643793,0.681359,0.194674,0.113560,518.000000,434.000000,84.000000,24.000000,0.000000,0.000000:
0000
0000
0000
0000
,
0000
0000
0000
0000
,
0000
0000
1000
0000
,
1001
0000
0000
0001
0000
0100
0000
0000
,
0101
0000
0001
0000
,
1001
0000
0000
1000
0000
0100
0000
0000
,
1100
0100
0010
0000
,
0011
0000
0000
0001
0000
1000
0000
0000
,
1010
0000
0010
0000
,
0110
0000
0000
1000
0000
0001
0000
0000
,
0020
0030
1100
1000
,
1001
0001
0101
0001
,
1000
0000
0000
0100
0000
0000
0010
0000
0011
0000
0000
0000
0001
0000
0000
0000
,
1001
1000
1010
1000
,
1001
0000
0020
0000
0130
0001
1000
0001
,
0100
0001
1000
0000
0100
0010
0100
1000
,
0100
0010
0001
0000
1000
0010
0100
0010
,
0000
1000
0010
0100
0002
0000
0010
0000
,
1003
0001
1000
0000
1010
0000
0010
0000
,
0110
0000
0000
0100
0000
0000
0101
0000
0000
0000
1000
0000
0001
0000
1000
0000
,
0100
1000
0001
1000
0010
0000
0100
0000
,
0101
0000
0000
1000
0000
0000
1001
0000
0000
0000
0001
0000
0100
0000
0010
0000
,
0100
0001
1000
0000
0011
0000
0010
0000
,
0110
0000
0000
0100
0000
0000
1100
0000
0000
0000
0001
0000
1000
0000
0001
0000
,
0100
0001
1000
0001
0010
0000
0100
0000
,
1100
0000
0000
0001
0000
0000
1001
0000
0000
0000
1000
0000
0100
0000
0010
0000
,
0001
1000
0020
0000
0030
0000
0000
0000
,
0110
0000
0000
0010
0000
0000
1010
0000
0000
0000
0001
0000
1000
0000
0001
0000
,
0010
0001
1000
0001
0100
0000
0010
0000
,
1010
0000
0000
0001
0000
0000
1001
0000
0000
0000
1000
0000
0010
0000
0100
0000
,
0010
1000
0001
0000
1100
0000
0100
0000
,
0110
0000
0000
0010
0000
0000
0011
0000
0000
0000
1000
0000
0001
0000
1000
0000
,
0010
1000
0001
1000
0100
0000
0010
0000
,
0011
0000
0000
1000
0000
0000
1001
0000
0000
0000
0001
0000
0010
0000
0100
0000
,
1000
0001
0100
0000
2002
0000
3003
0000
,
0202
0000
0303
0000
1000
0010
0100
0010
,
1000
0000
0000
0001
0000
0000
0010
0000
0022
0000
0000
0000
0033
0000
0000
0000
,
2200
0000
3300
0000
0001
0010
0100
0010
,
0002
0000
0003
0000
1000
0010
1000
0100
,
1000
0010
0100
0000
0001
0010
0100
0010
,
0001
1000
0010
0000
0100
0010
1000
0100
,
0010
0001
0100
0010
2000
0000
0000
0000
,
3001
1000
0002
0000
0003
0000
0110
0000
,
1001
0000
0000
1000
0000
0000
0001
0000
0100
0000
0000
0000
1010
0000
0000
0000
,
0101
0000
0011
0000
1100
1000
0001
0000
,
1001
0000
0000
0001
0000
0000
0100
0000
0000
1000
0000
0000
0001
0000
0000
0010
,
0000
1000
0200
0000
0310
0000
0001
0010
,
0100
1000
0001
0100
0010
0000
1000
0010
,
0100
1000
0100
0001
0010
0000
0110
0000
,
1001
0000
0000
1000
0000
0000
0100
0000
0010
0000
0000
0000
0001
0000
0001
0000
,
0000
1000
2000
0000
3000
0000
0110
0000
,
1001
0000
0000
0001
0000
0000
1000
0000
0100
0000
0000
0000
0011
0000
0000
0000
,
1100
0000
1010
0000
0101
0001
1000
0000
,
1001
0000
0000
1000
0000
0000
0100
0000
0000
0001
0000
0000
1000
0000
0000
0010
,
0000
0001
0200
0000
0310
0000
1000
0010
,
0100
0001
1000
0100
0010
0000
0001
0010
,
0100
0001
0100
1000
0010
0000
0110
0000
,
1001
0000
0000
0001
0000
0000
0100
0000
0000
1000
0000
0000
0100
0000
0000
0001
,
0000
0010
0200
0000
0300
0000
0000
0000
,
0000
0000
0000
0000
,
0000
0000
1000
0000
,
0001
0000
0000
0200
0000
0300
0000
0000
,
0001
1000
0000
1000
0100
0000
0000
0000
,
0010
0000
0000
0001
0000
0000
0000
0000
,
0000
0000
1000
0000
,
0010
0000
0000
0200
0000
0300
0000
0000
,
0001
1000
0100
0000
0110
0000
0001
0000
,
1001
0000
1000
0010
0000
0010
0100
0000
,
0001
1000
0001
1000
0100
0000
0110
0000
,
0011
0000
1000
0010
0000
0010
0100
0010
,
1000
0001
0010
0000
0011
0000
0100
1000
,
0001
0100
0010
0000
1010
0000
1000
0001
,
0010
0100
1000
0000
0001
0100
0010
0100
,
0000
0001
0010
0100
2000
0000
0010
0000
,
3001
1000
0001
0000
0011
0000
0110
0000
,
1000
0001
1000
0010
0000
0000
0110
0000
,
0101
0000
1000
0100
0010
0000
0011
0000
,
0001
1000
0001
0010
0000
0100
0001
0100
,
0010
0100
1000
0001
0100
0000
0110
0000
,
0010
1000
0010
0001
0000
0010
1000
0001
,
0000
0010
0100
1000
0000
0001
0100
0000
,
0110
0000
0000
0010
0000
0000
1010
0000
0000
0000
0000
0000
1000
0000
1000
0000
,
0000
0001
0002
0000
0003
0000
0010
0001
,
1001
0000
0000
1000
0000
0000
1100
0000
0000
0000
0000
0000
0110
0000
0000
0000
,
1100
0000
0001
0100
0010
0000
1000
0001
,
0101
0000
0000
0100
0000
0000
0010
0000
1010
0000
0000
0000
1100
0000
0000
0000
,
0110
0000
0001
1000
0100
0010
0100
0001
,
0100
0010
0001
1000
0000
0010
0100
1000
,
0100
0010
0100
0001
2000
0000
3000
0000
,
1001
0000
0000
0100
0000
0000
0001
0000
0110
0000
0000
0101
0000
0000
1001
0000
,
0000
1100
0000
0000
0110
0000
0000
0000
0000
0000
0000
0000
0000
0000
0000
0000
,
0000
0000
0000
0000
,
0000
0000
1000
0000
,
0001
0000
0000
0110
0000
0000
0000
0000
;

//---------------dance-single - Telperion----------------
#NOTES:
     dance-single:
     Telperion:
     Hard:
     16:
     0.755521,0.833144,1.078819,0.186563,0.263621,652.000000,519.000000,133.000000,23.000000,0.000000,9.000000,0.755521,0.833144,1.078819,0.186563,0.263621,652.000000,519.000000,133.000000,23.000000,0.000000,9.000000:
0000
0000
0000
0000
,
0000
0000
0000
0000
,
0000
0000
0001
0000
,
1100
0000
0000
1000
0000
0001
0000
0000
,
0011
0000
1000
0000
,
0101
0000
0000
0001
0000
1000
0000
0000
,
1010
0010
0100
0000
,
0101
0000
0000
1000
0000
0001
0000
0000
,
0011
0000
1000
0000
,
1100
0000
0000
0001
0000
0100
0000
0000
,
0010
0100
0010
0000
1001
0000
0001
0000
,
0011
0010
0110
0100
,
1100
0000
0000
1000
0000
0000
0001
0000
1001
0000
0000
0000
1000
0000
0000
0000
,
1010
0010
0110
0100
,
0101
0001
1000
0000
1100
0100
0010
0001
,
1000
0000
0010
0000
0100
0000
0001
1000
0001
0000
0100
0000
0010
0000
1000
0000
,
0001
0000
0010
0000
0100
0000
1000
0001
1000
0000
0010
0000
0001
0000
1000
0000
,
0100
0001
1000
0100
0000
0010
0100
0010
,
0001
1000
0010
0000
1100
0000
0011
0000
,
1100
0000
0000
0011
0000
0000
1100
0000
0000
0000
0001
0000
1000
0000
0100
0000
,
0010
0001
1000
0001
1010
0000
0101
0000
,
1010
0000
0000
0101
0000
0000
1010
0000
0000
0000
0001
0000
0100
0000
0001
0000
,
0010
0001
1000
0000
0011
0000
1100
0000
,
0011
0000
0000
1100
0000
0000
0011
0000
0000
0000
1000
0000
0001
0000
0010
0000
,
0100
0010
0001
1000
0101
0000
1010
0000
,
0101
0000
0000
1010
0000
0000
0101
0000
0000
0000
1000
0000
0010
0000
0100
0000
,
1000
0100
0002
0000
0003
0000
0000
0000
,
1100
0000
0000
0001
0000
0000
1010
0000
0101
0000
0000
0000
1000
0000
0000
0000
,
0011
0100
0011
1000
0011
0000
1000
0000
,
0101
0000
0000
1000
0000
0000
0011
0000
1100
0000
0000
0000
0001
0000
0010
0000
,
0100
0001
0100
1000
0010
0000
1100
0000
,
0011
0000
0000
1000
0000
0000
0101
0000
1010
0000
0000
0000
0001
0000
0000
0000
,
1100
0010
1100
0001
2000
0000
3200
0000
,
1310
0000
0000
0001
0000
0000
1100
0000
0011
0000
0000
0000
0100
0000
0001
0000
,
1000
0100
0010
0000
0102
0000
0000
0000
,
2103
0000
0000
0000
0000
0000
0000
0000
3001
1000
0100
1000
0001
1000
0100
0010
,
0001
0000
0000
1000
0000
0000
0010
0000
2100
0000
0000
0000
0000
0000
0000
0000
,
3102
0000
0000
0000
0000
0000
0000
0000
1003
0001
0100
0001
1000
0001
0010
0100
,
2000
0000
3011
0000
1000
0100
1000
0001
,
0100
0000
0001
0000
1000
0000
0100
0010
0001
0000
1000
0000
0010
0000
1000
0000
,
0001
0000
0010
0000
0001
0000
1000
0010
0100
0000
0001
0000
1000
0000
0100
0000
,
0001
1000
0010
0001
0200
0000
0300
0000
,
0010
1000
0010
0100
0002
0000
1103
0000
,
1100
0000
0000
0010
1100
0000
0001
0000
1100
0000
0000
0000
0001
0000
1000
0000
,
0100
0001
0100
0010
0002
0000
1103
0000
,
0011
0000
0000
1100
0000
0000
0001
0000
0000
1010
0000
0000
0101
0000
0000
1000
,
0000
0000
0010
0100
0002
0000
0000
0000
1003
0000
0000
0000
1001
0000
1000
0000
,
0100
0000
0010
0001
1000
0000
0010
0000
0100
0000
0000
0000
0110
0000
0100
0000
,
0001
1000
0100
0010
0002
0000
0103
0001
,
1010
0000
0000
0101
0000
0000
1010
0000
0000
0000
0001
0000
0100
0000
0010
0000
,
0000
0000
1000
0000
0001
0010
0100
0000
2000
0000
0000
0000
3101
0000
0000
0000
,
0101
0000
0000
0010
0101
0000
1000
0000
0101
0000
0000
0000
1000
0000
0001
0000
,
0100
1000
0100
0010
2000
0000
3101
0000
,
1010
0000
0000
0101
0000
0000
1000
0000
0000
0011
0000
0000
1100
0000
0000
0001
,
0000
0000
0000
0000
0000
0000
0010
0000
0000
0100
0000
0000
2000
0000
0000
0000
0000
0000
0000
0000
0000
0000
0000
0000
3001
0000
0000
0000
0000
0000
0000
0000
0000
0000
0000
0000
1001
0000
0000
0000
0000
0000
0000
0000
0001
0000
0000
0000
,
0100
0000
0010
0000
0100
0000
0001
0000
0000
1000
0000
0000
0100
0000
0000
0000
0000
0000
0110
0000
0000
0000
0100
0000
,
1000
0000
0001
0000
0100
0000
0010
0000
0000
0000
0000
0000
2010
0000
0000
0000
0000
0000
3100
0000
0000
1000
0000
0000
,
0011
0000
0000
1100
0000
0000
0001
0000
0000
1010
0000
0000
0101
0000
0000
1000
,
0000
0000
0001
0100
0010
0000
0000
0000
1000
0000
0000
0000
0000
0000
0000
0000
,
0010
0000
0000
0100
0000
0000
0001
0000
,
1000
0100
0010
0000
,
0001
0000
0000
0020
0000
0130
0000
0000
,
0100
1000
0000
1000
0001
0000
0000
0000
,
0010
0000
0000
0100
0000
0000
1000
0000
,
0001
0100
0010
0000
,
1000
0000
0000
0020
0000
0130
0000
0000
,
0100
0001
1000
0001
0011
0000
0010
0100
,
0000
1000
0001
0101
0000
1000
0010
1000
,
0100
0001
0100
1000
1010
0000
0001
0010
,
0000
0100
1000
1001
0000
0001
0010
0001
,
0100
0001
1000
0000
1010
0010
0100
0001
,
1000
0000
0100
0000
0010
0000
0001
1000
0001
0000
0010
0000
0100
0000
1000
0000
,
0001
0000
0100
0000
0010
0000
1000
0001
1000
0000
0100
0000
0010
0000
1000
0000
,
0001
0100
1000
0001
0000
0100
0010
0100
,
1000
0100
0001
0000
1001
0000
0101
0000
,
1001
0000
1100
0000
0110
0010
0001
0010
,
0100
1000
0001
0100
0110
0000
1010
0000
,
0110
0000
0101
0000
1001
1000
0010
1000
,
0100
0010
0001
0000
1001
0000
1010
0000
,
1001
0000
0011
0000
0110
0100
1000
0001
,
0000
0000
0010
0100
0010
0001
0010
0000
0000
0000
0100
0000
1000
0000
0001
0000
,
1100
0000
0000
0011
0000
0000
1100
0000
0000
0000
0010
0000
1000
0100
1000
0000
,
0001
0100
0001
0000
0010
0000
0000
0000
0200
0000
0000
0000
1300
0000
0001
0000
,
1010
0000
0000
0101
0000
0000
1010
0000
0101
0000
0000
0000
1000
0000
0010
0000
,
1100
0000
0000
0001
0100
0010
0100
0001
0100
0000
0000
0000
0001
0000
1000
0000
,
0011
0000
0000
1100
0000
0000
0011
0000
1100
0000
0000
0000
1001
0000
0000
0000
,
0110
0000
0000
1000
0100
1000
0100
1000
0001
0000
0100
0000
0001
0000
1000
0000
,
0100
0000
1000
0000
0001
0000
0100
0010
1000
0000
0001
0000
0010
0000
0001
0000
,
1000
0000
0010
0000
1000
0000
0001
0010
0200
0000
0000
0000
0001
0000
0000
0000
,
1310
0000
0000
0101
0000
0000
1000
0000
0011
0000
0000
1100
0000
0000
0011
0000
,
0000
1100
0000
0000
2002
0000
0000
0000
3003
0000
0000
0000
0000
0000
0000
0000
,
0001
0000
0000
1000
0000
0001
0000
0000
,
1100
0000
0001
0000
,
1001
0000
0000
0110
0000
0000
0000
0000
;

//---------------dance-single - Telperion----------------
#NOTES:
     dance-single:
     Telperion:
     Challenge:
     18:
     1.002340,1.215091,1.800735,0.219008,0.527242,865.000000,641.000000,222.000000,27.000000,0.000000,11.000000,1.002340,1.215091,1.800735,0.219008,0.527242,865.000000,641.000000,222.000000,27.000000,0.000000,11.000000:
// measure 0
0000
0000
0000
0000
,  // measure 1
0000
0000
0000
0000
,  // measure 2
0000
0000
0101
0000
,  // measure 3
1010
0000
0000
1000
0000
0001
0000
0000
,  // measure 4
0011
0000
1100
0000
,  // measure 5
0011
0000
0000
0001
0000
0100
0000
0000
,  // measure 6
0110
0010
1010
0000
,  // measure 7
0011
0000
0000
0001
0000
1000
0000
0000
,  // measure 8
1010
0000
0101
0000
,  // measure 9
1100
0000
0000
1000
0000
0001
0000
0000
,  // measure 10
0011
0010
0100
0000
1100
0000
0001
0000
,  // measure 11
0101
1000
1010
0001
,  // measure 12
1100
0000
0000
0011
0000
0000
1100
0000
0011
0000
0000
0000
1000
0000
0000
0000
,  // measure 13
1100
0001
0011
1000
,  // measure 14
1010
0000
0100
0000
1001
0001
0010
0100
,  // measure 15
0001
0000
0100
0000
1000
0000
0001
0100
0010
0000
1000
0000
0010
0000
0100
0000
,  // measure 16
1000
0000
0100
0010
0100
0001
1000
0000
0100
0010
0001
0010
0100
1000
0001
0100
,  // measure 17
0010
0100
0001
1000
0100
0010
0001
1000
0010
0000
0100
0000
1000
0000
0100
0000
,  // measure 18
0001
1000
0001
0000
1010
0000
0101
0000
,  // measure 19
1010
0000
0000
0101
1000
0000
0011
0000
0000
0000
1000
0000
0101
0000
0010
0000
,  // measure 20
0101
1000
0011
0100
0011
0000
1100
0000
,  // measure 21
0011
0000
0000
1100
0001
0000
1010
0000
0000
0000
0001
0000
1000
0000
0010
0000
,  // measure 22
0100
0001
0020
0000
0131
0000
1010
0000
,  // measure 23
0101
0000
0000
1010
0001
0000
1100
0000
0000
0000
0001
0000
1010
0000
0100
0000
,  // measure 24
1010
0001
1100
0010
1100
0000
0011
0000
,  // measure 25
1100
0000
0000
0011
1000
0000
0101
0000
0000
0000
1000
0000
0001
0000
0100
0000
,  // measure 26
0010
0000
1000
0000
0001
0000
0020
0000
0000
0130
1000
0100
0010
0000
0000
0000
,  // measure 27
0101
0000
0000
1010
0001
0000
1100
0000
0001
0000
0100
0001
0100
0001
1000
0100
,  // measure 28
0010
0001
1000
0001
0010
0000
0101
0000
,  // measure 29
1010
0000
0000
0101
1000
0000
0011
0000
0100
0001
0100
0010
0100
0001
1000
0000
,  // measure 30
0100
0010
0100
1000
0001
0000
1010
0000
,  // measure 31
0101
0000
0000
1010
0001
0000
1100
0000
0001
0000
0100
0010
0100
0001
1000
0100
,  // measure 32
0010
0001
1000
0001
0100
0000
0011
0000
,  // measure 33
1100
0000
0000
0011
1000
0000
0101
0000
1000
0100
1000
0001
0100
0001
1000
0100
,  // measure 34
0010
0001
1000
0010
0100
0000
0000
0000
0022
0000
0000
0000
0033
0000
0000
0000
,  // measure 35
2200
0000
0000
0000
3300
0000
0000
0000
0011
1000
0001
1000
0100
0010
0001
1000
,  // measure 36
0011
0000
0000
1100
0000
0000
0001
0000
2020
0000
0000
0000
3030
0000
0000
0000
,  // measure 37
0202
0000
0000
0000
0303
0000
0000
0000
1010
0001
1000
0001
0100
0010
1000
0001
,  // measure 38
2020
0000
3031
0000
1100
0010
1100
0001
,  // measure 39
1010
0000
0100
0000
1010
0000
0001
1000
0011
0000
0100
0000
0011
0000
1000
0000
,  // measure 40
0101
0000
0010
0000
0101
0000
1000
0001
0100
0010
1000
0001
0010
0100
0010
0001
,  // measure 41
1000
0010
0100
0001
1000
0100
0010
0001
1000
0000
0000
0000
0000
0000
0000
0000
,  // measure 42
0010
0100
0010
0000
1002
0000
1103
0001
,  // measure 43
1010
0000
0000
0101
1000
0000
0011
0000
0100
0001
0100
0001
1000
0000
0100
0000
,  // measure 44
1010
0000
0101
1000
1002
0000
1013
0001
,  // measure 45
1100
0000
0000
0011
1000
0000
0101
0000
0000
1010
0001
0000
1100
0000
0000
0011
,  // measure 46
1000
0101
1010
0000
2001
0000
3101
1000
,  // measure 47
0011
0000
0000
1100
0001
0000
1010
0000
0100
1000
0100
1000
0001
0000
0100
0000
,  // measure 48
0011
0000
1100
0001
2001
0000
3011
1000
,  // measure 49
0101
0000
0000
1010
0001
0000
1100
0000
0010
0000
0100
0001
0100
0010
0100
0000
,  // measure 50
0001
1000
0100
0000
1000
0000
0001
0000
0020
0000
0000
0000
0131
0000
1000
0000
,  // measure 51
0011
0000
0000
1100
0001
0000
1010
0000
0100
1000
0100
1000
0001
0000
0100
0000
,  // measure 52
0011
0000
1100
0001
2001
0000
3011
1000
,  // measure 53
0101
0000
0000
1010
0001
0000
1100
0000
0000
0011
1000
0000
0101
0000
0000
1010
,  // measure 54
0001
0000
0000
1100
0000
0000
0011
0000
0000
0000
0000
0000
1002
0000
0000
0000
0000
0000
1103
0000
0000
0000
0010
0000
,  // measure 55
1100
0000
0001
0000
0000
0000
1010
0000
0000
0000
0000
0000
0101
0000
0000
0010
0000
0000
0101
0000
0000
0000
1000
0000
,  // measure 56
0011
0000
0100
0000
0000
0000
0011
0000
0000
0000
0000
0000
1002
0000
0000
0000
0000
0000
1013
0000
0000
0001
0000
0000
,  // measure 57
1100
0000
0000
0011
1000
0000
0101
0000
0000
1010
0001
0000
1100
0000
0000
0011
,  // measure 58
1000
0000
0100
0010
0002
0000
0000
0000
0103
0000
0000
0000
0000
0000
0000
0000
,  // measure 59
0101
0000
0000
1001
0000
0000
1000
0000
,  // measure 60
0100
0010
0011
0000
,  // measure 61
1001
0000
0000
1020
0000
0130
0000
0000
,  // measure 62
0100
0001
0000
0001
1000
0000
0000
0000
,  // measure 63
1100
0000
0000
1001
0000
0000
0001
0000
,  // measure 64
0100
0010
1010
0000
,  // measure 65
1001
0000
0000
0021
0000
0130
0000
0000
,  // measure 66
0100
1000
1001
0001
0101
0100
0010
1000
,  // measure 67
1001
0001
0100
0011
0000
0011
0100
0001
,  // measure 68
1001
1000
0100
0010
0011
0001
1000
0010
,  // measure 69
0110
0100
0001
1010
0000
1010
0001
0100
,  // measure 70
0010
0100
0101
0000
1001
1000
0010
0100
,  // measure 71
1000
0000
0100
0000
0001
0000
1000
0100
0010
0000
0001
0000
0010
0000
0100
0000
,  // measure 72
0001
0000
0100
0010
0100
1000
0001
0000
0100
0010
1000
0010
0100
0001
1000
0100
,  // measure 73
0010
0100
1000
0001
0100
0010
1000
0001
0010
0000
0100
0000
0001
0000
0100
0000
,  // measure 74
1000
0001
1000
0000
0011
0100
0011
1000
,  // measure 75
0011
0000
0100
0001
1000
0000
0100
0000
1010
0000
0001
0000
1010
0000
0100
0000
,  // measure 76
1010
0001
1000
0010
1100
0001
1100
0010
,  // measure 77
1100
0000
0001
1000
0010
0000
0100
0000
0001
0000
1000
0000
0100
0000
0010
0000
,  // measure 78
1000
0010
0100
1000
0011
0100
0011
0100
,  // measure 79
0011
0000
0100
0011
1000
0000
0100
0000
1010
0000
0001
0000
1010
0000
0100
0000
,  // measure 80
1010
0000
0001
1000
0001
0100
0010
0000
1100
0000
0001
0000
1100
0000
0010
0000
,  // measure 81
1100
0000
0001
1010
0000
0000
0101
0000
0000
0000
1000
0001
1000
0100
0020
0000
,  // measure 82
0031
1000
0001
0000
0200
0000
0000
0000
0300
0000
0000
0000
0011
0000
1100
0000
,  // measure 83
0011
0000
0000
1100
0001
0000
1010
0000
0101
0000
0000
1010
0001
0000
1100
0000
,  // measure 84
0011
0000
0000
1000
0101
0010
0101
1000
0101
0000
0000
0000
1010
0000
0101
0000
,  // measure 85
1010
0000
0000
0101
1000
0000
0011
0000
1100
0000
0000
0011
1000
0000
0101
0000
,  // measure 86
1010
0000
0000
0001
1100
0010
1100
0001
1100
0000
0001
1000
0100
1000
0001
0100
,  // measure 87
0010
0000
1000
0001
0010
0001
1000
0010
0100
0000
0001
1000
0001
0010
0001
1000
,  // measure 88
0010
0000
0100
0001
1000
0100
0010
0000
0001
0010
0100
1000
0001
0100
0010
0000
,  // measure 89
1100
0000
0000
0011
0000
0000
1100
0000
0101
0000
0000
1010
0000
0000
0101
0000
,  // measure 90
0000
1010
0000
0000
1002
0000
0000
0000
0103
0000
0000
0000
0000
0000
0000
0000
,  // measure 91
0101
0000
0000
0001
0000
1000
0000
0000
,  // measure 92
1100
0000
0011
0000
,  // measure 93
1100
0000
0000
1211
0000
0300
0000
0000
;
