#TITLE:Cold Summer;
#SUBTITLE:;
#ARTIST:Myon ft. ICON;
#TITLETRANSLIT:;
#SUBTITLETRANSLIT:;
#ARTISTTRANSLIT:;
#GENRE:;
#CREDIT:;
#BANNER:;
#BACKGROUND:;
#LYRICSPATH:;
#CDTITLE:;
#MUSIC:Myon - Cold Summer (ft. Icon) (Edit).mp3;
#OFFSET:-0.386;
#SAMPLESTART:63.958;
#SAMPLELENGTH:15.000;
#SELECTABLE:YES;
#BPMS:0.000=126.000
;
#STOPS:
;
#BGCHANGES:;
#KEYSOUNDS:;
#ATTACKS:;

//---------------dance-single - D4rkFl4m1n90----------------
#NOTES:
     dance-single:
     D4rkFl4m1n90:
     Hard:
     11:
     0.462,0.418,0.000,0.300,0.281,303.000,0.000,31.000,0.000,0.000,0.000,0.462,0.418,0.000,0.300,0.281,303.000,0.000,31.000,0.000,0.000,0.000:
0000
0000
0000
0000
,
0000
0000
0000
0000
,
0200
0000
0000
0010
0000
0000
0001
0000
0000
0010
0000
0000
0301
0000
1000
0000
,
0002
0000
0000
0010
0000
0000
0100
0000
0000
0010
0000
0000
0103
0000
0010
0000
,
2000
0000
0000
0100
0000
0000
0001
0000
0000
0100
0000
0000
3001
0000
0010
0000
,
0200
0000
0000
0001
0000
0000
1000
0000
0000
0001
0000
0000
1300
0000
0001
0000
,
0020
0000
0000
0100
0000
0000
1000
0000
0000
0100
0000
0000
1030
0000
0100
0000
,
2000
0000
0000
0100
0000
0000
0001
0000
0000
0100
0000
0000
3001
0000
0010
0000
,
0002
0000
0000
0010
0000
0000
0100
0000
0000
0010
0000
0000
0103
0000
0010
0000
,
0100
0000
0000
1000
0000
0000
0010
0000
0001
0000
0100
0000
0001
0000
0100
0000
,
0000
0100
0000
0010
1000
0000
1000
0001
,
1000
0000
0000
0100
0000
0000
0010
0000
1000
0000
0001
0000
1000
0000
0100
0000
,
0000
0100
0000
0010
0001
1000
0010
0100
,
0001
0000
0000
0001
0000
0000
0001
0000
1000
0000
0010
0000
0100
0000
0010
0000
,
0000
1000
0000
0100
0010
0000
0100
1000
,
0001
0000
0010
0100
0010
0000
0100
1000
,
0010
0000
0000
0100
0000
0000
1000
0000
0000
0100
0000
0000
0010
0000
1000
0000
,
0001
0000
0000
0010
0000
0000
0100
0000
1000
0000
0100
0000
1000
0000
0010
0000
,
0000
0100
0000
1000
0010
0000
0100
0010
,
0001
0000
0000
0100
0000
0000
0001
0000
0010
0000
0100
0000
0010
0000
1000
0000
,
0000
0001
0000
0100
1000
0100
1000
0010
,
0100
0000
0000
0100
0000
0000
0100
0000
0001
0000
1000
0000
0001
0000
1000
0000
,
0000
0001
0000
0100
0010
0000
0100
1000
,
0000
0001
0010
1000
0010
1000
0001
1000
,
0100
0000
0000
0010
0000
0000
0100
0000
0000
1000
0000
0000
0010
0000
0100
0000
,
0001
0000
0000
1000
0000
0000
0001
0000
0100
0000
0100
0000
0001
0000
2000
0000
,
0000
0000
3100
0010
0100
0100
0010
0002
,
0000
0000
0103
0010
2000
0000
3100
0020
,
0000
0100
0000
1030
0000
0100
1000
0001
,
0100
0000
0000
0010
0000
0000
0100
0000
0001
0000
0001
0000
1000
0000
0200
0000
,
0000
0000
0300
1000
0010
1000
1000
0200
,
0000
0310
0001
1000
1000
0010
0100
0002
,
0000
1003
0200
0000
1300
0000
0001
0010
,
0100
0000
0000
1000
0000
0000
0010
0000
0001
0000
0100
0000
0001
0000
0000
0000
,
0200
0000
0000
1000
0000
0000
0010
0000
0000
0001
0000
0000
0310
0000
1000
0000
,
2000
0000
0000
0100
0000
0000
0001
0000
0000
0010
0000
0000
3100
0000
0100
0000
,
0020
0000
0000
1000
0000
0000
0100
0000
0000
0001
0000
0000
0130
0000
0001
0000
,
0001
0000
0000
0100
0000
0000
0001
0000
0100
0000
1000
0000
0100
0000
0001
0000
,
2000
0000
0000
0100
0000
0000
0010
0000
0000
0001
0000
0000
3010
0000
0100
0000
,
0200
0000
0000
0001
0000
0000
1000
0000
0000
0010
0000
0000
0301
0000
0010
0000
,
0020
0000
0000
0001
0000
0000
0100
0000
0000
1000
0000
0000
0130
0000
1000
0000
,
1000
0000
0001
0001
0000
0010
0001
0100
,
2000
0000
0000
0100
0000
0000
3001
0000
0000
1000
0100
0000
0010
0000
0001
0000
,
0200
0000
0000
0001
0000
0000
1300
0000
0000
0010
1000
0000
0100
0000
0001
0000
,
0020
0000
0000
0001
0000
0000
1030
0000
0000
0100
0001
0000
1000
0000
0100
0000
,
2000
0000
0000
0001
0000
0000
3010
0000
0000
0100
0010
0000
0001
0000
1000
0100
,
2000
0000
0000
0010
0000
0000
3100
0000
0000
0010
0001
0000
0100
0000
0010
0000
,
0002
0000
0000
0100
0000
0000
1003
0000
0000
0100
0001
0000
1000
0000
0010
0000
,
0200
0000
0000
0001
0000
0000
1300
0000
0000
0001
0010
0000
1000
0000
0100
0000
,
0020
0000
0000
1000
0000
0000
0130
0000
0000
0001
0010
0000
0100
0000
1000
0001
,
2000
0002
3000
0003
;

//---------------dance-single - ----------------
#NOTES:
     dance-single:
     :
     Challenge:
     14:
     0.642,0.593,0.019,0.068,0.663,455.000,2.000,7.000,0.000,0.000,0.000,0.642,0.593,0.019,0.068,0.663,455.000,2.000,7.000,0.000,0.000,0.000: // measure 0
0000
0000
0000
0000
,  // measure 1
0000
0000
0000
0000
,  // measure 2
1000
0000
0100
1000
0000
0010
0100
0000
0001
1000
0001
0000
0100
0000
0010
0000
,  // measure 3
1000
0000
0001
0010
0000
0100
1000
0000
0100
0010
0100
0000
0001
0000
0010
0000
,  // measure 4
0001
0000
0010
0001
0000
0100
0010
0000
1000
0001
1000
0000
0010
0000
0100
0000
,  // measure 5
0001
0000
1000
0100
0000
0010
0001
0000
0010
0100
0010
0000
1000
0000
0100
0000
,  // measure 6
0010
0000
0100
1000
0000
0010
0100
0000
1000
0010
1000
0000
0010
0000
0001
0000
,  // measure 7
0100
0000
0010
0100
0000
1000
0100
0000
0001
1000
0001
0000
0010
0000
1000
0000
,  // measure 8
0100
0000
0010
0001
0000
0100
0010
0000
0001
0100
0001
0000
0100
0000
1000
0000
,  // measure 9
0010
0000
0100
0010
0000
0001
0010
0000
1000
0000
0001
0000
0010
0100
1000
0000
,  // measure 10
0000
0000
0100
0000
0000
0000
1000
0000
0010
0100
0001
0000
1000
0000
0100
0000
,  // measure 11
0000
0000
1000
0000
0000
0000
0100
0000
1000
0100
0001
0000
1000
0000
0001
0000
,  // measure 12
0000
0000
0010
0000
0000
0000
1000
0000
0001
0010
1000
0000
0001
0000
0100
0000
,  // measure 13
0000
0000
1000
0000
0000
0000
0010
0000
0001
0100
0010
0000
1000
0000
0001
0000
,  // measure 14
0000
0000
0100
0000
0000
0000
1000
0000
0100
1000
0010
0000
0001
0000
0010
0000
,  // measure 15
0000
0000
1000
0000
0001
0010
1000
0000
0001
0000
0100
1000
0001
0000
0010
0000
,  // measure 16
0100
0000
0000
0100
0000
0000
0100
0000
1000
0010
0001
0010
1000
0000
0001
0000
,  // measure 17
0100
0000
0000
0100
0000
0000
0100
0000
0001
0010
1000
0000
0100
0000
1000
0000
,  // measure 18
0000
0000
0010
0000
0000
0000
0001
0000
0100
0010
0001
0000
0100
0000
1000
0000
,  // measure 19
0000
0000
0010
0000
0000
0000
0100
0000
0010
0001
1000
0000
0010
0000
0100
0000
,  // measure 20
0000
0000
1000
0000
0000
0000
0010
0000
0100
0001
1000
0000
0100
0000
0001
0000
,  // measure 21
0000
0000
0010
0000
0000
0000
1000
0000
0100
1000
0001
0000
0010
0000
0100
0000
,  // measure 22
0000
0000
0001
0000
0000
0000
0010
0000
0001
0010
1000
0000
0100
0000
0001
0000
,  // measure 23
0000
0000
1000
0000
0010
0001
0100
0000
1000
0000
0001
0010
1000
0000
0100
0000
,  // measure 24
0010
0000
0000
0010
0000
0000
0010
0000
0001
0100
1000
0100
0001
0000
1000
0000
,  // measure 25
0010
0000
0000
0010
0000
0000
0010
0000
0001
0100
0001
0000
0010
0000
1000
0010
,  // measure 26
2000
0000
0000
0000
3100
0000
0010
0000
0001
1000
0001
0000
0100
0000
0010
0001
,  // measure 27
0020
0000
0000
0000
0031
0000
1000
0000
0100
0001
0100
0000
0010
0000
1000
0100
,  // measure 28
1000
0000
0010
0001
0000
0010
1000
0000
0100
0010
0100
1000
0100
0000
0001
0000
,  // measure 29
0010
0000
1000
0010
0000
0001
0010
0000
0100
0000
1000
0001
2000
0000
0010
0000
,  // measure 30
3100
0000
0000
0000
1000
0000
0010
0000
0001
0000
0010
0100
0020
0000
1000
0000
,  // measure 31
0031
0000
0000
0000
0100
0000
0001
0000
0010
0000
0100
0001
0200
0000
0001
0000
,  // measure 32
0310
0000
0100
1000
0000
0001
0100
0000
1000
0010
0001
0010
1000
0000
0001
0000
,  // measure 33
0100
0000
0010
1000
0000
0001
0010
0000
0100
0000
0010
0000
0100
0000
0000
0000
,  // measure 34
1000
0000
1000
0010
0000
0010
0100
0000
0100
0001
1000
0001
0010
0000
0100
0000
,  // measure 35
0010
0000
0010
0001
0000
0001
1000
0000
1000
0010
0100
0001
0010
0000
0100
0000
,  // measure 36
1000
0000
1000
0100
0000
0100
0001
0000
0001
0010
1000
0010
0001
0000
0100
0000
,  // measure 37
1000
0000
1000
0010
0000
0010
0001
0000
0001
0010
1000
0100
0001
0000
0100
0000
,  // measure 38
0001
0000
0001
0100
0000
0100
0010
0000
0010
1000
0001
1000
0100
0000
0010
0000
,  // measure 39
0100
0000
0100
1000
0000
1000
0001
0000
0001
0100
0010
1000
0100
0000
0010
0000
,  // measure 40
0001
0000
0001
0010
0000
0010
1000
0000
1000
0100
0001
0100
1000
0000
0010
0000
,  // measure 41
0001
0000
0001
0100
0000
0100
1000
0000
1000
0100
0001
0010
1000
0000
0100
0000
,  // measure 42
1000
0001
0000
1000
0001
0000
0100
0000
0001
1000
0000
0001
1000
0000
0100
0000
,  // measure 43
1000
0001
0000
0001
1000
0000
0010
0000
1000
0100
1000
0000
0001
0100
0001
0100
,  // measure 44
0001
1000
0000
0001
1000
0000
0100
0000
1000
0001
0000
1000
0001
0000
0100
0000
,  // measure 45
0001
1000
0000
1000
0001
0000
0010
0000
0001
0100
0001
0000
1000
0100
1000
0100
,  // measure 46
1000
0001
0000
1000
0001
0000
0010
0000
0001
1000
0000
0001
1000
0000
0010
0000
,  // measure 47
1000
0001
0000
0001
1000
0000
0100
0000
1000
0010
1000
0000
0001
0010
0001
0010
,  // measure 48
0001
1000
0000
0001
1000
0000
0010
0000
1000
0001
0000
1000
0001
0000
0010
0000
,  // measure 49
0001
1000
0000
1000
0001
0000
1001
0000
0001
0010
0001
0010
0100
1000
0100
1000
,  // measure 50
2002
0000
0000
0000
,  // measure 51
3003
0000
0000
0000
;
