#TITLE:Coconut Airport;
#SUBTITLE:;
#ARTIST:Ayako Saso;
#TITLETRANSLIT:;
#SUBTITLETRANSLIT:;
#ARTISTTRANSLIT:;
#GENRE:;
#CREDIT:;
#BANNER:coconutairport-bn.png;
#BACKGROUND:coconutairport-bg.png;
#LYRICSPATH:;
#CDTITLE:cdtitle.png;
#MUSIC:coconutairport.ogg;
#OFFSET:-0.038912;
#SAMPLESTART:37.520905;
#SAMPLELENGTH:9.375000;
#SELECTABLE:YES;
#BPMS:0.000000=128.000000
;
#STOPS:
;
#BGCHANGES:;
#KEYSOUNDS:;
#ATTACKS:;

//---------------dance-single - ----------------
#NOTES:
     dance-single:
     :
     Hard:
     11:
     0.565734,0.574569,0.673136,0.209809,0.275374,453.000000,376.000000,77.000000,24.000000,0.000000,0.000000,0.565734,0.574569,0.673136,0.209809,0.275374,453.000000,376.000000,77.000000,24.000000,0.000000,0.000000:
// measure 0
0000
0000
0000
0000
,  // measure 1
0000
0000
0000
0000
,  // measure 2
0000
0000
0000
0000
1010
0000
0000
2002
0000
0000
0000
0000
3003
0000
0000
0000
,  // measure 3
0000
0000
0000
0000
0011
0000
0000
1002
0000
0000
0100
0000
0103
0000
0010
0000
,  // measure 4
1000
0000
0100
0000
0001
0000
0000
1100
0000
0000
0100
0000
0010
0000
0000
0000
,  // measure 5
0001
0000
0100
0000
1000
0000
0000
0101
0000
0000
0100
0000
0010
0000
0000
0000
,  // measure 6
1000
0000
0010
0000
1000
0000
0000
0110
0000
0000
0001
0000
1000
0000
0000
0000
,  // measure 7
0100
0010
0100
0010
0000
0001
0010
0001
0000
1000
0010
1000
0000
0001
0100
0010
,  // measure 8
2000
0000
0000
0001
0000
0000
3001
0000
0010
0000
0001
0000
1100
0000
0000
0000
,  // measure 9
0002
0000
0000
1000
0000
0000
1003
0000
0010
0000
1000
0000
0101
0000
0000
0000
,  // measure 10
2000
0000
0000
0001
0000
0000
3001
0000
0100
0000
1000
0000
0101
0000
0000
0000
,  // measure 11
0002
0000
0000
1000
0000
0000
1003
0000
0100
0000
0001
0000
1100
0000
0000
0000
,  // measure 12
0001
0000
0000
0010
0000
0000
0001
0000
1000
0000
0100
0000
0101
0000
0000
0000
,  // measure 13
1000
0000
0000
0010
0000
0000
1000
0000
0001
0000
0100
0000
1100
0000
0000
0000
,  // measure 14
0001
0000
0000
0100
0000
0000
1000
0000
0100
0000
0010
0000
0110
0000
0000
0000
,  // measure 15
1000
0000
0000
0100
0000
0000
0001
0000
0100
0000
0010
0000
0001
0000
1000
0000
,  // measure 16
1010
0000
0000
1001
0000
0000
1010
0000
1000
0000
0001
0000
0100
0000
0000
0000
,  // measure 17
0011
0000
0000
1001
0000
0000
0011
0000
0001
1000
0000
0000
0001
1000
0000
0000
,  // measure 18
0101
0000
0000
1001
0000
0000
0101
0000
0001
0000
1000
0000
0010
0000
0000
0000
,  // measure 19
1100
0000
0000
1001
0000
0000
1100
0000
0100
0010
0000
0100
0000
0010
0001
0000
,  // measure 20
0110
0000
0000
0011
0000
0000
0110
0000
0100
0000
1000
0000
0010
0000
0000
0000
,  // measure 21
0110
0000
0000
0101
0000
0000
0110
0000
1000
0001
0000
0000
1000
0001
0000
0000
,  // measure 22
0110
0000
0000
1010
0000
0000
0110
0000
0100
0000
0001
0000
0010
0000
0000
0000
,  // measure 23
0110
0000
0000
1100
0000
0000
0110
0000
0001
0000
1000
0000
0010
0000
0100
0000
,  // measure 24
0001
0100
1000
0100
0001
0010
1000
0010
,  // measure 25
0001
0100
0010
1000
0011
0000
1010
0000
,  // measure 26
1000
0100
0001
0100
1000
0010
0001
0010
,  // measure 27
1000
0100
0010
0001
1010
0000
0011
0000
,  // measure 28
0001
0010
0001
1000
0010
0100
0101
0000
,  // measure 29
1000
0010
1000
0001
0010
0100
1100
0000
,  // measure 30
0001
0100
1000
0100
0010
1000
1001
0000
,  // measure 31
1000
0000
0100
0000
0001
0000
0100
0000
0010
0100
0010
0000
0110
0000
0000
0000
,  // measure 32
0001
0100
0001
0010
0001
0100
1000
0010
,  // measure 33
0001
0010
1000
0010
0011
0000
1001
0000
,  // measure 34
1000
0100
1000
0010
1000
0100
0001
0010
,  // measure 35
1000
0010
0001
0010
1010
0000
1001
0000
,  // measure 36
0001
0010
0001
1000
0100
0001
1100
0000
,  // measure 37
1000
0010
1000
0001
0100
1000
0101
0000
,  // measure 38
0100
0010
0100
0001
0010
1000
0011
0000
,  // measure 39
1001
0000
0000
1000
0000
0000
1000
0000
1001
0000
0000
0001
0000
0000
0001
0000
,  // measure 40
1000
0000
0010
0000
1000
0001
0000
0010
0100
0000
1000
0000
0100
0000
0001
0000
,  // measure 41
0101
0000
0000
1000
0000
0000
2200
0000
0000
0000
0000
0000
3300
0000
0000
0000
,  // measure 42
0001
0000
0010
0000
0001
1000
0000
0010
0100
0000
0001
0000
0100
0000
1000
0000
,  // measure 43
1100
0000
0000
0001
0000
0000
0202
0000
0300
0000
1003
0000
0100
0000
0010
0000
,  // measure 44
0001
0000
1000
0000
0001
0100
0000
0010
1000
0000
0001
0000
0010
0000
1000
0000
,  // measure 45
1010
0000
0000
0001
0000
0000
0022
0000
0000
0000
0000
0000
0033
0000
0000
0000
,  // measure 46
1000
0000
0001
0000
1000
0100
0000
0010
0001
0000
1000
0000
0010
0000
0001
0000
,  // measure 47
0011
0000
0000
1000
0000
0000
2020
0000
0030
0000
3001
0000
0010
0000
0100
0000
,  // measure 48
2000
0000
0000
0001
0000
0000
3001
0000
0010
0000
0001
0000
1000
0000
0000
0000
,  // measure 49
0002
0000
0000
1000
0000
0000
1003
0000
0010
0000
1000
0000
0001
0000
0000
0000
,  // measure 50
0200
0000
0000
0010
0000
0000
0310
0000
0100
0000
0001
0000
0010
0000
0000
0000
,  // measure 51
0200
0000
0000
0010
0000
0000
0310
0000
0100
0000
1000
0000
0010
0000
0000
0000
,  // measure 52
1010
0000
0000
1001
0000
0000
1010
0000
0001
0000
0010
0000
0100
0000
0000
0000
,  // measure 53
1100
0000
0000
1001
0000
0000
1100
0000
0001
0000
0100
0000
0010
0000
0000
0000
,  // measure 54
0110
0000
0000
1010
0000
0000
0110
0000
0100
0000
0001
0000
1000
0000
0000
0000
,  // measure 55
0110
0000
0000
0011
0000
0000
0110
0000
0100
0000
1000
0000
0001
0000
0100
0000
,  // measure 56
0010
0001
0010
1000
0001
0010
0100
1000
,  // measure 57
0200
0302
0023
2030
,  // measure 58
0002
0000
0000
3003
,  // measure 59
1001
0000
1000
0001
0000
0100
0010
0100
0010
0110
0000
0000
;

//---------------dance-single - ----------------
#NOTES:
     dance-single:
     :
     Medium:
     8:
     0.377156,0.417869,0.314713,0.017484,0.074307,302.000000,266.000000,36.000000,2.000000,0.000000,0.000000,0.377156,0.417869,0.314713,0.017484,0.074307,302.000000,266.000000,36.000000,2.000000,0.000000,0.000000:
0000
0000
0000
0000
,
0000
0000
0000
0000
,
0000
0000
0000
0000
1000
0000
0000
1000
0000
0000
0000
0000
0000
0000
0000
0000
,
0000
0000
0000
0000
0001
0000
0000
0001
0000
0000
0000
0000
0100
0000
0010
0000
,
1000
0000
0010
0000
0001
0000
0000
1010
0000
0000
0000
0000
1000
0000
0000
0000
,
0001
0000
0010
0000
1000
0000
0000
0011
0000
0000
0000
0000
0001
0000
0000
0000
,
0100
0010
1000
0000
0011
0000
0001
0000
,
0000
0010
0100
0010
0000
0001
1000
0001
,
1001
0000
1000
0001
0000
1000
0010
0000
,
0101
0000
1000
0100
0000
1000
0001
0000
,
1001
0000
0001
1000
0000
0001
0100
0000
,
1010
0000
0001
0010
0000
0001
1000
0000
,
0011
0000
1000
0100
0000
0001
0100
0000
,
1100
0000
0001
0100
0000
0010
1000
0000
,
1010
0000
0001
0100
0000
1000
0100
0000
,
0101
0000
1000
0100
0000
0010
0001
0010
,
0001
0000
0000
0001
0000
0000
0001
0000
0000
0000
0100
0000
0010
0000
0000
0000
,
1000
0000
0000
1000
0000
0000
1000
0000
0010
0000
0000
0000
0110
0000
0000
0000
,
0100
0000
0000
0100
0000
0000
0100
0000
0000
0000
0001
0000
1000
0000
0000
0000
,
0010
0000
0000
0010
0000
0000
0010
0000
0000
1000
0000
0001
0000
1000
0000
0000
,
0001
0000
0000
0010
0000
0000
0001
0000
0000
0000
1000
0000
0100
0000
0000
0000
,
0010
0000
0000
0100
0000
0000
0010
0000
0001
0000
0000
0000
1001
0000
0000
0000
,
1000
0000
0000
0010
0000
0000
1000
0000
0000
0000
0001
0000
0100
0000
0000
0000
,
0010
0000
0000
0100
0000
0000
0010
0000
0000
0000
1000
0000
0001
0000
1000
0000
,
0000
0001
0000
0100
0000
1000
0000
0010
,
0000
0001
0000
0010
0100
0000
0110
0000
,
0000
1000
0000
0100
0000
0001
0000
0010
,
0000
1000
0000
0010
0100
0000
0110
0000
,
0000
0001
0000
0010
0000
0001
1000
0000
,
0000
1000
0000
0010
0000
1000
0001
0000
,
0000
0010
0000
0100
0000
1000
0001
0000
,
0000
0100
0000
0010
1000
0001
1000
0000
,
0000
0001
0000
0100
0000
1000
0000
0100
,
0000
0010
0000
1000
0001
0000
1001
0000
,
0000
0001
0000
0010
0000
1000
0000
0010
,
0000
0100
0000
1000
0001
0000
1001
0000
,
0000
1000
0000
1000
0000
0001
0010
0000
,
0000
0001
0000
0001
0000
1000
0010
0000
,
0000
0100
0000
0100
0000
0001
1000
0000
,
0110
0000
0001
0010
0001
0000
1000
0001
,
1001
0000
1010
0000
1000
0001
0100
0000
,
0011
0000
0000
1100
0000
0000
0000
0000
,
1001
0000
0101
0000
0001
1000
0010
0000
,
1100
0000
0000
0011
0000
0001
1000
0001
,
1001
0000
0101
0000
0100
0010
1000
0000
,
1100
0000
0000
0011
0000
0000
0000
0000
,
1001
0000
1100
0000
0100
0010
0001
0000
,
0101
0000
0000
1010
0000
1000
0001
1000
,
0010
0000
0100
0000
0001
1000
0100
0000
,
0010
0000
0100
0000
1000
0001
0100
0000
,
0010
0000
1000
0000
0001
0010
0100
0000
,
0010
0000
0001
0000
1000
0010
0100
0000
,
0001
0000
0100
0000
1000
0100
0001
0000
,
1000
0000
0100
0000
0001
0100
1000
0000
,
0010
0000
0100
0000
0001
0010
1000
0000
,
0010
0000
0100
0000
1000
0010
0001
0010
,
2000
3000
0001
0001
,
0001
0100
1000
0010
,
0200
0000
0000
0300
,
1001
0000
0000
0110
0000
0000
0001
1000
0001
1000
0000
0000
;

//---------------dance-single - ----------------
#NOTES:
     dance-single:
     :
     Easy:
     5:
     0.317211,0.339518,0.358423,0.104904,0.000000,254.000000,213.000000,41.000000,12.000000,0.000000,0.000000,0.317211,0.339518,0.358423,0.104904,0.000000,254.000000,213.000000,41.000000,12.000000,0.000000,0.000000:
0000
0000
0000
0000
,
0000
0000
0000
0000
,
0000
2000
0000
3000
,
0000
0002
0000
0103
,
0010
1000
0001
0000
,
0010
0001
1000
0000
,
0010
0100
0001
0000
,
0000
1000
0000
1000
0000
0001
0000
0001
,
1000
0010
1000
0011
,
1000
0100
1000
0101
,
0001
0010
0001
1010
,
0001
0100
0001
1100
,
0100
0010
0100
1001
,
1000
0001
1000
0110
,
0010
0100
0010
1001
,
0001
1000
0001
0100
,
0020
0000
0000
1030
0000
0001
0001
0000
,
0020
0031
1000
0001
,
0200
0000
0000
0301
0000
1000
1000
0000
,
0200
0000
0000
1300
0000
0100
0100
0100
,
2000
0000
0000
3001
0000
0010
0010
0000
,
0002
1003
0010
0100
,
0002
0000
0000
1003
0000
0100
0100
0000
,
2000
0000
0000
3001
0000
0000
0110
0000
,
0001
0100
1000
0100
,
0010
1000
0011
1001
,
1000
0100
0001
0100
,
0010
0001
0011
1001
,
0000
0010
0010
1001
,
0000
0100
0100
1001
,
0000
0010
0010
1001
,
1000
0010
0100
0001
,
1000
0100
0001
0010
,
1000
0001
0101
1100
,
0001
0100
1000
0010
,
0001
1000
1100
0101
,
0000
0100
0100
1001
,
0000
0010
0010
1001
,
0000
0100
0100
1001
,
1000
1000
1000
0000
0001
0001
0001
0000
,
1100
0100
0010
0100
,
1000
0001
1001
0000
,
0101
0100
0010
0100
,
0001
1000
1001
0000
,
0011
0010
1000
0010
,
0001
0100
0110
0000
,
1010
0010
0001
0010
,
1000
0100
0110
1001
,
0001
0010
0001
1010
,
0001
0100
0001
1100
,
1000
0010
1000
0011
,
1000
0100
1000
0101
,
0100
0010
0100
1001
,
1000
0001
1000
0110
,
0010
0100
0010
1001
,
0001
1000
0001
0110
,
2000
0000
3010
0010
,
0100
0001
0100
1000
,
0200
0000
0000
0300
,
0010
0010
1001
0110
;

//---------------dance-single - ----------------
#NOTES:
     dance-single:
     :
     Beginner:
     4:
     0.167347,0.208934,0.218551,0.131130,0.000000,134.000000,109.000000,25.000000,15.000000,0.000000,0.000000,0.167347,0.208934,0.218551,0.131130,0.000000,134.000000,109.000000,25.000000,15.000000,0.000000,0.000000:
0000
0000
0000
0000
,
0000
0000
0000
0000
,
2000
0000
3000
0000
,
0002
0000
0003
0000
,
0100
0000
0001
0000
,
0010
0000
0001
0000
,
2002
0000
3003
0000
,
0100
0100
0100
0100
,
0100
0000
1001
0000
,
0010
0000
1001
0000
,
0001
0000
1001
0000
,
1000
0000
1001
0000
,
0100
0000
1001
0000
,
0010
0000
1001
0000
,
1000
0000
1001
0000
,
0001
0000
1001
0000
,
2000
0000
0000
0000
,
3000
0000
0001
0001
,
0002
0000
0000
0000
,
0003
0000
0100
0100
,
0200
0000
0000
0000
,
0300
0000
0010
0010
,
0020
0000
0000
0000
,
0030
0000
1001
0000
,
0110
0000
0000
0001
,
0001
0000
1000
0000
,
0110
0000
0000
1000
,
1000
0000
0001
0000
,
0200
0000
0300
0000
,
0020
0000
0030
0000
,
0200
0000
0300
0000
,
0001
0000
1000
0000
,
0110
0000
0000
1000
,
1000
0000
0001
0000
,
0110
0000
0000
0001
,
0001
0000
1000
0000
,
0200
0000
0300
0000
,
0020
0000
0030
0000
,
0200
0000
0300
0000
,
1001
0000
0110
0000
,
0001
0001
0001
0000
,
0010
0000
0001
0000
,
1000
1000
1000
0000
,
0010
0000
0100
0000
,
0001
0001
0001
0000
,
0100
0000
0001
0000
,
1000
1000
1000
0000
,
0100
0000
1000
0000
,
1001
0000
0010
0000
,
1001
0000
0100
0000
,
1001
0000
1000
0000
,
1001
0000
0001
0000
,
1001
0000
0010
0000
,
1001
0000
0100
0000
,
1001
0000
1000
0000
,
1001
0000
0001
0000
,
0110
0000
0000
0001
,
0001
0000
1000
0000
,
0020
0000
0030
0000
,
0100
0100
0100
0100
;
