#TITLE:Cloud Crasher;
#SUBTITLE:;
#ARTIST:Hommarju;
#TITLETRANSLIT:;
#SUBTITLETRANSLIT:;
#ARTISTTRANSLIT:;
#GENRE:;
#CREDIT:;
#MENUCOLOR:;
#METERTYPE:DDR;
#BANNER:Cloud Crasher.png;
#BACKGROUND:Cloud Crasher-bg.png;
#LYRICSPATH:;
#CDTITLE:./CDTITLES/SOUND VOLTEX.PNG;
#MUSIC:Cloud Crasher.ogg;
#OFFSET:0.000;
#SAMPLESTART:21.600;
#SAMPLELENGTH:15.000;
#SELECTABLE:YES;
#LISTSORT:;
#BPMS:0.000=200.000;
#STOPS:;
#BGCHANGES:;
#ATTACKS:;

//---------------dance-single - ----------------
#NOTES:
     dance-single:
     :
     Challenge:
     15:
     0.802,0.910,1.000,0.093,0.000: // measure 1
0000
0000
0000
0000
,  // measure 2
0000
0000
0000
0000
,  // measure 3
0000
0000
0000
0000
,  // measure 4
0000
0000
0000
0000
,  // measure 5
0000
0000
0000
0000
,  // measure 6
0000
0000
0000
0000
,  // measure 7
0000
0000
0000
0000
,  // measure 8
0000
0000
0000
0000
,  // measure 9
0000
0000
0000
0000
,  // measure 10
0000
0000
0000
0000
,  // measure 11
1100
0110
0011
1001
,  // measure 12
0001
0100
0010
0100
0001
0010
0100
0000
,  // measure 13
0011
1001
0101
0110
,  // measure 14
0010
1000
0100
1000
0010
1000
0001
0000
,  // measure 15
1010
0110
0101
1001
,  // measure 16
0100
1000
0010
1000
0001
0100
0010
0000
,  // measure 17
1000
0100
1000
0100
0010
0001
0010
0001
,  // measure 18
2000
0010
0100
3001
,  // measure 19
1001
0000
1100
0100
1000
0010
1000
0001
,  // measure 20
1000
0100
0010
0001
1000
0010
0100
0001
,  // measure 21
1001
0000
0101
0100
0001
0010
0001
1000
,  // measure 22
0001
0100
0010
1000
0001
0010
0100
1000
,  // measure 23
1010
0000
0110
0010
1000
0100
0010
0100
,  // measure 24
1000
0001
0100
0001
1000
0010
0100
0001
,  // measure 25
0101
0000
0110
0010
1000
0001
0100
0001
,  // measure 26
1000
0100
0001
0100
1000
0001
1001
0000
,  // measure 27
0110
0000
0011
1100
0000
0101
0000
1010
,  // measure 28
0000
0001
0010
0100
1000
0010
0100
0001
,  // measure 29
1001
0000
1100
0011
0000
1010
0000
0101
,  // measure 30
0000
1000
0100
0010
0001
0100
0010
1000
,  // measure 31
1010
0000
0101
1100
0000
0011
0000
1010
,  // measure 32
0000
0001
0010
0100
1000
0010
0001
0010
,  // measure 33
0110
0000
1010
0011
0000
1100
0000
0101
,  // measure 34
0000
1000
0100
0010
0001
0100
1000
0100
,  // measure 35
0220
0000
0000
0000
,  // measure 36
0000
0000
0000
0330
,  // measure 37
0020
0000
0000
0000
,  // measure 38
0000
0000
0000
0000
0000
1030
0001
0100
,  // measure 39
0001
1000
2100
0000
3010
0000
1001
0000
,  // measure 40
1000
0001
0102
0000
0013
0000
1001
0000
,  // measure 41
0001
1010
1000
0011
,  // measure 42
1000
0100
0001
0100
1000
0000
0110
0000
,  // measure 43
0011
0000
0000
0101
0000
0000
0011
0000
,  // measure 44
0000
1001
0000
0000
0101
0000
1001
0000
,  // measure 45
1100
0000
0000
1010
0000
0000
1001
0000
,  // measure 46
0000
1100
0000
0000
0110
0000
1001
0000
,  // measure 47
0110
0000
0000
0101
0000
0000
0110
0000
,  // measure 48
0000
1010
0000
0000
1100
0000
0101
0000
,  // measure 49
1100
0000
0000
0110
0000
0000
0011
0000
,  // measure 50
0000
1001
0000
0000
0110
0000
1001
0000
,  // measure 51
0101
0000
1010
0101
0000
0011
1100
0000
,  // measure 52
1010
0101
0000
0011
1100
0000
1001
0000
,  // measure 53
0110
0000
0101
1010
0000
1100
0011
0000
,  // measure 54
0101
1010
0000
1100
0011
0000
1001
0000
,  // measure 55
0110
1100
0101
0011
,  // measure 56
0110
0101
1100
0110
,  // measure 57
0001
0010
0100
1000
0001
0010
1000
0010
,  // measure 58
0002
0000
0000
1003
,  // measure 59
1001
0000
1100
0100
1000
0100
0001
0100
,  // measure 60
1000
0100
0010
0001
1000
0010
0100
0001
,  // measure 61
1001
0000
0101
0100
0001
0100
1000
0100
,  // measure 62
0001
0010
0100
1000
0001
0100
0010
1000
,  // measure 63
1010
0000
0110
0010
1000
0010
0001
0010
,  // measure 64
1000
0100
0010
0001
1000
0001
0100
0010
,  // measure 65
0110
0000
0101
0100
0001
0100
1000
0100
,  // measure 66
0001
0010
0100
1000
0001
0100
0010
1000
,  // measure 67
1010
0000
1100
0011
0000
1010
0000
0101
,  // measure 68
0000
1000
0100
0001
0100
1000
0001
1000
,  // measure 69
1001
0000
0101
1010
0000
0011
0000
1100
,  // measure 70
0000
0001
0010
1000
0010
0001
1000
0001
,  // measure 71
1001
0000
1010
0011
0000
1100
0000
0101
,  // measure 72
0000
1000
0010
0100
0001
0010
1000
0010
,  // measure 73
0011
0000
1100
0101
0000
1010
0000
0011
,  // measure 74
0000
1000
0100
0010
0001
0100
1000
0100
,  // measure 75
0220
0000
0000
0000
,  // measure 76
0000
0000
0000
0330
,  // measure 77
0010
1000
0010
1000
0001
0100
0001
0100
,  // measure 78
0001
0010
0001
0010
0100
1000
0100
1000
,  // measure 79
0001
1000
0100
0000
1000
0001
0010
0011
,  // measure 80
0000
0001
0100
0010
1000
0100
0010
0001
,  // measure 81
1000
0100
0001
0100
1100
0000
1000
0001
,  // measure 82
1000
0010
0001
0010
1010
0000
1000
0100
,  // measure 83
0010
0100
1000
0010
0100
0001
0010
0011
,  // measure 84
0000
0001
0100
0010
1000
0001
0100
0001
,  // measure 85
1001
0000
0010
0001
0101
0000
0010
1000
,  // measure 86
1100
0000
0010
0001
1001
0010
0100
0000
,  // measure 87
0110
0000
1100
0011
0000
0101
1010
0000
,  // measure 88
1100
0011
0000
0110
1001
0000
0101
0000
,  // measure 89
0110
0000
0011
1100
0000
1010
0101
0000
,  // measure 90
0011
1100
0000
0110
1001
0000
0101
0000
,  // measure 91
1001
0000
1010
0011
0000
1100
0101
0000
,  // measure 92
1010
0011
0000
1100
0101
0000
1001
0000
,  // measure 93
0001
0010
0001
0101
0000
1000
1010
0000
,  // measure 94
0001
0011
0000
1001
0110
0000
1001
0000
,  // measure 95
0220
0000
0000
0000
,  // measure 96
0000
0000
0000
0330
,  // measure 97
0010
1000
0010
1000
0001
0100
0001
0100
,  // measure 98
0001
0010
1000
0010
0001
0100
1000
0100
,  // measure 99
0110
0000
0000
0000
;
