#TITLE:Cinnamon;
#SUBTITLE:;
#ARTIST:BEMANI Sound Team "SYUNN";
#TITLETRANSLIT:;
#SUBTITLETRANSLIT:;
#ARTISTTRANSLIT:SYUNN;
#GENRE:;
#CREDIT:;
#MENUCOLOR:;
#METERTYPE:DDR;
#BANNER:Cinnamon.png;
#BACKGROUND:Cinnamon-bg.png;
#LYRICSPATH:;
#CDTITLE:./CDTITLES/GITADORA.PNG;
#MUSIC:Cinnamon.ogg;
#OFFSET:0.000;
#SAMPLESTART:82.560;
#SAMPLELENGTH:15.000;
#SELECTABLE:YES;
#LISTSORT:;
#BPMS:0.000=125.000;
#STOPS:35.750=0.960
;
#BGCHANGES:0.000=Cinnamon.avi=1.000=0=0=0,
99999=-nosongbg-=1.000=0=0=0 // don't automatically add -songbackground-
;
#ATTACKS:;

//---------------dance-single - ----------------
#NOTES:
     dance-single:
     :
     Beginner:
     1:
     0.082,0.119,0.000,0.000,0.000: // measure 1
0000
0000
0000
0000
,  // measure 2
0000
0000
0000
0000
,  // measure 3
0000
0000
0000
0000
,  // measure 4
0000
0000
0000
0000
,  // measure 5
0000
0000
0000
0000
,  // measure 6
1000
0000
0000
0000
,  // measure 7
0100
0000
0000
0000
,  // measure 8
0001
0000
0000
0000
,  // measure 9
0010
0000
0000
0000
,  // measure 10
0000
0000
1000
0000
,  // measure 11
0000
0000
0010
0000
,  // measure 12
0000
0000
0001
0000
,  // measure 13
0000
0000
0100
0000
,  // measure 14
0000
0000
1000
0000
,  // measure 15
0000
0000
0100
0000
,  // measure 16
0000
0000
0010
0000
,  // measure 17
0000
0000
0001
0000
,  // measure 18
0000
0000
1000
0000
,  // measure 19
1000
0000
0001
0000
,  // measure 20
0001
0000
0100
0000
,  // measure 21
0100
0000
0010
0000
,  // measure 22
0010
0000
1000
0000
,  // measure 23
0000
0000
0010
0000
,  // measure 24
0000
0000
0001
0000
,  // measure 25
0000
0000
0100
0000
,  // measure 26
0000
0000
0000
0000
,  // measure 27
0000
0000
1000
0000
,  // measure 28
0000
0000
0010
0000
,  // measure 29
0000
0000
0001
0000
,  // measure 30
0000
0000
0100
0000
,  // measure 31
0000
0000
1000
0000
,  // measure 32
1000
0000
1000
0000
,  // measure 33
0000
0000
0001
0000
,  // measure 34
0001
0000
0001
0000
,  // measure 35
0000
0000
0100
0000
,  // measure 36
0100
0000
0100
0000
,  // measure 37
0000
0000
0010
0000
,  // measure 38
0000
0000
1000
0000
,  // measure 39
0000
0000
0001
0000
,  // measure 40
0000
0000
0100
0000
,  // measure 41
0000
0000
1000
0000
,  // measure 42
0000
0000
0010
0000
,  // measure 43
0000
0000
1000
0000
,  // measure 44
1000
0000
1000
0000
,  // measure 45
0000
0000
0001
0000
,  // measure 46
0001
0000
0001
0000
,  // measure 47
0000
0000
0100
0000
,  // measure 48
0100
0000
0010
0000
,  // measure 49
0010
0000
1000
0000
,  // measure 50
1000
0000
0001
0000
,  // measure 51
0001
0000
1000
0000
,  // measure 52
0100
0000
0010
0000
,  // measure 53
0001
0000
1000
0000
,  // measure 54
0010
0000
0001
0000
,  // measure 55
0100
0000
0000
0000
;

//---------------dance-single - ----------------
#NOTES:
     dance-single:
     :
     Easy:
     4:
     0.155,0.167,0.000,0.026,0.000: // measure 1
0000
0000
0000
0000
,  // measure 2
0000
0000
0000
0000
,  // measure 3
0000
0000
0000
0000
,  // measure 4
0000
0000
0000
0000
,  // measure 5
0000
0000
0000
0000
,  // measure 6
1000
0000
1000
0000
,  // measure 7
0100
0000
0100
0000
,  // measure 8
0001
0000
0001
0000
,  // measure 9
0010
0000
0010
0000
,  // measure 10
0000
1000
2000
3000
,  // measure 11
0001
0001
0001
0000
,  // measure 12
0100
0100
0100
0000
,  // measure 13
0010
0010
0020
0030
,  // measure 14
0000
1000
1000
0000
,  // measure 15
0100
0000
0010
0000
,  // measure 16
0001
0000
1000
0000
,  // measure 17
0010
0000
0001
0000
,  // measure 18
0100
0000
1000
1000
,  // measure 19
1000
0000
0001
0001
,  // measure 20
0001
0000
0100
0100
,  // measure 21
0100
0000
0010
0010
,  // measure 22
0010
0000
1000
0000
,  // measure 23
0010
0000
0001
0000
,  // measure 24
0100
0000
1000
0000
,  // measure 25
0100
0000
0001
0000
,  // measure 26
0010
0000
2000
0000
,  // measure 27
0000
3000
0001
0000
,  // measure 28
0001
0000
0100
0000
,  // measure 29
0100
0000
0010
0000
,  // measure 30
0010
0000
1000
0000
,  // measure 31
1000
0000
0001
0001
,  // measure 32
0001
0000
0010
0010
,  // measure 33
0010
0000
0100
0100
,  // measure 34
0100
0000
1000
1000
,  // measure 35
1000
0000
0001
0000
,  // measure 36
0010
0000
1000
0000
,  // measure 37
0100
0000
0001
0000
,  // measure 38
1000
0000
0001
0001
,  // measure 39
0001
0000
1000
0000
,  // measure 40
0001
0000
1000
1000
,  // measure 41
1000
0000
0010
0000
,  // measure 42
0100
0000
0010
0010
,  // measure 43
0010
0000
1000
0000
,  // measure 44
0100
0000
0001
0000
,  // measure 45
0010
0000
0001
0000
,  // measure 46
0100
0000
1000
0000
,  // measure 47
0010
0000
1000
1000
,  // measure 48
1000
0000
0001
0001
,  // measure 49
0001
0000
0100
0100
,  // measure 50
0100
0000
0010
0010
,  // measure 51
0010
0000
1000
1000
,  // measure 52
1000
0000
0100
0100
,  // measure 53
0100
0000
0001
0001
,  // measure 54
0001
0000
0010
0010
,  // measure 55
0010
0000
0000
0000
;

//---------------dance-single - ----------------
#NOTES:
     dance-single:
     :
     Medium:
     8:
     0.344,0.360,0.079,0.071,0.035: // measure 1
0000
0000
0000
0000
,  // measure 2
0000
0000
0000
0000
,  // measure 3
0000
0000
0000
0000
,  // measure 4
0000
0000
0000
0000
,  // measure 5
0000
0000
0000
0000
,  // measure 6
1000
0100
1000
0000
0100
0000
1100
0000
,  // measure 7
1000
0001
0100
0000
0001
1000
0010
0000
,  // measure 8
1000
0010
1000
0000
0010
0000
1010
0000
,  // measure 9
1000
0100
0001
0000
0100
1000
0001
0000
,  // measure 10
0000
0000
0001
1000
0002
0000
0013
0000
,  // measure 11
0001
0100
0001
0000
2000
0000
3010
0000
,  // measure 12
1000
0001
0100
0000
0001
0100
0001
0000
,  // measure 13
1000
0100
1000
0000
0001
0020
0000
0000
,  // measure 14
0000
0000
0031
0000
1000
0001
0100
0000
,  // measure 15
0001
1000
0010
0000
1000
0000
0100
0000
,  // measure 16
0001
0000
0010
0000
1000
0100
0010
0000
,  // measure 17
0001
0010
0100
0000
1000
0000
0010
0000
,  // measure 18
0002
0000
0103
0000
1000
0100
0010
0000
,  // measure 19
0100
0020
0000
0000
0031
0100
0010
0000
,  // measure 20
0100
0001
1000
0000
0001
0010
0100
0000
,  // measure 21
0010
0002
0000
0000
1003
0010
0100
0000
,  // measure 22
0010
1000
0001
0000
1000
0000
0100
0000
,  // measure 23
0001
0010
1000
0000
0001
0000
0100
0000
,  // measure 24
1000
0010
0001
0000
1000
0000
0010
0000
,  // measure 25
0001
0100
1000
0000
0001
0000
0010
0000
,  // measure 26
1000
0100
0001
0000
0220
0000
0000
0000
,  // measure 27
0000
0000
0000
0000
0330
0000
0000
0000
0010
0000
0000
0001
0000
0000
0100
0000
,  // measure 28
0000
1000
0000
0000
0010
0000
0000
0000
1000
0000
0000
0100
0000
0000
0001
0000
,  // measure 29
0000
0010
0000
0000
1000
0000
0000
0000
0001
0000
0000
0100
0000
0000
1000
0000
,  // measure 30
0000
0010
0000
0000
0001
0000
0000
0000
1000
0000
0000
0010
0000
0000
0001
0000
,  // measure 31
0000
0100
0000
0000
1000
0000
0000
0000
0100
0000
0010
0000
1000
0000
0000
0000
,  // measure 32
0010
0100
0001
0000
1000
0001
0100
0000
,  // measure 33
0001
1000
0100
0000
1000
0100
1000
0100
,  // measure 34
0010
0001
1000
0000
0001
0100
0001
0100
,  // measure 35
0010
1000
0001
0000
1000
0000
0100
0000
,  // measure 36
0001
0010
1000
0000
0001
0000
0100
0000
,  // measure 37
1000
0010
0001
0000
1000
0100
1000
0000
,  // measure 38
0001
0100
0001
0000
1000
0000
0010
0000
,  // measure 39
0001
0000
0100
0000
1000
0010
1000
0000
,  // measure 40
0001
0010
0001
0000
1000
0000
0100
0000
,  // measure 41
0001
0000
0010
0000
1000
0001
0100
0000
,  // measure 42
0001
1000
0010
0000
0100
0000
0001
0000
,  // measure 43
0010
0000
1000
0000
0100
0010
0100
0000
,  // measure 44
0010
0000
0110
0000
1000
0001
1000
0001
,  // measure 45
0100
0001
1000
0000
0010
0100
0010
0000
,  // measure 46
0100
0000
0110
0000
0001
1000
0001
0000
,  // measure 47
1000
0100
0010
0001
1000
0000
0100
0000
,  // measure 48
0001
0000
1010
0000
0001
0100
0001
0000
,  // measure 49
1000
0100
1000
0000
0001
0000
0100
0000
,  // measure 50
1000
0000
0011
0000
1000
0010
0100
0000
,  // measure 51
0001
0010
0100
0000
1000
0000
0010
0000
,  // measure 52
0001
0000
1100
0000
0001
1000
0100
0000
,  // measure 53
1000
0001
0010
0000
0001
0000
0010
0000
,  // measure 54
1000
0101
1000
0010
,  // measure 55
1000
0100
0010
0001
0000
0000
0000
0000
;

//---------------dance-single - ----------------
#NOTES:
     dance-single:
     :
     Hard:
     13:
     0.543,0.528,0.026,0.062,0.388: // measure 1
0000
0000
0000
0000
,  // measure 2
0000
0000
0000
0000
,  // measure 3
0000
0000
0000
0000
,  // measure 4
0000
0000
0000
0000
,  // measure 5
0000
0000
0000
0000
,  // measure 6
1000
0100
0001
0100
1000
0010
0100
0001
,  // measure 7
1000
1000
0010
0010
0001
0001
0100
0000
,  // measure 8
0001
0010
1000
0010
0001
0010
0100
0001
,  // measure 9
1000
0000
1000
0000
0100
0000
0100
0000
0001
0000
0001
0000
0010
0100
0010
0100
,  // measure 10
0000
0000
0000
0000
0001
1000
0001
0000
1002
0000
0000
0000
0103
0000
0000
0000
,  // measure 11
0010
0000
1000
0000
0001
0000
1000
0100
0000
1000
0200
0000
0000
0000
0000
0000
,  // measure 12
0310
0001
0100
1000
0100
0010
1000
0001
,  // measure 13
1000
0100
0010
0001
1000
0020
0000
0000
,  // measure 14
0000
0000
0000
0000
1030
0000
0001
0000
1000
0100
0000
0001
0100
0000
1000
0100
,  // measure 15
0000
0010
0100
0000
1000
0100
1000
0100
0000
0000
1000
0000
0010
0100
0000
0000
,  // measure 16
0001
0000
0010
0000
1000
0000
0100
0000
0001
0000
0000
0000
0000
1000
0000
1000
,  // measure 17
0010
0001
0100
1000
0010
0100
0001
1000
,  // measure 18
0020
0000
0000
0000
1030
0000
0000
0000
0001
0010
0000
1000
0100
1000
0000
0010
,  // measure 19
0001
0000
2000
0000
3001
0000
0000
0000
1000
0100
0000
0001
0010
0001
0000
0010
,  // measure 20
1000
0000
0001
0000
0010
0100
0000
1000
0001
0010
0000
1000
0100
1000
0000
0010
,  // measure 21
0001
0000
2000
0000
3001
0000
0000
0000
1000
0100
0000
0001
0010
0001
0000
0010
,  // measure 22
1000
0000
0001
0000
1000
0100
1000
0000
0001
0000
0010
0000
1000
0000
0010
0000
,  // measure 23
0100
1000
0100
0001
0100
0010
0001
0010
,  // measure 24
1000
0010
0100
1000
0001
0100
1000
0010
,  // measure 25
1000
0100
0010
1000
0001
0010
1000
0100
,  // measure 26
0001
0000
0010
0000
0100
1000
0001
1000
0002
0000
0000
0000
0000
0000
0000
0000
,  // measure 27
0000
0000
0000
0000
0000
0000
0000
0000
1003
0000
1000
0100
0000
0100
0010
0000
,  // measure 28
0010
0001
0000
0001
0010
0000
1000
0000
0010
0000
0010
0001
0000
0001
0100
0000
,  // measure 29
0100
1000
0000
1000
0100
0000
0010
0000
1000
0000
1000
0100
0000
0100
0001
0000
,  // measure 30
0001
0010
0000
0010
1000
0000
0010
0000
0001
0000
0001
0100
0000
0100
1000
0000
,  // measure 31
0010
0000
1000
0001
1000
0000
0001
0000
1000
0000
0100
0000
0001
0000
0010
0000
,  // measure 32
1000
0100
0001
0010
0001
0100
1000
0010
,  // measure 33
0001
0100
1000
0010
0001
0010
0100
0001
,  // measure 34
1000
0010
0100
1000
0100
0010
1000
0100
,  // measure 35
0001
0000
0100
0000
0010
0000
0001
0000
1000
0100
0000
0100
0001
0100
0000
0001
,  // measure 36
0010
0000
0001
0000
0100
0000
1000
0000
0001
0100
0000
0100
1000
0100
0000
1000
,  // measure 37
0010
1000
0100
0001
1000
0100
0010
1000
,  // measure 38
0001
0100
0010
0001
1000
0100
0001
0100
,  // measure 39
0010
0001
1000
1001
0100
0001
0010
1000
,  // measure 40
0001
0010
0100
0001
1000
0010
0100
1000
,  // measure 41
0001
0000
0010
0000
0100
0010
0100
0000
0010
0000
1000
0000
0100
0000
0001
0000
,  // measure 42
0010
1000
0100
0001
0100
1000
0010
0001
,  // measure 43
0100
0000
1000
0000
0001
1000
0001
0000
1001
0000
0100
0000
1000
0000
0100
0000
,  // measure 44
0001
0010
0100
1000
0001
0001
0010
0010
,  // measure 45
1000
1000
0100
0000
1000
0010
0001
0010
,  // measure 46
1000
0100
0010
1000
0001
0001
0010
0010
,  // measure 47
1000
0000
1000
0000
0100
0010
0100
0010
1000
0100
0000
0001
0000
0100
1000
0000
,  // measure 48
0100
0001
0000
0100
1000
0000
0010
0000
0001
0000
0010
0000
1000
0000
0100
0000
,  // measure 49
0001
0000
0010
0000
1000
0000
0100
0000
1000
0010
0000
0001
0000
0010
1000
0000
,  // measure 50
0010
0001
0010
0000
1000
0100
0001
0000
0100
0000
0001
0000
0010
0000
1000
0000
,  // measure 51
0100
0000
0001
0000
0010
0000
1000
0000
0100
1000
0000
0100
0000
0001
0100
0000
,  // measure 52
1000
0010
0000
0001
0010
0000
1000
0000
0001
0000
0010
0000
1000
0000
0100
0000
,  // measure 53
0001
0000
0010
0000
1000
0000
0100
0000
0010
1000
0000
0010
0000
0001
0010
0000
,  // measure 54
1000
0100
1000
0000
0001
0010
1000
0000
0010
0001
0000
0010
0000
1000
0010
0000
,  // measure 55
0001
0100
0001
0000
1000
0100
0001
0010
0000
0000
0000
0000
0000
0000
0000
0000
;
