#VERSION:0.83;
#TITLE:Cave Me In;
#SUBTITLE:;
#ARTIST:FWLR & A-SHO;
#TITLETRANSLIT:;
#SUBTITLETRANSLIT:;
#ARTISTTRANSLIT:;
#GENRE:;
#ORIGIN:;
#CREDIT:;
#BANNER:cavemein_bn.png;
#BACKGROUND:cavemein_bg.png;
#PREVIEWVID:;
#JACKET:cavemein_jacket.png;
#CDIMAGE:;
#DISCIMAGE:;
#LYRICSPATH:;
#CDTITLE:cdtitle.png;
#MUSIC:cavemein.ogg;
#OFFSET:0.000000;
#SAMPLESTART:35.945946;
#SAMPLELENGTH:18.108109;
#SELECTABLE:YES;
#BPMS:0.000=111.000;
#STOPS:;
#DELAYS:;
#WARPS:;
#TIMESIGNATURES:0.000=4=4;
#TICKCOUNTS:0.000=4;
#COMBOS:0.000=1;
#SPEEDS:0.000=1.000=0.000=0;
#SCROLLS:0.000=1.000;
#FAKES:;
#LABELS:0.000=Song Start;
#BGCHANGES:;
#KEYSOUNDS:;
#ATTACKS:
;

//---------------dance-single - ----------------
#NOTEDATA:;
#CHARTNAME:;
#STEPSTYPE:dance-single;
#DESCRIPTION:;
#CHARTSTYLE:;
#DIFFICULTY:Hard;
#METER:13;
#RADARVALUES:0.465374,0.545349,0.160870,0.361957,0.426305,405.000000,385.000000,20.000000,45.000000,0.000000,0.000000,0.000000,0.000000,0.000000,0.465374,0.545349,0.160870,0.361957,0.426305,405.000000,385.000000,20.000000,45.000000,0.000000,0.000000,0.000000,0.000000,0.000000;
#CREDIT:DigitalBasic;
#NOTES:
0000
0000
0000
0000
,
0000
0000
0000
0000
,
0000
0000
0000
0000
,
0000
0000
0000
0000
,
0000
0000
0000
0000
0000
0000
0000
0000
0000
0000
0000
0000
0000
0000
0000
0001
,
0000
0100
0000
0010
0100
0000
0010
0000
1000
0000
0000
0000
0000
0000
0000
1000
,
0000
0100
0000
0010
0100
0000
0010
0000
0001
0000
0000
0000
0000
0000
1000
0000
,
1000
0000
0000
0000
0000
0000
0010
0000
0000
0100
0000
0000
0010
0000
0000
0000
1000
0000
0000
0000
0001
0000
0000
0000
0010
0000
0000
0000
0000
0000
0000
0000
0000
0000
0010
0000
0000
0000
0001
0000
0000
0000
0100
0000
0000
0000
0000
0000
,
0010
0000
0000
0000
0000
0100
0000
0000
0000
0010
0000
0000
0100
0000
0000
0001
0000
0000
0100
0000
0000
0010
0000
0000
,
1000
0000
0100
0000
0001
0000
0100
0010
,
0100
0000
0000
0000
0000
0000
1000
0000
0000
0100
0000
0000
0010
0000
0000
0000
0100
0000
1000
0000
0000
0001
0000
0000
,
0100
0000
0010
0001
0010
0000
0100
0001
,
0100
0000
0001
0010
0100
0010
0001
1000
,
0010
0000
0100
0010
0000
0000
0010
0000
1000
0000
0100
0000
0010
0000
0100
0000
,
1000
0000
0001
1000
0000
0000
0010
0000
1000
0000
0100
0000
1000
0000
0010
0000
,
0100
0000
0000
0010
0100
0000
0001
0000
1000
0000
0000
1000
0001
0000
0010
0000
,
0200
0000
0000
0000
0000
0000
0000
0000
0300
0000
0000
0000
0000
0000
0010
0100
,
0020
0000
0000
0000
0031
0100
0010
0000
0020
0000
0000
0000
0130
0000
0001
0000
,
0020
0000
0000
0000
0130
0000
1000
0000
0010
1000
0010
0100
0002
0000
0000
0000
,
2003
0000
3010
0100
2000
0000
3100
0001
,
2000
0000
0000
0000
3100
1000
0001
0020
0000
0000
0000
0000
0000
0000
0030
0000
,
0011
1000
0011
1000
0012
0000
0103
0010
,
0002
0000
0000
0000
0013
0000
1000
0000
0001
0010
0100
1000
0200
0000
0000
0000
,
0302
0000
0000
0000
0103
0010
0001
0000
0002
0000
0000
0000
0103
0000
0010
0000
,
0001
0010
0100
0010
0001
1000
0100
0010
0100
0010
1000
0001
0000
0000
0000
0000
,
0200
0000
0000
0000
0301
0000
0001
1000
0200
0000
0000
0000
1300
0000
1000
0010
,
0200
0000
0000
0000
0301
0000
0001
0010
0100
1000
0010
0100
0002
0000
0000
0000
,
0023
0000
0000
0000
0130
0000
0100
1000
0020
0000
0000
0000
0130
0000
0100
0001
,
0020
0000
0000
0000
0130
0000
0100
1000
1100
0000
0100
0110
0000
0010
0011
0000
,
1100
0000
0001
0000
1100
0000
0001
0000
2100
0000
0000
0000
3100
0000
0100
0001
,
2000
0000
0000
0000
3010
0000
0010
0001
1000
0010
0100
0001
0200
0000
0000
0000
,
0302
0000
0000
0000
0103
0000
0100
1000
0002
0000
0000
0000
0013
0000
0010
1000
,
0002
0000
0000
0000
1003
0000
1000
0000
0001
0010
0100
1000
0100
0010
0001
1000
,
0020
0000
0000
0130
0000
0000
0000
0010
,
0100
0100
0001
0010
0010
0001
0200
0000
,
0302
0000
0000
1003
0000
0000
0000
1000
,
0001
0010
0100
0010
0001
0100
1000
0000
,
0010
0000
0001
0010
0001
0000
1000
0000
0010
0000
1000
0010
1000
0000
0100
0000
,
0010
0000
0001
1000
0001
0000
0100
0000
0010
0100
0001
1000
0001
0000
0000
0000
,
1000
0000
0000
1000
0001
0000
0010
0000
0001
0000
0000
0100
0010
0000
1000
0000
,
0002
0000
0000
0003
,
1001
0000
0000
1000
0100
0010
0001
0000
1000
0001
0000
0100
,
0000
0100
0000
0100
0000
0100
0010
0000
1000
0001
0000
0010
,
0100
0000
0000
0100
0000
0100
0010
0000
0000
0001
0000
0010
,
0000
0010
0000
0010
0000
0010
0001
0000
1000
0100
0000
1000
,
0010
0000
0100
0010
0000
0010
1000
0000
0100
0001
0000
0100
,
1000
0000
0010
0100
0000
1000
0100
0000
0001
0100
0000
0010
,
0100
0000
0010
0110
0000
0010
0220
0000
0000
0000
0000
0000
,
0330
0000
0100
0000
0100
0010
0100
0010
0100
0001
1000
0001
0010
0100
1000
0001
,
0020
0000
0000
0000
1030
0000
1000
0001
0020
0000
0000
0000
0031
0000
0001
0100
,
0020
0000
0000
0000
1030
0000
1000
0100
0010
0001
0100
0010
2000
0000
0000
0000
,
3200
0000
0000
0000
0310
0000
0010
0001
0200
0000
0000
0000
0310
0000
0010
1000
,
0200
0000
0000
0000
0310
0000
0010
0001
0011
0000
0010
0110
0000
0100
1100
0000
,
0011
0000
1000
0000
0011
0000
1000
0000
0012
0000
0000
0000
0013
0000
0010
1000
,
0002
0000
0000
0000
0103
0000
0100
1000
0001
0100
0010
1000
0020
0000
0000
0000
,
1030
0000
0010
1000
1010
0000
0010
1000
2010
0000
0000
0000
3100
0000
0100
0001
,
2000
0000
3000
0000
;

//---------------dance-single - ----------------
#NOTEDATA:;
#CHARTNAME:;
#STEPSTYPE:dance-single;
#DESCRIPTION:;
#CHARTSTYLE:;
#DIFFICULTY:Easy;
#METER:6;
#RADARVALUES:0.267734,0.339335,0.337827,0.064348,0.008043,233.000000,191.000000,42.000000,8.000000,0.000000,0.000000,0.000000,0.000000,0.000000,0.267734,0.339335,0.337827,0.064348,0.008043,233.000000,191.000000,42.000000,8.000000,0.000000,0.000000,0.000000,0.000000,0.000000;
#CREDIT:DigitalBasic;
#NOTES:
0000
0000
0000
0000
,
0000
0000
0000
0000
,
0000
0000
0000
0000
,
0000
0000
0000
0000
,
0000
0000
0000
0000
,
1000
0000
0100
0000
,
1000
0000
0001
0000
,
0100
0010
0010
0100
,
0100
0000
0001
0001
,
0010
0100
0010
0100
,
0000
0000
0000
1000
0001
0000
0100
0000
,
0010
1000
0010
1000
,
0100
0000
0000
0100
0010
0000
0001
0000
,
1000
0000
0000
0010
0100
0000
0001
0000
,
1000
0000
0000
1000
0001
0000
0010
0000
,
0100
0010
0100
0010
,
0200
0000
0300
0000
,
1100
1000
1100
1000
,
1100
0000
1000
0000
0001
0100
0001
0000
,
0101
0001
0101
0001
,
0101
0000
0001
1000
0000
0000
0000
0000
,
1001
1001
1001
0010
,
0110
0000
0010
0000
0010
0100
0010
0000
,
0001
0011
0001
0011
,
0001
0000
0001
0000
1000
0001
0000
0000
,
1010
0010
1010
0010
,
1010
0000
0010
0000
0100
0001
0010
0000
,
0110
0100
0110
0100
,
0110
0000
0000
0000
0100
0000
0000
0000
0010
0000
0000
0010
0000
0000
0010
0000
,
0110
0110
0110
1000
,
1001
0000
1000
0000
1000
0001
0100
0000
,
0110
0010
0110
0010
,
0110
0000
0010
0000
0010
0100
0010
0100
,
0020
0000
0000
0130
0000
0000
0000
0000
,
0000
0000
0000
0000
,
0002
0000
0000
1003
0000
0000
0000
0000
,
0000
0000
0000
0000
,
0100
0000
0100
0000
1000
0001
1000
0000
,
0010
0000
0010
0000
0100
0001
0100
0000
,
0010
0010
0100
0100
,
0020
0000
0000
0030
,
0001
0100
1000
0100
,
0001
0100
0010
1000
,
1000
0100
0001
0100
,
1000
0100
0010
0001
,
0001
0100
0010
0001
,
0010
0100
0010
1000
,
1100
0101
0022
0000
,
0033
0000
0000
0000
0010
0100
0001
0010
,
0011
0010
0011
0010
,
0011
0000
0010
0000
0100
1000
0010
0000
,
0110
0100
0110
0100
,
0110
0000
0000
0000
0100
0000
0000
0000
0010
0000
0000
0010
0000
0000
0010
0000
,
0110
0110
0110
0001
,
1001
0000
0001
0000
0001
1000
0100
0000
,
0110
1100
0011
0001
,
0202
0303
0000
0000
;

//---------------dance-single - ----------------
#NOTEDATA:;
#CHARTNAME:;
#STEPSTYPE:dance-single;
#DESCRIPTION:;
#CHARTSTYLE:;
#DIFFICULTY:Medium;
#METER:9;
#RADARVALUES:0.358510,0.429825,0.144783,0.313696,0.128696,312.000000,294.000000,18.000000,39.000000,0.000000,0.000000,0.000000,0.000000,0.000000,0.358510,0.429825,0.144783,0.313696,0.128696,312.000000,294.000000,18.000000,39.000000,0.000000,0.000000,0.000000,0.000000,0.000000;
#CREDIT:DigitalBasic;
#NOTES:
// measure 0
0000
0000
0000
0000
,  // measure 1
0000
0000
0000
0000
,  // measure 2
0000
0000
0000
0000
,  // measure 3
0000
0000
0000
0000
,  // measure 4
0000
0000
0000
0000
,  // measure 5
1000
0000
0100
1000
0010
0000
0000
0000
,  // measure 6
0010
0000
0100
0001
0010
0000
0000
0000
,  // measure 7
0010
0001
0010
0000
0100
0000
0010
0001
,  // measure 8
0100
0000
0000
0000
0010
0000
0100
0000
0010
0000
0000
1000
0010
0000
0100
0000
,  // measure 9
0010
0000
1000
0000
0001
0000
0100
0010
,  // measure 10
0000
0000
0000
0100
0010
0000
0100
0001
,  // measure 11
1000
0000
0100
1000
0100
0000
0010
0001
,  // measure 12
0000
0000
0000
0010
0001
0010
0100
0010
,  // measure 13
0100
0000
0000
1000
0000
0000
0010
0000
1000
0000
0100
0000
0010
0000
0001
0000
,  // measure 14
0100
0000
0000
0010
0000
0000
0100
0000
0001
0000
0100
0000
0010
0000
1000
0000
,  // measure 15
0100
0000
0010
0100
0010
0000
0001
1000
,  // measure 16
0020
0000
0000
0000
0000
0000
0000
0000
0030
0000
0000
0000
0000
0000
0100
0010
,  // measure 17
0200
0000
0301
1000
0200
0000
1300
0001
,  // measure 18
0200
0000
0301
1000
0100
0100
2000
0000
,  // measure 19
3002
0000
0103
0100
0002
0000
0013
0010
,  // measure 20
0002
0000
0103
0010
0000
0000
0000
0000
,  // measure 21
0101
0000
1010
0000
1200
0000
0310
0001
,  // measure 22
0200
0000
0310
1000
0100
1000
0010
0000
,  // measure 23
0020
0000
1030
0001
0020
0000
0031
1000
,  // measure 24
0010
0000
0010
0000
0100
0000
0100
0000
0001
1000
0001
1000
0000
0000
0000
0000
,  // measure 25
0020
0000
0130
1000
0020
0000
0130
0001
,  // measure 26
0020
0000
0130
0010
0001
0100
0020
0000
,  // measure 27
2030
0000
3100
0100
2000
0000
3010
0010
,  // measure 28
2000
0000
0000
0000
3100
0000
0100
0000
1000
0000
0100
1000
0000
0001
0100
0000
,  // measure 29
0110
0000
1010
0000
1200
0000
1300
0001
,  // measure 30
0020
0000
0031
0100
0010
0100
0001
0001
,  // measure 31
0200
0000
0301
1000
0020
0000
0130
1000
,  // measure 32
0002
0000
0000
0000
0103
0000
0010
0000
0100
0000
0000
0001
1000
0000
0100
0000
,  // measure 33
0020
0000
0000
0031
0000
0000
0000
0100
,  // measure 34
0001
0100
0001
0100
0001
0100
0001
0000
,  // measure 35
0200
0000
0000
0310
0000
0000
0000
0010
,  // measure 36
1000
0010
1000
0100
1000
0100
1000
0000
,  // measure 37
1000
0000
0000
1000
0001
0000
0100
0000
0010
0000
0000
0010
0100
0000
0010
0000
,  // measure 38
1000
0000
0000
0001
1000
0000
0010
0000
0100
0000
0000
0001
0010
0000
0100
0000
,  // measure 39
0010
0000
0000
0010
0001
0000
1000
0000
0100
0000
0000
0000
1000
0000
0000
0000
,  // measure 40
0002
0000
0000
0003
,  // measure 41
0101
0000
0000
1001
0000
0000
0101
0000
0000
0001
0000
0100
,  // measure 42
0000
0010
0000
0100
0000
0010
1000
0000
0000
0100
0000
0000
,  // measure 43
1100
0000
0000
1001
0000
0000
1100
0000
0000
1000
0000
0100
,  // measure 44
0000
0010
0000
0100
0000
0010
0001
0000
0000
0001
0000
0000
,  // measure 45
0100
0000
0010
0100
0000
0010
1000
0000
0000
0100
0000
0010
,  // measure 46
0100
0000
0010
0001
0000
0000
1000
0000
0001
0100
0000
0010
,  // measure 47
0100
0000
0010
0100
0000
0010
0200
0000
0000
0000
0000
0000
,  // measure 48
0300
0000
0000
0000
0001
1000
0001
1000
0001
0000
0000
0000
0000
0000
0000
0000
,  // measure 49
0020
0000
0130
0001
0020
0000
0130
1000
,  // measure 50
0020
0000
0130
0010
1000
0100
0020
0000
,  // measure 51
0032
0000
0103
0100
0002
0000
0013
0010
,  // measure 52
0002
0000
0000
0000
0103
0000
0100
0000
0001
0000
0100
0001
0000
1000
0100
0000
,  // measure 53
0110
0000
0011
0000
0201
0000
0301
1000
,  // measure 54
0020
0000
1030
0100
0010
0100
1000
1000
,  // measure 55
1100
0100
0110
0010
0012
0000
0103
0001
,  // measure 56
0200
0300
0000
0000
;
