#TITLE:Career Boy;
#SUBTITLE:;
#ARTIST:Dorian Electra;
#TITLETRANSLIT:;
#SUBTITLETRANSLIT:;
#ARTISTTRANSLIT:;
#CREDIT:;
#BANNER:banner.png;
#BACKGROUND:background.png;
#LYRICSPATH:;
#CDTITLE:cdtitle.PNG;
#MUSIC:career.ogg;
#OFFSET:-0.009;
#SAMPLESTART:47.940;
#SAMPLELENGTH:12.000;
#SELECTABLE:YES;
#BPMS:0.000=30.000,8.000=120.000,72.000=60.000;
#STOPS:79.500=0.250
,86.750=0.750
,94.500=0.250
,102.250=0.250
,134.500=1.000
;
#BGCHANGES:0.625=Career1.11.avi=1.000=0=0=1,
135.000=background.png=1.000=0=0=1,
99999=-nosongbg-=1.000=0=0=0 // don't automatically add -songbackground-
;

//---------------dance-single - ----------------
#NOTES:
     dance-single:
     :
     Hard:
     15:
     0.445,0.512,0.191,0.148,0.478: // measure 1
0000
0000
0000
0000
0000
0001
1000
0010
0000
0000
0000
0000
0000
0000
0000
0000
1000
0000
0001
0100
0000
0010
1000
0100
0010
0000
0000
0000
0000
0000
0000
0000
,  // measure 2
0010
0000
0000
0000
0000
0001
1000
0010
0000
0000
0000
0000
0000
0000
0000
0000
0010
0000
1000
0010
0000
1000
0100
0010
0001
0000
0000
0000
0000
0000
0000
0000
,  // measure 3
0010
0000
0001
0000
1000
0000
0010
0000
0100
0000
0001
0000
0001
0000
0100
0010
,  // measure 4
0000
1000
0001
0010
0100
1000
0010
0001
,  // measure 5
0010
0000
0010
0100
0000
0001
0010
0100
,  // measure 6
0010
0001
1000
0010
1000
0000
0001
1000
,  // measure 7
0100
0000
0010
0000
0001
0000
1000
0000
0010
0000
0100
0000
0010
0000
0001
1000
,  // measure 8
0000
0010
1000
0001
1000
0001
0010
0100
,  // measure 9
0001
0000
1000
0100
0000
0010
0001
1000
,  // measure 10
0010
0000
1000
0100
0000
0000
0010
0001
,  // measure 11
0000
0000
0001
0100
0010
0000
1000
0000
0100
0000
0010
0100
0000
0000
1000
0000
,  // measure 12
0000
0001
1000
0001
0100
0000
0001
0000
,  // measure 13
0000
0000
1000
0010
1000
0000
0100
0000
1000
0000
0010
0100
0000
0000
0001
0000
,  // measure 14
0000
0000
0010
0100
0010
0000
0001
0000
0010
0000
0000
0000
0100
0000
0000
0000
,  // measure 15
0000
0000
1000
0010
0100
0000
0001
0000
0100
0000
0010
1000
0000
0000
0100
0000
,  // measure 16
0000
0001
0100
1000
0010
0001
0010
1000
,  // measure 17
0000
0000
1000
0000
0010
0000
0001
0000
0010
0000
1000
0001
0000
0000
0100
0000
,  // measure 18
0000
1000
0010
0100
0001
0010
0100
0000
,  // measure 19
0022
0000
0000
0000
0033
0001
0100
0010
2020
0000
3030
1000
0010
0001
0010
1000
,  // measure 20
2002
3003
0100
0001
0000
1000
0010
0001
0010
1000
0100
0010
0001
0000
1001
2002
,  // measure 21
0000
0000
3003
0000
1000
0100
0010
0220
0000
0330
0010
0001
0100
0010
0100
0202
,  // measure 22
0303
0000
0000
0000
0000
0000
0000
0000
0000
0000
0000
0000
0001
0000
0000
0000
0000
0000
0000
0000
0000
0000
0000
0000
1000
0000
0000
0000
0000
0000
0000
0000
0000
0000
0000
0000
0000
0000
0000
0000
0000
0000
0000
0000
0000
0000
0000
0000
0100
0000
0000
0000
0000
0000
0000
0000
0000
0000
0000
0000
0010
0000
0000
0000
0000
0000
0000
0000
0000
0000
0000
0000
0100
0000
0000
0000
0000
0000
0000
0000
0000
0000
0000
0000
0010
0000
0000
0000
0000
0000
0000
0000
0000
0000
0000
0000
0001
0000
0000
0000
0000
0000
0000
0000
0000
0000
0000
0000
1000
0000
0000
0000
0000
0000
0000
0000
0000
0000
0000
0000
0010
0000
0000
0000
0000
0000
0000
0000
0000
0000
0000
0000
0101
0000
0000
0000
0000
0000
0000
0000
0000
0000
0000
0000
0101
0000
0000
0000
0000
0000
0000
0000
0000
0000
0000
0000
0001
0000
0000
0000
0000
0000
0100
0000
0000
0000
0000
0000
0001
0000
0000
0000
0000
0000
0000
0000
0000
0100
0000
0000
0000
0000
0000
0000
0010
0000
0000
0000
0000
0000
0000
0000
,  // measure 23
0100
0000
0000
0001
0000
0100
0000
0000
0001
0000
0000
0000
0010
0000
0000
0000
0001
0000
0000
0000
0010
0000
0000
0000
0100
0000
0000
0000
0010
0000
0000
0000
0001
0000
0000
0000
0000
0000
0000
0000
0001
0000
0000
0000
1000
0000
0000
0000
0010
0000
0000
0000
0000
0000
0000
0000
1000
0000
0000
0000
0100
0000
0000
0000
,  // measure 24
1000
0010
0100
0001
0010
0000
0100
0000
0001
0000
1001
2002
0000
0000
3003
0000
,  // measure 25
0100
0010
0100
0220
0000
0330
0001
0100
0010
1000
0100
0000
0100
1000
0010
0100
,  // measure 26
0001
0010
0100
0010
0001
1000
0010
1000
0000
0110
0110
0000
0000
0000
1010
0000
,  // measure 27
1000
0100
0010
0001
0010
0001
0100
0000
0110
0000
1010
0000
0000
0000
1100
0000
,  // measure 28
0000
1000
0100
0001
0100
1000
1001
0000
0100
0000
1001
0000
MMMM
0000
1001
0000
,  // measure 29
0000
0000
0010
0000
1000
0000
0010
0000
0001
0000
0010
0000
0001
0000
0000
0000
0000
0000
0010
0000
0100
0000
0000
0000
0000
0000
0001
1000
0100
0000
0000
0000
,  // measure 30
0000
0000
1000
0100
0001
0000
0000
0000
0100
0000
0000
0000
0010
0000
0000
0000
0100
0000
0000
0000
1000
0000
0100
0000
0010
0000
0100
0000
1000
0000
0100
0000
,  // measure 31
0010
0001
0100
1000
0100
0001
0010
0000
0100
0000
1000
0100
0001
0100
1000
0100
,  // measure 32
0010
0001
0100
0010
0100
1000
0100
0000
0010
0000
0001
1000
0010
1000
0001
1000
,  // measure 33
0010
0000
0000
0000
0000
0000
0100
0000
0000
0000
0000
0000
0000
0000
0000
0000
0000
0000
0000
0000
0000
0000
0000
0000
0001
0000
0000
0000
0000
0000
0000
0000
0000
0000
0000
0000
0010
0000
0000
0000
0000
0000
0000
0000
0000
0000
0000
0000
0100
0000
0000
0000
0000
0000
0000
0000
0000
0000
0000
0000
0010
0000
0000
0000
0000
0000
0000
0000
0000
0000
0000
0000
0001
0000
0000
0000
0000
0000
0000
0000
0000
0000
0000
0000
0000
0000
0000
0000
0000
0000
0000
0000
0000
0000
0000
0000
1000
0000
0000
0000
0000
0000
0000
0000
0000
0000
0000
0000
0000
0000
0000
0000
0000
0000
1010
0000
0000
0000
0000
0000
0000
0000
0000
0000
0000
0000
0000
0000
0000
0000
0000
0000
0000
0000
0000
0000
0000
0000
0000
0000
0000
0000
0000
0000
0000
0000
0000
0000
0000
0000
0000
0000
1000
0000
0000
0000
0000
0000
0000
0000
0010
0000
0000
0000
0000
0000
0000
0000
0100
0000
0000
0000
0000
0000
0000
0000
0000
0000
0000
0000
0000
0000
0000
0000
0000
0000
0000
0000
0000
0000
0000
0000
,  // measure 34
0000
0000
0000
0000
0000
0000
0000
0000
1000
0000
0000
0000
0000
0000
0000
0000
0000
0000
0000
0000
0000
0000
0000
0000
0001
0000
0000
0000
0000
0000
0000
0000
0000
0000
0000
0000
0000
0000
0000
0000
0000
0000
0000
0000
0000
0000
0000
0000
0010
0000
0000
0000
0000
0000
0000
0000
0000
0000
0000
0000
0100
0000
0000
0000
0000
0000
0000
0000
0000
0000
0000
0000
0010
0000
0000
0000
0000
0000
0000
0000
0000
0000
0000
0000
0000
0000
0000
0000
0000
0000
0000
0000
0000
0000
0000
0000
0001
0000
0000
0000
0000
0000
0000
0000
0000
0000
0000
0000
1000
0000
0000
0000
0000
0000
0000
0000
0000
0000
0000
0000
0020
0000
0000
0000
0000
0000
0030
0000
0000
0000
0000
0000
0000
0000
0000
0000
0000
0000
0000
0000
0000
0000
0000
0000
0000
0000
0000
0000
0000
0000
0000
0000
0000
0000
0000
0000
0000
0000
0000
0000
0000
0000
0000
0000
0000
0000
0000
0000
0000
0000
0000
0000
0000
0000
0000
0000
0000
0000
0000
0000
0000
0000
0000
0000
0000
0000
0000
0000
0000
0000
0000
0000
;

//---------------dance-single - ----------------
#NOTES:
     dance-single:
     :
     Medium:
     10:
     0.255,0.338,0.078,0.009,0.178:
0000
0000
0000
0000
,
0001
0000
0000
0000
0000
1000
0001
1000
0000
0000
0000
0000
0000
0000
0000
0000
1000
0000
0000
0000
0000
0001
1000
0001
1000
0000
0000
0000
0000
0000
0000
0000
,
0001
0000
1000
0000
0010
0100
0001
0100
,
0010
0000
1000
0000
0100
0000
0010
0001
,
1000
0000
0010
0100
0000
0001
0010
0000
,
0100
1000
0010
0100
0001
0000
1000
0000
,
0001
0000
1000
0000
0010
0100
0010
0100
,
0010
0000
0010
0000
1000
0000
0100
0010
,
0001
1000
0010
0100
,
0001
0000
0100
0010
0000
0000
1000
0100
,
0000
0010
0001
1000
,
0010
0100
0101
1001
,
1000
0100
0010
0001
,
1000
0010
1001
0101
,
0001
0010
0100
1000
,
0010
0100
0101
1010
,
1000
0100
0010
0100
,
1000
0100
1100
0011
,
1001
0000
0000
0000
0000
0001
0100
0001
0000
0000
0000
0000
0100
0000
0010
0000
,
1000
0000
0000
0000
0001
0000
0000
0000
0100
0000
0000
0000
0010
0000
1000
0001
,
0000
0000
0000
0000
0100
0010
1000
0000
0000
0000
0000
1000
0000
0100
0000
0010
,
0000
0000
0000
0001
0000
0000
0000
1000
0000
0000
0000
0010
1000
0000
0000
0000
,
0001
0000
0000
0000
0100
0010
0100
0010
0100
0000
0001
0000
1000
0000
0000
0000
,
0100
0000
0000
0000
0010
0000
0000
0000
0001
0000
1000
0010
0000
0000
0000
0000
,
0100
0001
0100
0000
0000
0000
0000
0001
0000
0000
0000
1000
0000
0000
0000
0010
,
0000
0000
0000
0100
0000
0000
0000
0001
0000
1000
0001
0000
0000
0000
1000
0000
,
0000
0000
0001
0100
0010
1000
0100
0000
0010
0000
0001
0000
0000
0000
1000
0000
,
0000
0010
0100
0001
0100
0010
1000
0000
0100
0000
0010
0000
0000
0000
0001
0000
,
0000
0000
1000
0010
0100
0001
0100
0000
0000
0000
0010
0000
0000
0000
1000
0000
,
0000
0100
0010
0001
0100
0010
1000
0001
,
1000
0010
0100
0001
0100
0010
1000
0000
0100
0000
1000
0000
0010
0000
0100
0000
,
0001
0100
0010
1000
0100
0010
0100
0000
1000
0000
0001
0000
1000
0000
0010
0000
,
0100
0000
0001
0100
0010
1000
0100
0000
0010
0000
0001
0000
0000
0000
1000
0000
,
0000
0010
0100
0001
0100
0020
0030
0000
;

//---------------dance-single - ----------------
#NOTES:
     dance-single:
     :
     Easy:
     7:
     0.153,0.132,0.009,0.000,0.061:
0000
1000
0000
0001
,
0000
1000
0000
0001
,
1000
1000
0001
0001
,
0100
0100
0010
0010
,
1000
1000
0001
0001
,
0100
0100
0010
0010
,
1000
1000
0010
0010
,
0100
0100
0010
0010
,
1000
1000
0001
0001
,
0100
0100
0001
0001
,
0010
0100
1000
0010
,
0000
0010
1000
0100
,
0000
0010
0001
0100
,
0000
0010
1000
0100
,
0000
0001
1000
0001
,
0000
1000
0001
1000
,
0000
0010
0100
0010
,
0000
0100
0010
0100
,
1001
1000
0001
1000
,
0010
0100
0010
0100
,
0000
0000
0000
0100
0000
0000
0000
0010
0000
0000
0000
0100
0000
0000
0000
0001
,
0000
0000
0000
1000
0000
0000
0000
0001
0000
0000
0000
1000
0000
0000
0000
0000
,
0010
0100
0010
0001
,
1000
0000
0000
0000
0001
0000
0000
0000
1000
0000
0000
0000
0000
0000
0000
0010
,
0000
0000
0000
0100
0000
0000
0000
0001
0000
0000
0000
1000
0000
0000
0000
0010
,
0000
0000
0000
1000
0000
0000
0000
0001
0000
0000
0000
0000
0000
0000
0100
0000
,
0000
0010
0000
0100
0000
0010
0000
0001
,
0000
1000
0000
0010
0000
0100
0000
0010
,
0000
0100
0000
0010
0000
1000
0000
0100
,
0000
0010
0000
0001
0000
0010
0000
0100
,
0000
0010
0000
0100
0000
0010
0000
0001
,
0000
0010
0000
0001
0000
1000
0000
0001
,
0000
1000
0000
0001
0000
0100
0000
0010
,
0000
1000
0000
0001
0000
1000
0000
0000
;

//---------------dance-single - ----------------
#NOTES:
     dance-single:
     :
     Beginner:
     4:
     0.062,0.087,0.009,0.000,0.026:
0000
0000
0000
0000
,
0000
0000
0000
0000
,
0001
0000
0000
0000
,
1000
0000
0000
0000
,
0001
0000
0000
0000
,
1000
0000
0000
0000
,
0010
0000
0000
0000
,
0100
0000
0000
0000
,
0010
0000
0000
0000
,
0100
0000
0000
0000
,
0001
0000
0000
0000
,
0010
0000
0000
0000
,
0100
0000
0000
0000
,
1000
0000
0000
0000
,
1000
0000
0000
0000
,
0100
0000
0000
0000
,
0010
0000
0000
0000
,
0001
0000
0000
0000
,
1001
0000
1000
0000
,
0001
0000
1000
0000
,
0000
0000
0000
0000
0000
0000
0000
0100
0000
0000
0000
0000
0000
0000
0000
0010
,
0000
0000
0000
0000
0000
0000
0000
0100
0000
0000
0000
0000
0000
0000
0000
0000
,
0000
0001
0000
1000
,
0000
0001
0000
0000
,
0000
0000
0000
0100
0000
0000
0000
0000
0000
0000
0000
0010
0000
0000
0000
0000
,
0000
0000
0000
0100
0000
0000
0000
0000
0000
0000
0000
0000
0000
0000
0001
0000
,
0000
0000
0000
1000
0000
0000
0000
0001
,
0000
0000
0000
1000
0000
0000
0000
0001
,
0000
0000
0000
1000
0000
0001
0000
0001
,
0000
0001
0000
0001
0000
0000
0000
1000
,
0000
0000
0000
0010
0000
0000
0000
0100
,
0000
0000
0000
0010
0000
0000
0000
0100
,
0000
0000
0000
0001
0000
0001
0000
0010
,
0000
0100
0000
1000
0000
0000
0000
0000
;
