#TITLE:COSMIC CYBER;
#SUBTITLE:;
#ARTIST:Captain Sonic;
#TITLETRANSLIT:;
#SUBTITLETRANSLIT:;
#ARTISTTRANSLIT:;
#GENRE:;
#CREDIT:;
#BANNER:banner.png;
#BACKGROUND:background.png;
#LYRICSPATH:;
#CDTITLE:;
#MUSIC:COSMIC CYBER.ogg;
#OFFSET:-0.110000;
#SAMPLESTART:1.504765;
#SAMPLELENGTH:16.941177;
#SELECTABLE:YES;
#BPMS:0.000000=170.000000
;
#STOPS:
;
#BGCHANGES:;
#KEYSOUNDS:;
#ATTACKS:;

//---------------dance-single - ----------------
#NOTES:
     dance-single:
     :
     Medium:
     11:
     0.547678,0.629863,0.569368,0.000000,0.000000,404.000000,344.000000,60.000000,0.000000,0.000000,0.000000,0.547678,0.629863,0.569368,0.000000,0.000000,404.000000,344.000000,60.000000,0.000000,0.000000,0.000000:
// measure 0
0000
0000
0000
0000
,  // measure 1
0001
0010
0001
0000
1000
0000
1010
0000
,  // measure 2
1000
0100
1000
0000
0001
0000
0011
0000
,  // measure 3
1000
0010
1000
0000
0001
0000
0011
0000
,  // measure 4
0010
0000
0100
1000
0000
0010
0110
0000
,  // measure 5
0001
1000
0001
0000
1000
0000
1010
0000
,  // measure 6
1000
0001
1000
0000
0001
0000
0011
0000
,  // measure 7
0010
0100
0010
0000
0100
0000
1100
0000
,  // measure 8
1000
0000
0001
0010
0000
0100
1100
0000
,  // measure 9
0100
1000
0010
0000
0100
0000
0101
0000
,  // measure 10
0001
1000
0100
0000
0010
0000
0011
0000
,  // measure 11
0001
1000
0010
0000
0100
0000
0101
0000
,  // measure 12
0001
0000
1000
0010
0000
0100
0101
0000
,  // measure 13
1000
0100
0010
0000
0100
0000
1100
0000
,  // measure 14
0100
0010
0001
0000
0010
0000
0011
0000
,  // measure 15
0001
0100
0010
0000
1000
0000
1001
0000
,  // measure 16
0001
0000
0010
0001
0000
0100
0010
0100
,  // measure 17
0000
0000
0000
0000
,  // measure 18
0001
0010
0100
0000
1001
0000
0000
0000
,  // measure 19
1000
0100
0010
0000
1001
0000
0000
0000
,  // measure 20
0001
0000
0100
1000
0000
0100
0001
0000
,  // measure 21
0010
0100
0000
0010
0001
0000
1000
0000
,  // measure 22
0001
0000
1000
0000
0100
0010
0001
0000
,  // measure 23
0010
0000
0100
0000
1000
0010
0100
0000
,  // measure 24
0001
0000
1000
0000
0100
1000
0010
0000
,  // measure 25
0100
0001
0010
0000
0100
0010
0001
0000
,  // measure 26
1010
1010
1010
0000
,  // measure 27
1000
0000
0001
0000
0010
0100
1000
0000
,  // measure 28
0011
0011
0101
0101
,  // measure 29
0001
0000
0100
0000
0010
0100
0001
0000
,  // measure 30
1000
1001
0001
0011
,  // measure 31
0010
0110
0100
1100
,  // measure 32
0100
1000
0010
0000
0100
0010
1000
0000
,  // measure 33
1001
0000
0000
0000
,  // measure 34
0001
0000
1000
0001
0000
0001
1000
0000
,  // measure 35
1000
0001
0000
0001
1000
0000
1001
0000
,  // measure 36
0001
0000
0001
0010
0000
0010
0100
0000
,  // measure 37
0100
1000
0000
0010
0100
0000
1001
0000
,  // measure 38
1000
0000
0001
0001
0000
0100
0100
0000
,  // measure 39
0001
0001
0000
1000
1000
0000
0001
0000
,  // measure 40
1000
0000
0100
1000
0000
0010
0100
0000
,  // measure 41
0001
0010
0100
0000
1000
0000
0110
0000
,  // measure 42
1001
0000
0001
0100
0000
0001
0100
0000
,  // measure 43
0001
0001
0001
0000
1000
0000
0001
0000
,  // measure 44
1000
0000
0100
1000
0000
0100
1000
0000
,  // measure 45
0100
0100
0100
0000
0010
0001
0100
0000
,  // measure 46
0010
1000
0001
0000
1000
0000
1001
0000
,  // measure 47
0001
0010
0100
0000
0010
0000
0011
0000
,  // measure 48
0011
0000
1100
0000
0001
1001
0000
1010
,  // measure 49
0000
0101
0000
0011
0000
0010
0110
0000
,  // measure 50
1000
0100
0010
0000
0001
0000
0011
0000
,  // measure 51
0001
0010
0100
0000
0010
0000
0110
0000
,  // measure 52
0100
1000
0010
0000
0100
0000
0101
0000
,  // measure 53
0001
0000
1000
0100
0000
0100
0010
0000
,  // measure 54
0010
0001
0100
0000
0010
0000
1001
0000
,  // measure 55
1000
0001
0010
0000
0100
0000
1100
0000
,  // measure 56
1000
0010
0100
0000
0001
0000
0011
0000
,  // measure 57
1001
0000
0001
0100
0000
0100
0110
0000
,  // measure 58
1001
0001
0100
0000
1000
0000
1100
0000
,  // measure 59
1000
0100
0001
0000
0001
0000
0011
0000
,  // measure 60
0001
0010
1000
0000
0010
0000
0011
0000
,  // measure 61
1001
0000
0001
0100
0000
0100
0110
0000
,  // measure 62
0100
0010
1000
0000
0001
0000
0011
0000
,  // measure 63
0010
0100
1000
0000
0100
0000
1100
0000
,  // measure 64
1000
0100
0001
0000
0100
0000
0101
0000
,  // measure 65
0110
0000
0100
0010
0000
0010
0001
0000
,  // measure 66
1000
1000
1000
1000
,  // measure 67
0001
0001
0001
0001
,  // measure 68
0100
0100
0100
0100
,  // measure 69
0010
0010
0010
0010
,  // measure 70
1000
0010
0100
0001
,  // measure 71
1000
0010
0100
0001
,  // measure 72
1000
0100
0010
0001
,  // measure 73
1000
0100
0010
0001
;

//---------------dance-single - ----------------
#NOTES:
     dance-single:
     :
     Hard:
     12:
     0.466340,0.524886,0.085405,0.389068,0.004745,344.000000,335.000000,9.000000,41.000000,0.000000,0.000000,0.466340,0.524886,0.085405,0.389068,0.004745,344.000000,335.000000,9.000000,41.000000,0.000000,0.000000:
// measure 0
0000
0000
0000
0000
,  // measure 1
1000
1000
0001
0000
0200
0000
0310
0000
,  // measure 2
1000
1000
0010
0000
0200
0000
0301
0000
,  // measure 3
0010
0010
0100
0000
0020
0000
0031
0000
,  // measure 4
1000
0000
0001
0100
0000
0100
1000
0000
,  // measure 5
0100
0100
0010
0000
2000
0000
3001
0000
,  // measure 6
0010
0010
0100
0000
0020
0000
0031
0000
,  // measure 7
1000
1000
0100
0000
2000
0000
3010
0000
,  // measure 8
0100
0000
0001
0010
0000
0010
0100
0000
,  // measure 9
1000
1000
0100
0000
0002
0000
0103
0000
,  // measure 10
1000
1000
0010
0000
0002
0000
0013
0000
,  // measure 11
0100
0100
0010
0000
2000
0000
3001
0000
,  // measure 12
0010
0000
0100
1000
0000
1000
0100
0000
,  // measure 13
1000
1000
0010
0000
0002
0000
0013
0000
,  // measure 14
0100
0100
0010
0000
2000
0000
3001
0000
,  // measure 15
0010
0010
0100
0000
0020
0000
0031
0000
,  // measure 16
1000
0000
0001
0100
0000
0010
1000
0001
,  // measure 17
0000
0000
0000
0000
,  // measure 18
1000
0100
0001
0000
0100
0000
0000
0000
,  // measure 19
1000
0010
0001
0000
0010
0100
0001
0000
,  // measure 20
1000
0000
0000
0100
0000
0000
0001
0000
,  // measure 21
0000
0010
0000
0000
1000
0000
1001
0000
,  // measure 22
1000
0000
0001
0000
1000
1000
0001
0000
,  // measure 23
0100
0000
0010
0000
1000
1000
0010
0000
,  // measure 24
0100
0001
0010
0000
0100
0010
0001
0000
,  // measure 25
1000
0000
0000
0001
0000
0000
0010
0000
0100
0000
0000
0000
1100
0000
0000
0000
,  // measure 26
2000
0000
0000
3000
,  // measure 27
0001
1000
0010
0100
,  // measure 28
0002
0000
0000
0003
,  // measure 29
0010
0001
0100
0010
,  // measure 30
1000
0001
1000
0010
,  // measure 31
1000
0001
1000
0010
,  // measure 32
1000
0010
1000
0010
,  // measure 33
1001
0000
0000
0000
,  // measure 34
0001
0000
0100
0100
0000
0001
0001
0000
,  // measure 35
0010
0010
0000
0100
0100
0000
1001
0000
,  // measure 36
1000
0000
0001
0001
0000
1000
1000
0000
,  // measure 37
0001
0001
0000
0100
0100
0000
0010
0000
,  // measure 38
1001
0000
1000
1000
0000
0010
0010
0000
,  // measure 39
0100
0100
0000
0001
0001
0000
0010
0000
,  // measure 40
0100
0000
0010
0010
0000
0001
0001
0000
,  // measure 41
1000
1000
0000
0001
0001
0000
0110
0000
,  // measure 42
1001
0000
1000
0100
0000
0001
0100
0000
,  // measure 43
1000
0010
0001
0000
0011
0000
1010
0000
,  // measure 44
0001
2000
3020
2030
,  // measure 45
3002
0203
0302
2003
,  // measure 46
3001
0000
0100
0000
1000
0100
0001
0000
,  // measure 47
0100
0100
0100
0000
0010
0000
1000
0000
,  // measure 48
0001
1000
0010
0000
1000
0001
0010
0000
,  // measure 49
0001
1000
0010
1000
0001
0010
0100
1000
,  // measure 50
0001
0001
1000
0000
0200
0000
1300
0000
,  // measure 51
0100
0100
0010
0000
0002
0000
0103
0000
,  // measure 52
0010
0010
0100
0000
0002
0000
1003
0000
,  // measure 53
0100
0000
1000
0010
0000
0010
0001
0000
,  // measure 54
0010
0010
0100
0000
0002
0000
0013
0000
,  // measure 55
0100
0100
1000
0000
0002
0000
0103
0000
,  // measure 56
0010
0010
1000
0000
0200
0000
0310
0000
,  // measure 57
0100
0000
1000
0010
0000
0100
0001
0000
,  // measure 58
1000
0100
0001
0000
0200
0000
0310
0000
,  // measure 59
0100
0010
0001
0000
0200
0000
0310
0000
,  // measure 60
0100
0010
1000
0000
0002
0000
1003
0000
,  // measure 61
0001
0000
0100
0010
0000
1000
0100
0000
,  // measure 62
1000
0100
0001
0000
0200
0000
1300
0000
,  // measure 63
1000
0010
0001
0000
0002
0000
0013
0000
,  // measure 64
0010
0001
1000
0000
0002
0000
1003
0000
,  // measure 65
0001
0000
1000
0010
0000
0010
0001
0000
,  // measure 66
2000
0010
0010
3010
,  // measure 67
0002
0010
0010
0013
,  // measure 68
2000
0010
0010
3010
,  // measure 69
0002
0010
0010
0013
,  // measure 70
2000
0100
0100
3100
,  // measure 71
0002
0100
0100
0103
,  // measure 72
2000
0100
0100
3100
,  // measure 73
0002
0100
0100
0103
;

//---------------dance-single - ----------------
#NOTES:
     dance-single:
     :
     Easy:
     6:
     0.307730,0.384916,0.037958,0.075916,0.000000,227.000000,223.000000,4.000000,8.000000,0.000000,0.000000,0.307730,0.384916,0.037958,0.075916,0.000000,227.000000,223.000000,4.000000,8.000000,0.000000,0.000000:
0000
0000
0000
0000
,
1000
0001
0010
0010
,
0001
1000
0010
0010
,
1000
0001
0010
0010
,
0001
1000
0010
1000
,
0001
1000
0100
0100
,
1000
0001
0100
0100
,
0001
1000
0100
0100
,
1000
0001
0100
0001
,
0010
0001
0100
0001
,
0010
0100
1000
0100
,
1000
0010
0100
0010
,
1000
0001
0010
0001
,
1000
0100
1000
0010
,
0100
0001
0010
0100
,
0010
0001
1000
0010
,
0100
0010
1000
0001
,
0000
0000
0000
0000
,
1000
0000
0101
0000
,
0001
0000
1010
0000
,
1000
0000
0000
0001
0000
0000
0010
0000
,
0000
0001
0000
0000
0100
0000
0100
0000
,
0010
1000
0001
0001
,
0010
0100
0010
0010
,
0100
0010
0100
0010
,
1001
1000
1001
0000
,
0001
0000
0000
0000
,
1000
0000
0001
0000
,
0100
0000
0000
0000
,
0010
0000
1000
0000
,
0100
0000
1000
0000
,
0010
0000
0100
0000
,
0001
0000
0001
0000
,
0001
0000
0000
0000
,
1000
0000
0000
0001
0000
0000
0010
0000
,
0000
0001
0000
0000
0100
0000
0001
0000
,
1000
0000
0000
0100
0000
0000
0010
0000
,
0100
0000
0000
1000
0000
0000
0010
0000
,
0100
0000
0000
0010
0000
0000
1000
0000
,
0001
0000
0000
1000
0000
0000
0100
0000
,
1000
0000
0000
0010
0000
0000
0100
0000
,
0001
0000
0000
0010
0000
0000
0001
0000
,
1000
0001
0100
0000
,
0001
0001
1000
0000
,
0001
1000
0010
0000
,
1000
1000
0100
0000
,
1000
0000
0001
0000
,
0100
0000
0010
0000
,
1000
0000
1000
0000
0001
1000
0000
0001
,
0000
1000
0000
0001
0000
1000
0001
0000
,
1000
0001
0010
0010
,
0001
1000
0010
0010
,
1000
0001
0010
0010
,
0001
0010
0001
1000
,
0010
1000
0100
0100
,
1000
0001
0100
0100
,
0001
1000
0100
0100
,
1000
0001
0100
0001
,
0010
0001
0100
0010
,
1000
0100
0010
0001
,
1000
0010
0100
0001
,
1000
0100
1000
0010
,
0100
0001
0010
1000
,
0010
0001
0100
1000
,
0100
0001
0100
0010
,
1000
0001
0010
0001
,
2000
0000
0000
3000
,
0002
0000
0000
0003
,
0200
0000
0000
0300
,
0020
0000
0000
0030
,
2000
0000
0000
3000
,
0002
0000
0000
0003
,
0020
0000
0000
0030
,
0200
0000
0000
0300
;

//---------------dance-single - ----------------
#NOTES:
     dance-single:
     :
     Beginner:
     4:
     0.146409,0.209954,0.009489,0.000000,0.000000,108.000000,107.000000,1.000000,0.000000,0.000000,0.000000,0.146409,0.209954,0.009489,0.000000,0.000000,108.000000,107.000000,1.000000,0.000000,0.000000,0.000000:
0000
0000
0000
0000
,
0010
0000
0000
0000
,
1000
0000
0000
0000
,
0001
0000
0000
0000
,
1000
0000
1000
0000
,
1000
0000
0000
0000
,
0001
0000
0000
0000
,
0010
0000
0000
0000
,
0001
0000
0001
0000
,
0001
0000
0000
0000
,
0100
0000
0000
0000
,
0010
0000
0000
0000
,
1000
0000
1000
0000
,
1000
0000
0000
0000
,
0100
0000
0000
0000
,
0010
0000
0000
0000
,
0001
0000
0001
0000
,
0001
0000
0000
0000
,
1000
0000
0001
0000
,
1000
0000
0001
0000
,
1001
0000
0000
0010
,
0000
0000
0100
0100
,
0001
0000
0000
0000
,
1000
0000
0000
0000
,
0001
0000
1000
0000
,
0001
0000
0100
0000
,
0010
0000
0000
0000
,
1000
0000
0000
0000
,
0010
0010
0010
0000
,
0010
0000
0000
0000
,
0100
0000
0000
0000
,
0001
0000
0000
0000
,
0010
0000
0010
0000
,
0010
0000
0000
0000
,
0100
0000
0000
1000
,
0000
0000
0010
0100
,
0010
0000
0000
1000
,
0000
0000
0001
0010
,
0001
0000
0000
0100
,
0000
0000
0010
1000
,
0010
0000
0000
1000
,
0001
0000
1000
0000
,
0001
0000
0000
0000
,
1000
1000
1000
0000
,
0001
0000
0000
0000
,
0100
0100
0100
0000
,
0010
0000
0000
0000
,
1000
1000
1000
0000
,
0001
0000
0001
0000
,
0001
0000
0001
0000
,
1000
0000
0000
0000
,
0010
0000
0000
0000
,
1000
0000
0000
0000
,
0100
0000
1000
0000
,
0001
0000
0000
0000
,
0100
0000
0000
0000
,
0001
0000
0000
0000
,
0010
0000
0001
0000
,
1000
0000
0000
0000
,
0100
0000
0000
0000
,
1000
0000
0000
0000
,
0010
0000
0100
0000
,
0001
0000
0000
0000
,
0010
0000
0000
0000
,
0001
0000
0000
0000
,
1000
0000
0001
0000
,
0100
0000
0000
0000
,
0010
0000
0000
0000
,
1000
0000
0000
0000
,
0001
0000
0000
0000
,
1000
0000
0000
0000
,
0100
0000
0000
0000
,
0010
0000
0000
0000
,
0001
0000
0000
1000
;
