#VERSION:0.83;
#TITLE:CLUB 115;
#SUBTITLE:;
#ARTIST:COZY KUBO;
#TITLETRANSLIT:;
#SUBTITLETRANSLIT:;
#ARTISTTRANSLIT:;
#GENRE:;
#ORIGIN:;
#CREDIT:;
#BANNER:CLUB 115.png;
#BACKGROUND:CLUB 115-bg.png;
#PREVIEWVID:;
#JACKET:CLUB 115-jacket.png;
#CDIMAGE:;
#DISCIMAGE:;
#LYRICSPATH:;
#CDTITLE:;
#MUSIC:CLUB 115.mp3;
#OFFSET:-1.540000;
#SAMPLESTART:17.502684;
#SAMPLELENGTH:15.000002;
#SELECTABLE:YES;
#BPMS:0.000=150.000;
#STOPS:;
#DELAYS:;
#WARPS:;
#TIMESIGNATURES:0.000=4=4;
#TICKCOUNTS:0.000=4;
#COMBOS:0.000=1;
#SPEEDS:0.000=1.000=0.000=0;
#SCROLLS:0.000=1.000;
#FAKES:;
#LABELS:0.000=Song Start;
#BGCHANGES:;
#KEYSOUNDS:;
#ATTACKS:
;

//---------------dance-single - ----------------
#NOTEDATA:;
#CHARTNAME:;
#STEPSTYPE:dance-single;
#DESCRIPTION:;
#CHARTSTYLE:;
#DIFFICULTY:Hard;
#METER:10;
#RADARVALUES:0.442936,0.505497,0.134357,0.320390,0.072346,300.000000,287.000000,13.000000,31.000000,0.000000,0.000000,0.000000,0.000000,0.000000,0.442936,0.505497,0.134357,0.320390,0.072346,300.000000,287.000000,13.000000,31.000000,0.000000,0.000000,0.000000,0.000000,0.000000;
#CREDIT:;
#NOTES:
0000
0000
0000
0000
,
0000
0000
0000
0000
,
0000
0000
0000
0000
,
0000
0000
0000
0000
,
0000
0000
0000
0000
,
0000
0000
0000
0000
,
1000
1000
0100
0010
0000
1000
0100
0010
,
0001
0001
0100
0010
0000
0001
0100
0010
,
1000
1000
0001
0010
0000
1000
0001
0010
,
0002
0103
2000
3100
,
0001
0010
0100
0010
0001
0010
0000
0001
,
0010
0100
1000
0100
0000
0010
0000
0010
,
0002
0000
0000
1000
0000
2000
0000
3003
,
2000
3010
0002
0013
,
1000
0010
0100
0010
1000
0100
0000
0100
,
1000
0010
0100
0001
0000
0100
0000
0100
,
0020
0000
0000
0100
0000
0200
0000
0330
,
0000
0011
0000
0000
1010
0010
1000
0000
,
1000
0100
0010
0001
0000
1000
0100
0010
,
0001
0100
0010
1000
0000
0001
0100
0010
,
1000
0100
0010
0100
0000
1000
0010
0100
,
0001
0010
0100
0010
0000
0001
0100
0010
,
1000
1000
0100
0001
0000
1000
0100
0001
,
0100
0100
1000
0010
0000
0100
1000
0010
,
0001
0001
0010
1000
0000
0001
0010
1000
,
1010
0101
1001
0210
,
0301
0010
0001
0010
0001
0100
0000
0100
,
0010
1000
0010
1000
0000
0100
0000
0100
,
0020
0000
0030
0010
0000
0020
0000
0000
,
0030
0001
0000
0000
1000
0001
0000
0000
,
1000
0010
1000
0010
1000
0100
0000
0100
,
0010
0001
0010
0001
0000
0100
0000
0100
,
0020
0000
0030
0010
0000
0020
0000
0000
,
0030
1010
0000
0000
0101
0001
0100
0000
,
0200
0000
0301
0020
0000
0031
0101
0000
,
2000
0000
0000
0000
3010
0000
2000
0000
0000
0000
3001
0000
1000
0010
1000
0010
,
0200
0000
0301
0020
0000
0031
0101
0000
,
2000
0000
3010
2000
0000
3001
0010
0100
,
1000
0010
0100
0001
1000
0100
0010
0001
,
1000
0010
0100
0001
1000
0100
0010
0001
,
0100
0000
0001
0010
0000
0010
0100
0000
,
1000
0100
1000
0100
0010
0001
0010
0001
,
0100
0000
0000
0000
,
0001
1000
0100
0010
0100
1000
0000
0001
,
0100
0010
0100
0001
0000
1000
0000
1000
,
0100
0010
0001
0010
0100
0010
0000
0000
,
0000
0011
0000
0000
1010
0000
0000
0000
,
2000
0000
0000
0000
3001
0000
0000
0000
0100
0000
0100
0000
0010
1000
0010
1000
,
0002
0000
1003
0000
0010
0010
0100
0000
,
2000
0000
0000
0000
3001
0000
0000
0000
1000
0000
1000
0000
0100
0010
0100
0010
,
0002
0000
1003
0000
0001
0001
0100
0000
,
2000
0000
0000
3001
0000
0000
0000
0000
0001
0000
0010
0000
0100
1000
0100
1000
,
0002
0000
0000
1003
0000
0000
0000
0000
1000
0000
0001
0000
0100
0000
0000
0000
,
2000
0000
0000
3001
0000
0000
0000
0000
1000
0000
0010
0000
0100
0001
0100
0001
,
2000
0000
0000
3001
0000
0000
1000
0000
1000
0000
0100
0000
0010
0000
0001
0000
,
2002
0000
0000
0000
,
0000
0000
0000
0000
,
0000
0000
0000
0000
0000
0000
0000
0000
0000
0000
0000
0000
0000
3003
0000
0000
0000
0000
0000
0000
0000
0000
0000
0000
;

//---------------dance-single - ----------------
#NOTEDATA:;
#CHARTNAME:;
#STEPSTYPE:dance-single;
#DESCRIPTION:;
#CHARTSTYLE:;
#DIFFICULTY:Medium;
#METER:7;
#RADARVALUES:0.348443,0.475762,0.186033,0.279050,0.000000,236.000000,218.000000,18.000000,27.000000,0.000000,0.000000,0.000000,0.000000,0.000000,0.348443,0.475762,0.186033,0.279050,0.000000,236.000000,218.000000,18.000000,27.000000,0.000000,0.000000,0.000000,0.000000,0.000000;
#CREDIT:;
#NOTES:
0000
0000
0000
0000
,
0000
0000
0000
0000
,
0000
0000
0000
0000
,
0000
0000
0000
0000
,
0000
0000
0000
0000
,
0000
0000
0000
0000
,
1000
0000
1000
0010
0000
0010
1000
0000
,
0001
0000
0001
0010
0000
0010
0001
0000
,
0100
0000
0100
0010
0000
0010
0100
0000
,
0002
0003
2000
3000
,
0001
0010
0001
0010
0001
0100
0000
0100
,
0001
0010
0001
0100
0000
0001
0000
0001
,
0200
0000
0000
0010
0000
0020
0330
0000
,
2000
3000
0002
0003
,
1000
0010
0100
0010
0100
0001
0000
0001
,
0100
0010
0100
0001
0000
0100
0000
0100
,
0020
0000
0000
0100
0000
0200
0330
0000
,
0000
0011
0000
0000
1010
0000
0000
0000
,
1000
0100
1000
0100
0000
1000
0100
0000
,
0001
0100
0001
0100
0000
0001
0100
0000
,
1000
0001
1000
0001
0000
1000
0001
0000
,
0010
0100
0010
0100
0000
0010
0100
0000
,
1000
0100
1000
0010
0000
1000
0100
0000
,
0001
0010
0001
0100
0000
0001
0010
0000
,
0001
1000
0010
1000
0000
0001
1000
0000
,
1100
0011
1001
0210
,
0300
1000
0001
1000
0001
1000
0000
0100
,
0010
0100
0010
0100
0000
0010
0000
0010
,
0000
0000
0000
0000
,
0000
0000
0000
0000
,
0000
0001
1000
0001
1000
0001
0000
0100
,
0010
0100
0010
0100
0000
0010
0000
0010
,
0000
0000
0000
0000
,
0000
1010
0000
0000
0101
0000
0000
0000
,
0020
0000
0030
0020
0000
0000
0030
0000
,
0200
0000
0300
0200
0000
0000
0300
0000
,
0020
0000
0030
0020
0000
0000
0030
0000
,
0200
0000
0300
0200
0000
0000
0300
0000
,
1000
0000
0100
1000
0000
1000
1100
0000
,
0001
0000
0010
0001
0000
0001
0011
0000
,
1000
0000
0001
1000
0000
1000
1001
0000
,
0110
0101
1010
1001
,
0100
0000
0000
0000
,
0001
1000
0100
1000
0100
1000
0000
0001
,
0100
0001
0100
0001
0000
1000
0000
1000
,
0000
0001
0010
0100
1000
0010
0000
0000
,
0000
0011
0000
0000
1010
0000
0000
0000
,
2000
0000
3001
0000
0100
0100
0010
0010
,
0002
0000
1003
0000
0010
0010
0100
0000
,
2000
0000
3001
0000
0010
0010
0100
0100
,
0002
0000
1003
0000
0001
0001
0100
0000
,
2000
0000
3001
0000
0010
0010
0100
0100
,
2000
0000
3001
0000
0001
1000
0010
0000
,
2000
0000
3001
0000
0100
0100
0010
0010
,
2000
0000
3001
0000
1000
0100
0010
0000
,
2002
0000
0000
0000
,
0000
0000
0000
0000
,
0000
0000
0000
0000
0000
0000
0000
0000
0000
0000
0000
0000
0000
3003
0000
0000
0000
0000
0000
0000
0000
0000
0000
0000
;

//---------------dance-single - ----------------
#NOTEDATA:;
#CHARTNAME:;
#STEPSTYPE:dance-single;
#DESCRIPTION:;
#CHARTSTYLE:;
#DIFFICULTY:Easy;
#METER:5;
#RADARVALUES:0.256903,0.356822,0.062011,0.299720,0.000000,174.000000,168.000000,6.000000,29.000000,0.000000,0.000000,0.000000,0.000000,0.000000,0.256903,0.356822,0.062011,0.299720,0.000000,174.000000,168.000000,6.000000,29.000000,0.000000,0.000000,0.000000,0.000000,0.000000;
#CREDIT:;
#NOTES:
// measure 0
0000
0000
0000
0000
,  // measure 1
0000
0000
0000
0000
,  // measure 2
0000
0000
0000
0000
,  // measure 3
0000
0000
0000
0000
,  // measure 4
0000
0000
0000
0000
,  // measure 5
0000
0000
0000
0000
,  // measure 6
1000
0100
0000
0100
,  // measure 7
0001
0100
0000
0100
,  // measure 8
0010
0100
0000
0100
,  // measure 9
0002
0003
2000
3000
,  // measure 10
0001
0010
0100
0000
,  // measure 11
0001
0000
0010
0000
0000
0100
0000
0000
,  // measure 12
1000
0000
0000
1000
0000
1000
0000
0000
,  // measure 13
0020
0030
0200
0300
,  // measure 14
0001
1000
0010
0000
,  // measure 15
0001
0000
1000
0000
0000
0010
0000
0000
,  // measure 16
0100
0000
0000
0100
0000
0100
0000
0000
,  // measure 17
0000
0110
0000
0000
0110
0000
0000
0000
,  // measure 18
1000
0000
0001
0000
0000
1000
0001
0000
,  // measure 19
0100
0000
0010
0000
0000
0100
0010
0000
,  // measure 20
1000
0000
0100
0000
0000
1000
0100
0000
,  // measure 21
0001
0000
0100
0000
0000
0001
0100
0000
,  // measure 22
0010
0000
1000
0000
0000
0010
1000
0000
,  // measure 23
0100
0000
0010
0000
0000
0100
0010
0000
,  // measure 24
0001
0000
0010
0000
0000
0001
0010
0000
,  // measure 25
0002
0023
0230
2300
,  // measure 26
3020
0100
0000
0100
,  // measure 27
0000
1000
0000
1030
,  // measure 28
0200
0010
0000
0010
,  // measure 29
0000
0001
0000
0301
,  // measure 30
0002
0010
0000
0010
,  // measure 31
0000
1000
0000
1003
,  // measure 32
2000
0010
0000
0010
,  // measure 33
0000
0001
0000
3001
,  // measure 34
0200
0000
0000
0020
0000
0000
0330
0000
,  // measure 35
0002
0000
0000
2000
0000
0000
3003
0000
,  // measure 36
0020
0000
0000
0200
0000
0000
0330
0000
,  // measure 37
2000
0000
0000
0002
0000
0000
3003
0000
,  // measure 38
1000
0000
0100
0000
1000
0100
1000
0000
,  // measure 39
0001
0000
0100
0000
0001
0100
0001
0000
,  // measure 40
1000
0000
0010
0000
1000
0010
1000
0000
,  // measure 41
0001
0000
0010
0000
0001
0010
0001
0000
,  // measure 42
0100
0000
0000
0000
,  // measure 43
1000
0000
0100
0010
0100
0000
0000
0000
,  // measure 44
1000
0000
0100
0010
0000
0100
0000
0000
,  // measure 45
1000
0000
0001
1000
0001
0000
0000
0000
,  // measure 46
0000
1001
0000
0000
1001
0000
0000
0000
,  // measure 47
2000
0000
3001
0000
1000
0001
1000
0000
,  // measure 48
0200
0000
0310
0000
0100
0010
0100
0000
,  // measure 49
0002
0000
0013
0000
0001
0010
0001
0000
,  // measure 50
2000
0000
3010
0000
1000
0010
1000
0000
,  // measure 51
0002
0000
0103
0000
0001
0100
0001
0000
,  // measure 52
2000
0000
3100
0000
1000
0100
1000
0000
,  // measure 53
0020
0000
0130
0000
0010
0100
0010
0000
,  // measure 54
0110
0000
0000
0000
0010
0100
0010
0000
,  // measure 55
2002
0000
0000
0000
,  // measure 56
0000
0000
0000
0000
,  // measure 57
0000
0000
0000
0000
0000
0000
0000
0000
0000
0000
0000
0000
0000
3003
0000
0000
0000
0000
0000
0000
0000
0000
0000
0000
;

//---------------dance-single - ----------------
#NOTEDATA:;
#CHARTNAME:;
#STEPSTYPE:dance-single;
#DESCRIPTION:;
#CHARTSTYLE:;
#DIFFICULTY:Beginner;
#METER:1;
#RADARVALUES:0.143216,0.208146,0.020670,0.227374,0.000000,97.000000,95.000000,2.000000,22.000000,0.000000,0.000000,0.000000,0.000000,0.000000,0.143216,0.208146,0.020670,0.227374,0.000000,97.000000,95.000000,2.000000,22.000000,0.000000,0.000000,0.000000,0.000000,0.000000;
#CREDIT:;
#NOTES:
// measure 0
0000
0000
0000
0000
,  // measure 1
0000
0000
0000
0000
,  // measure 2
0000
0000
0000
0000
,  // measure 3
0000
0000
0000
0000
,  // measure 4
0000
0000
0000
0000
,  // measure 5
0000
0000
0000
0000
,  // measure 6
1000
0000
0000
0000
,  // measure 7
0100
0000
0000
0000
,  // measure 8
0010
0000
0000
0000
,  // measure 9
0002
0003
0002
0003
,  // measure 10
0001
0000
0001
0000
,  // measure 11
0100
0000
0100
0000
,  // measure 12
0010
0000
0010
0000
,  // measure 13
0200
0300
0200
0300
,  // measure 14
0001
0000
0001
0000
,  // measure 15
1000
0000
1000
0000
,  // measure 16
0100
0000
0100
0000
,  // measure 17
0010
0000
0110
0000
,  // measure 18
2000
3000
1000
0000
,  // measure 19
0002
0003
0001
0000
,  // measure 20
0200
0300
0100
0000
,  // measure 21
0020
0030
0010
0000
,  // measure 22
2000
3000
1000
0000
,  // measure 23
0200
0300
0100
0000
,  // measure 24
0020
0030
0010
0000
,  // measure 25
0001
0001
0001
0001
,  // measure 26
0002
0000
0000
0000
,  // measure 27
0003
0000
0000
0000
,  // measure 28
2000
0000
0000
0000
,  // measure 29
3000
0000
0000
0000
,  // measure 30
0020
0000
0000
0000
,  // measure 31
0030
0000
0000
0000
,  // measure 32
0200
0000
0000
0000
,  // measure 33
0300
0000
0000
0000
,  // measure 34
0020
0030
0010
0000
,  // measure 35
0200
0300
0100
0000
,  // measure 36
0020
0030
0010
0000
,  // measure 37
0200
0300
0100
0000
,  // measure 38
0001
0001
0001
0000
,  // measure 39
1000
1000
1000
0000
,  // measure 40
0100
0100
0100
0000
,  // measure 41
0010
0010
0010
0000
,  // measure 42
0100
0000
0000
0000
,  // measure 43
0001
0000
0010
0000
,  // measure 44
0001
0000
0010
0000
,  // measure 45
1000
0000
0010
0000
,  // measure 46
1000
0000
0010
0000
,  // measure 47
0100
0100
0100
0000
,  // measure 48
0010
0010
0010
0000
,  // measure 49
1000
1000
1000
0000
,  // measure 50
0001
0001
0001
0000
,  // measure 51
0100
0100
0100
0000
,  // measure 52
0001
0001
0001
0000
,  // measure 53
0010
0010
0010
0000
,  // measure 54
2000
0000
0000
3000
,  // measure 55
2002
0000
0000
0000
,  // measure 56
0000
0000
0000
0000
,  // measure 57
0000
0000
0000
0000
0000
0000
0000
0000
0000
0000
0000
0000
0000
3003
0000
0000
0000
0000
0000
0000
0000
0000
0000
0000
;
