#TITLE:CARRY ON CARRY ON;
#SUBTITLE:;
#ARTIST:Nuage;
#TITLETRANSLIT:;
#SUBTITLETRANSLIT:;
#ARTISTTRANSLIT:;
#GENRE:SUPER EUROBEAT;
#CREDIT:;
#BANNER:Carry On Carry On.png;
#BACKGROUND:Carry On Carry On-bg.png;
#LYRICSPATH:;
#CDTITLE:;
#MUSIC:Carry On Carry On.ogg;
#OFFSET:0.000000;
#SAMPLESTART:78.339996;
#SAMPLELENGTH:13.340000;
#SELECTABLE:YES;
#BPMS:0.000000=149.990005
;
#STOPS:
;
#BGCHANGES:;
#KEYSOUNDS:;
#ATTACKS:;

//---------------dance-single - Classic 9 | Modern 13----------------
#NOTES:
     dance-single:
     :
     Hard:
     13:
     0.691112,0.738988,0.219899,0.363679,0.515917,572.000000,546.000000,26.000000,43.000000,0.000000,0.000000,0.691112,0.738988,0.219899,0.363679,0.515917,572.000000,546.000000,26.000000,43.000000,0.000000,0.000000:
// measure 0
0000
0000
0000
0000
,  // measure 1
0000
0000
0000
0000
,  // measure 2
0000
0000
0000
0000
,  // measure 3
0000
0000
0000
0000
,  // measure 4
1000
0000
0000
1000
0000
0000
1000
0000
0100
0000
0100
0000
0010
0000
0010
0000
,  // measure 5
0001
0000
0000
0001
0000
0000
0001
0000
0100
0000
0100
0000
0010
0000
0020
0030
,  // measure 6
1000
0000
0000
1000
0000
0000
1000
0000
0100
0000
0100
0000
0010
0000
0010
0000
,  // measure 7
0001
1000
0001
1000
0001
1000
0001
1000
0001
1000
0001
1000
0004
0000
0000
0000
,  // measure 8
1003
0000
0000
1000
0001
0000
1000
0000
0100
0000
0001
0000
0100
0000
2000
0000
,  // measure 9
0001
0000
3000
0001
1000
0000
0001
0000
0100
0000
1000
0000
0100
0000
0002
0000
,  // measure 10
1000
0000
0003
1000
0001
0000
1000
0000
0100
0000
0001
0000
0100
0000
1000
0000
,  // measure 11
1010
1010
0101
0101
,  // measure 12
1000
0000
0000
1000
0001
0000
0010
0000
1000
0000
0010
0000
0001
0000
2000
0000
,  // measure 13
0001
0000
3000
0001
1000
0000
0010
0000
0001
0000
0010
0000
1000
0000
0002
0000
,  // measure 14
1000
0000
0003
1000
0001
0000
0010
0000
1000
0000
0010
0000
0001
0000
2000
0000
,  // measure 15
3010
0000
0010
0000
0010
0000
0000
0100
0001
0000
1000
0000
0100
0010
0000
0000
,  // measure 16
0120
0100
0030
0100
1000
0010
0001
0010
,  // measure 17
0200
0001
0300
0001
0010
1000
0010
0100
,  // measure 18
2000
0010
3000
0010
0001
0010
1000
0100
,  // measure 19
0011
0000
0000
0000
0011
0000
0000
0000
1100
0000
0000
0000
1100
0000
0100
1000
,  // measure 20
0200
1000
0300
1000
0010
0100
0010
1000
,  // measure 21
0002
0100
0003
0100
0010
0100
0001
0010
,  // measure 22
0200
0010
0300
0010
0002
1000
0003
1000
,  // measure 23
0010
0000
0010
0000
0010
0000
0000
1000
0001
0000
0100
0000
0010
1000
0000
0000
,  // measure 24
0200
0000
0000
0300
,  // measure 25
1002
0000
0000
1000
0000
0000
1003
0000
0020
0000
0000
0100
0030
0100
0010
0100
,  // measure 26
0002
0000
0000
0010
0000
0000
0023
0000
0230
0000
0000
1300
0000
0100
0010
0000
,  // measure 27
0100
0000
0100
0000
0100
1000
0000
0000
0010
0000
0010
0000
0010
0100
0000
0100
,  // measure 28
0010
1000
0010
1000
0001
1000
0000
0000
0001
0010
0001
0010
0001
1000
0000
0000
,  // measure 29
0200
0000
0000
0010
0000
0000
0310
0000
0002
0000
0000
1003
0000
0100
1000
0001
,  // measure 30
2000
0000
0000
0010
0000
3000
0020
0000
0032
0000
0000
0013
0000
0100
0001
0000
,  // measure 31
0100
0000
0100
0000
0100
0010
0000
0000
1000
0000
1000
0000
1000
0001
0000
0001
,  // measure 32
0010
0100
0010
0001
1000
0001
0000
0000
1000
0100
0010
0100
1000
0001
0000
0000
,  // measure 33
1001
0001
1000
0001
0100
1000
0100
0001
,  // measure 34
1000
0001
1000
0001
1000
0100
0001
0100
,  // measure 35
1000
0000
0010
0000
1000
0000
0010
0000
0100
0000
0001
0000
0100
0000
0001
0010
,  // measure 36
0001
0000
0001
0000
1000
0000
1000
0000
0010
0100
0010
0100
0010
0000
1000
0001
,  // measure 37
2000
3001
1000
0001
0010
1000
0010
0001
,  // measure 38
1000
0001
1000
0010
0001
0010
1000
0001
,  // measure 39
0100
1000
0000
1000
0100
0001
0000
0001
,  // measure 40
1000
0100
0010
0001
0100
0010
0110
0000
,  // measure 41
1001
0000
0000
0001
1000
0000
0100
0000
1000
0000
0010
0000
1000
0000
0001
0000
,  // measure 42
2000
0000
3001
1000
0100
0000
1100
0000
,  // measure 43
0011
0000
0000
0001
0010
0000
0001
0000
0100
0000
0010
0000
0100
0000
0001
0000
,  // measure 44
0020
0000
0000
0000
0130
0000
2000
0000
0001
0000
3000
0000
1000
0010
1000
0010
,  // measure 45
0100
0000
0000
0100
0001
0000
0100
0000
1000
0000
0100
0000
0010
0000
1000
0000
,  // measure 46
0200
0000
0310
0002
1000
0003
1001
0000
,  // measure 47
1100
0000
0000
0100
1000
0000
0200
0000
1000
0000
0000
0000
1300
0000
0010
0000
,  // measure 48
0100
0001
0010
0011
0000
1001
0004
0003
,  // measure 49
1001
0100
0010
0000
1001
0010
0100
0000
,  // measure 50
0001
0000
0010
0000
1000
0000
0020
0000
0031
0000
0000
0000
1000
0001
0100
0010
,  // measure 51
1000
0100
1000
0100
0001
0100
0001
0100
,  // measure 52
1000
0000
0001
0100
0000
0010
0000
0010
1000
0000
1000
0001
0000
0001
1000
0100
,  // measure 53
1000
0010
1000
0010
0001
0010
0001
0010
,  // measure 54
1000
0000
0100
0000
0000
0000
1200
0000
0000
0000
1300
0001
0000
0001
1000
0000
,  // measure 55
0001
0200
0320
0032
,  // measure 56
0013
0000
1000
0001
0000
1000
0100
0000
0010
0000
0100
1000
0000
0001
1000
0000
,  // measure 57
1010
0010
0100
0000
0011
0010
0100
0000
,  // measure 58
0010
0000
0001
0000
1000
0000
0020
0000
0130
0000
0000
0000
0010
1000
0100
1000
,  // measure 59
0001
0010
0100
0010
0001
1000
0010
0100
,  // measure 60
0001
0000
0001
1000
0000
0100
0000
0100
1000
0000
1000
0010
0000
0010
0100
0001
,  // measure 61
1000
0001
0010
0001
1000
0010
0100
0010
,  // measure 62
0100
0000
0002
0000
0000
0000
0203
0000
0000
0000
0310
1000
0000
1000
0010
0000
,  // measure 63
0100
0000
0010
0001
0100
1000
0001
0000
,  // measure 64
2002
0000
3003
0220
0000
0330
0000
0000
,  // measure 65
0010
0000
1000
0100
0000
0100
1000
0000
0010
0000
0100
0001
0000
0001
0010
0100
,  // measure 66
1000
0000
1000
0100
0000
0100
0010
0000
0001
0000
0001
0100
0000
0100
0010
0000
,  // measure 67
0100
0000
0100
0000
0100
0001
0000
0000
1000
0000
1000
0000
1000
0010
0000
0010
,  // measure 68
0100
0001
0100
0010
0100
0001
0000
0000
0010
0100
0010
1000
0010
0001
0000
0000
,  // measure 69
0100
0000
0001
0010
0000
0010
0001
0000
0100
0000
0010
1000
0000
1000
0100
0010
,  // measure 70
0001
0000
0001
0010
0000
0010
0100
0000
1000
0000
1000
0010
0000
0010
0100
0000
,  // measure 71
0010
0000
0010
0000
0010
1000
0000
0000
0001
0000
0001
0000
0001
0100
0000
0100
,  // measure 72
0010
1000
0010
0100
0010
1000
0000
0000
0100
0010
0100
0001
0100
1000
0000
0000
;

//---------------dance-single - Classic 3 | Modern 5----------------
#NOTES:
     dance-single:
     :
     Easy:
     5:
     0.228357,0.276883,0.152238,0.050746,0.000000,189.000000,171.000000,18.000000,6.000000,0.000000,0.000000,0.228357,0.276883,0.152238,0.050746,0.000000,189.000000,171.000000,18.000000,6.000000,0.000000,0.000000:
// measure 0
0000
0000
0000
0000
,  // measure 1
0000
0000
0000
0000
,  // measure 2
0000
0000
0000
0000
,  // measure 3
0000
0000
0000
0000
,  // measure 4
1000
0000
0100
0100
,  // measure 5
0010
0000
0001
0001
,  // measure 6
0100
0000
0010
0010
,  // measure 7
2002
0000
0000
3003
,  // measure 8
0110
0000
0100
0000
,  // measure 9
0001
1000
0001
0000
,  // measure 10
1000
0000
0100
0000
,  // measure 11
0010
0010
0100
0100
,  // measure 12
1000
0000
0001
0000
,  // measure 13
0100
0010
0100
0000
,  // measure 14
0001
0000
1000
0000
,  // measure 15
0010
0010
0100
0100
,  // measure 16
0110
0000
1000
0000
,  // measure 17
0001
0000
0010
0000
,  // measure 18
0100
0000
1000
0000
,  // measure 19
0010
0010
0100
0100
,  // measure 20
0010
0000
1000
0000
,  // measure 21
0100
0000
0010
0000
,  // measure 22
0001
0000
1000
0000
,  // measure 23
0100
0100
0010
0010
,  // measure 24
0220
0000
0000
0330
,  // measure 25
0100
0000
0010
0000
,  // measure 26
0001
0000
1000
0000
,  // measure 27
0010
0000
0010
0000
,  // measure 28
1000
0001
1000
0000
,  // measure 29
0001
0000
0100
0000
,  // measure 30
0010
0000
1000
0000
,  // measure 31
0100
0000
0010
0000
,  // measure 32
0001
1000
0001
0000
,  // measure 33
1001
0000
0100
0100
,  // measure 34
0010
0000
1000
1000
,  // measure 35
0001
0000
1000
0000
,  // measure 36
0010
0000
0110
0000
,  // measure 37
1001
0000
0100
0100
,  // measure 38
0010
0000
0001
0001
,  // measure 39
1000
0000
0010
0000
,  // measure 40
0100
0100
0001
0000
,  // measure 41
1001
0000
1000
0000
,  // measure 42
0100
0100
0100
0000
,  // measure 43
0110
0000
0001
0000
,  // measure 44
1000
0000
0010
0000
,  // measure 45
0110
0000
0010
0000
,  // measure 46
0100
0000
0100
0000
,  // measure 47
0001
0000
1000
0000
,  // measure 48
0110
0000
1001
0000
,  // measure 49
0110
0000
0110
0000
,  // measure 50
0100
0100
0100
0000
,  // measure 51
0010
0000
1000
0000
,  // measure 52
0100
0100
0010
0000
,  // measure 53
0001
0000
1000
0000
,  // measure 54
0010
0010
1000
0000
,  // measure 55
0001
0000
0100
0000
,  // measure 56
0110
0000
1001
0000
,  // measure 57
0110
0000
0110
0000
,  // measure 58
0100
0100
0001
0000
,  // measure 59
1000
0000
0100
0000
,  // measure 60
0010
0010
0001
0000
,  // measure 61
1000
0000
0001
0000
,  // measure 62
0100
0100
0010
0000
,  // measure 63
1000
0000
0100
0000
,  // measure 64
2000
0000
0000
0002
0000
0000
3003
0000
,  // measure 65
0100
0000
0010
0000
,  // measure 66
1000
0000
0001
0000
,  // measure 67
1000
1000
0001
0001
,  // measure 68
0100
0100
0010
0010
,  // measure 69
1000
0000
0010
0000
,  // measure 70
0100
0000
0001
0000
,  // measure 71
1000
1000
0010
0010
,  // measure 72
0100
0100
0001
0001
;

//---------------dance-single - Classic 6 | Modern 9----------------
#NOTES:
     dance-single:
     :
     Medium:
     9:
     0.428924,0.461471,0.143780,0.685071,0.059204,355.000000,338.000000,17.000000,81.000000,0.000000,0.000000,0.428924,0.461471,0.143780,0.685071,0.059204,355.000000,338.000000,17.000000,81.000000,0.000000,0.000000:
// measure 0
0000
0000
0000
0000
,  // measure 1
0000
0000
0000
0000
,  // measure 2
0000
0000
0000
0000
,  // measure 3
0000
0000
0000
0000
,  // measure 4
0000
0000
0000
0000
,  // measure 5
0000
0000
0000
0000
,  // measure 6
0000
0000
0000
0000
,  // measure 7
0000
0000
0000
0000
,  // measure 8
2000
0000
3010
0100
0010
0100
0010
0100
,  // measure 9
0020
0000
1030
0002
0100
0000
0013
0000
,  // measure 10
0001
0000
0001
0000
0100
0000
0100
0010
,  // measure 11
1000
1000
0010
0010
,  // measure 12
0100
0000
0001
1000
0100
1000
0200
0000
,  // measure 13
0320
0000
0031
2000
0010
3000
1020
0000
,  // measure 14
0130
0100
0001
0001
,  // measure 15
1000
0000
0100
0000
1000
0000
0000
0001
0010
0000
0100
0000
1000
0000
0000
0000
,  // measure 16
0002
0000
0003
0100
0010
0100
0001
0100
,  // measure 17
0020
0000
0030
1000
0100
1000
0010
1000
,  // measure 18
0001
0000
0001
0000
1000
0000
1000
0100
,  // measure 19
0010
0010
0100
0100
,  // measure 20
2000
0000
3000
0010
1000
0001
0100
0010
,  // measure 21
0200
0000
0300
0001
0100
0001
1000
0010
,  // measure 22
1000
1100
0001
0101
,  // measure 23
1000
0000
0001
0000
0100
0000
0000
0010
1000
0000
0010
0000
1000
0000
0000
0000
,  // measure 24
0002
0000
0000
0000
,  // measure 25
2003
0000
0000
0100
0000
0000
3100
0000
0020
0000
0000
0001
0000
0000
0031
0000
,  // measure 26
0200
0000
0000
0010
0000
0000
0310
0000
1000
0000
0000
0000
0001
0000
0000
0000
,  // measure 27
0010
0100
0010
0000
0001
0100
0001
0000
,  // measure 28
1000
0010
1000
0000
1000
0001
1000
0000
,  // measure 29
0020
0000
0000
0100
0000
0000
0130
0000
0002
0000
0000
1000
0000
0000
1003
0000
,  // measure 30
0200
0000
0000
0010
0000
0000
0310
0000
0001
0000
0000
0000
1000
0000
0000
0000
,  // measure 31
0010
1000
0010
0000
0100
0001
0100
0000
,  // measure 32
0001
0001
0001
0000
1000
1000
1000
0000
,  // measure 33
1002
0000
1003
0010
1000
0100
1000
0000
,  // measure 34
0020
0000
0130
0001
0100
0010
0100
0000
,  // measure 35
0020
0000
1030
0000
0002
0000
1003
0100
,  // measure 36
0010
0001
0100
0000
1020
0000
1030
0001
,  // measure 37
2000
0000
3001
0010
0100
0010
0001
0000
,  // measure 38
0200
0000
0310
1000
0100
1000
0010
2000
,  // measure 39
0000
3100
0000
0020
0000
0031
0000
0011
,  // measure 40
0000
1001
0000
2020
0000
0000
3030
0000
,  // measure 41
0120
0000
1030
0001
1000
0001
1000
0001
,  // measure 42
2000
0000
3001
1000
0200
0000
0310
0000
,  // measure 43
0012
0000
0013
0100
0010
0100
0020
0000
,  // measure 44
0032
0000
1003
0020
0000
0000
1030
0000
,  // measure 45
1010
0000
0010
0100
0010
0100
0020
0000
,  // measure 46
2030
0000
3001
2000
0000
0000
3100
0000
,  // measure 47
0210
0000
0010
0000
1000
0000
0310
0002
,  // measure 48
0000
0000
2000
0003
0000
0000
3020
0000
0000
0000
0200
0000
0330
0000
0000
0000
,  // measure 49
0010
1000
0100
0000
0010
0001
0100
0000
,  // measure 50
0010
1000
0100
0010
0002
0000
1003
0000
,  // measure 51
2100
0000
0010
3020
0000
1030
0000
0002
,  // measure 52
0000
0023
0000
0230
0000
2300
0000
3001
,  // measure 53
0010
0000
0001
1000
0010
1000
0000
0002
,  // measure 54
0000
0203
0000
0320
0000
2030
0000
3001
,  // measure 55
0100
0020
2030
3001
,  // measure 56
0012
0000
0000
2000
0000
0000
3003
0000
,  // measure 57
0001
0100
1000
0000
0001
0010
1000
0000
,  // measure 58
0001
0100
1000
0001
0020
0000
1030
0000
,  // measure 59
1020
0000
0130
0200
0000
0302
0000
2003
,  // measure 60
0000
3200
0000
0320
0000
0032
0000
1003
,  // measure 61
0010
0000
0100
0010
1000
0001
0000
0020
,  // measure 62
0000
0230
0000
2300
0000
3002
0000
0013
,  // measure 63
0100
0000
0010
0001
0100
0010
1000
0000
,  // measure 64
2020
0000
3030
2002
0000
3003
0000
0000
,  // measure 65
0002
0000
0000
0100
0000
0000
0103
0000
0020
0000
0000
1000
0000
0000
1030
0000
,  // measure 66
0002
0000
0000
0010
0000
0000
0013
0000
0100
0000
0000
0000
1000
0000
0000
0000
,  // measure 67
0010
1000
0010
0000
0010
0100
0010
0000
,  // measure 68
0100
0001
0010
0000
0010
0100
1000
0000
,  // measure 69
0020
0000
0000
1000
0000
0000
1030
0000
0002
0000
0000
1000
0000
0000
1003
0000
,  // measure 70
0200
0000
0000
1000
0000
0000
1300
0000
0010
0000
0000
0000
1000
0000
0000
0000
,  // measure 71
0001
0100
0010
0000
0010
1000
0100
0000
,  // measure 72
1000
0010
0001
0000
0001
0100
1000
0000
;
