#TITLE:CALL;
#SUBTITLE:;
#ARTIST:猫叉Master;
#TITLETRANSLIT:;
#SUBTITLETRANSLIT:;
#ARTISTTRANSLIT:Nekomata Master;
#GENRE:;
#CREDIT:;
#BANNER:banner.png;
#BACKGROUND:background.png;
#LYRICSPATH:;
#CDTITLE:;
#MUSIC:CALL.ogg;
#OFFSET:0.952000;
#SAMPLESTART:70.820145;
#SAMPLELENGTH:12.531647;
#SELECTABLE:YES;
#BPMS:0.000000=158.000000
;
#STOPS:
;
#BGCHANGES:;
#KEYSOUNDS:;
#ATTACKS:;

//---------------dance-single - ----------------
#NOTES:
     dance-single:
     :
     Hard:
     9:
     0.319428,0.425948,0.075371,0.234486,0.083745,267.000000,258.000000,9.000000,28.000000,0.000000,0.000000,0.319428,0.425948,0.075371,0.234486,0.083745,267.000000,258.000000,9.000000,28.000000,0.000000,0.000000:
// measure 0
0000
0000
0000
0000
,  // measure 1
0000
0000
0000
0000
,  // measure 2
0000
0000
0000
0000
,  // measure 3
0000
0000
0000
0000
,  // measure 4
0001
0010
0100
0000
0000
0000
0010
0100
,  // measure 5
1000
0000
0000
0000
1000
0100
0010
0000
,  // measure 6
0000
0000
0100
0010
0001
0000
0000
0000
,  // measure 7
0100
0010
1000
0000
0000
0000
0001
1000
,  // measure 8
0100
0000
0000
0000
0010
0001
0100
0000
,  // measure 9
0000
0000
0010
1000
0010
0000
0000
0000
,  // measure 10
1000
0100
0010
0100
,  // measure 11
1000
0001
0100
0001
,  // measure 12
0000
1000
0100
0000
0000
0000
0000
0000
,  // measure 13
1000
0001
0100
0001
,  // measure 14
1000
0000
0000
0000
0000
0000
0000
0100
0010
0000
0000
0000
0000
0000
0000
0000
,  // measure 15
0000
0200
0000
1300
,  // measure 16
0001
1000
0010
1000
,  // measure 17
0001
0010
0100
1000
,  // measure 18
0000
0000
0000
0001
0010
0000
0000
0000
0000
0000
0000
0000
0000
0000
0000
0000
,  // measure 19
0001
0000
0000
0000
0100
0000
0000
0000
0000
0000
0000
0010
0100
0000
0000
0000
,  // measure 20
0010
0000
1000
0000
0001
0000
0000
0100
,  // measure 21
0000
0000
0010
0000
0000
1000
0000
0000
,  // measure 22
1001
0001
0010
0001
,  // measure 23
1000
0010
1000
0001
,  // measure 24
0000
0000
0000
0010
0100
0000
0000
0000
0000
0000
0000
0000
0000
0000
0000
0000
,  // measure 25
0010
0100
1000
0100
,  // measure 26
1000
0001
0010
0000
,  // measure 27
0000
0200
0000
0310
,  // measure 28
0001
0100
1000
0100
,  // measure 29
0010
1000
0001
0010
,  // measure 30
0000
0000
0000
0100
2000
0000
0000
0000
0000
0000
0000
0000
0000
0000
0000
0000
,  // measure 31
3001
0000
0000
0000
1000
0000
0000
0000
0000
0000
0000
0001
0010
0000
0000
0000
,  // measure 32
0100
0000
0010
0000
0001
0000
0000
0010
,  // measure 33
0000
0000
1000
0000
0000
0010
0010
0000
,  // measure 34
0001
0000
0000
1000
0000
0000
0010
0000
,  // measure 35
0000
1000
0000
0000
0001
0000
0000
0010
,  // measure 36
0000
0000
0100
0000
0000
0010
0000
0000
,  // measure 37
0001
0000
0000
1000
0000
0000
0100
0000
,  // measure 38
0000
1000
0000
0000
0010
0000
0000
0000
,  // measure 39
0000
0100
0001
1000
,  // measure 40
1001
0000
0000
1000
0000
0000
0010
0000
,  // measure 41
0000
1000
0000
0000
1001
0000
0000
0001
,  // measure 42
0000
0000
0010
0000
0000
0001
0000
0000
,  // measure 43
1001
0000
0000
0110
0000
0000
1001
0000
,  // measure 44
0000
0110
0000
0000
1001
0000
1000
0000
,  // measure 45
0100
0010
0001
0100
,  // measure 46
0020
0000
0000
0000
,  // measure 47
0030
0100
0002
0000
,  // measure 48
0003
0000
0000
1000
0200
0000
0000
0000
0000
0000
0000
0000
0300
0000
0000
0010
,  // measure 49
0200
0000
0000
0000
0310
0001
2000
0000
,  // measure 50
0000
0000
0000
0000
3001
0000
0000
0010
0002
0000
0000
0000
0000
0000
0000
0000
,  // measure 51
0003
0000
0000
1000
0002
0000
0000
0000
0000
0000
0000
0000
0003
0000
0000
1000
,  // measure 52
0020
0000
0000
0000
0130
0001
1000
0100
,  // measure 53
0010
0001
1000
0000
0020
0000
0000
0000
,  // measure 54
0030
0000
0000
0100
0020
0000
0000
0000
0000
0000
0000
0000
0030
0000
0000
1000
,  // measure 55
0020
0000
0000
0230
0000
0000
0301
0000
,  // measure 56
1000
0100
0020
0032
,  // measure 57
2000
0000
3003
2000
,  // measure 58
3002
0000
0203
0000
0302
0000
0013
0100
,  // measure 59
1000
0100
0010
0100
1000
0000
0001
0000
,  // measure 60
0010
0000
0000
0100
1000
0000
0000
0000
0100
0000
0000
0000
0010
0000
0000
0001
,  // measure 61
0100
0000
0001
0000
1000
0100
0010
0000
,  // measure 62
0100
0000
0000
0000
1000
0000
0000
0010
0100
0000
0000
0000
0001
0000
0000
0000
,  // measure 63
0010
0000
0000
0100
0010
0000
0000
0000
0001
0000
0000
0000
1000
0000
0000
0010
,  // measure 64
1000
0000
0100
0000
0010
0100
2000
0000
,  // measure 65
0000
3010
0100
0001
,  // measure 66
0010
0000
0000
0100
0010
0000
0000
0000
0001
0000
0000
0000
1000
0000
0000
0010
,  // measure 67
2000
0000
0000
3020
0000
0000
0130
0000
,  // measure 68
0001
0010
0100
1000
,  // measure 69
2000
0000
3000
1000
,  // measure 70
0001
1000
2000
0000
,  // measure 71
3000
0000
0000
0000
1001
0000
0000
0010
,  // measure 72
0001
0100
0000
0000
0000
0010
1000
0100
,  // measure 73
0000
0000
0000
0010
0001
0100
0000
0000
,  // measure 74
0000
0010
1000
0100
0000
0000
0000
0010
,  // measure 75
0001
0100
0000
0000
0000
0010
1000
0100
,  // measure 76
0000
0000
0000
0010
0001
0100
0001
1000
,  // measure 77
0002
0000
0000
0000
,  // measure 78
0000
0003
0000
0000
;

//---------------dance-single - ----------------
#NOTES:
     dance-single:
     :
     Medium:
     7:
     0.266788,0.321372,0.033498,0.284733,0.000000,223.000000,219.000000,4.000000,34.000000,0.000000,0.000000,0.266788,0.321372,0.033498,0.284733,0.000000,223.000000,219.000000,4.000000,34.000000,0.000000,0.000000:
0000
0000
0000
0000
,
0000
0000
0000
0000
,
0000
0000
0000
0000
,
0000
0000
0000
0000
,
1000
0010
0000
1000
,
0001
0000
1000
0100
,
0000
1000
0001
0000
,
0001
0100
0000
0001
,
1000
0000
0001
0010
,
0000
0001
1000
0000
,
0010
1000
0100
0010
,
0100
1000
0001
0100
,
0000
0010
0100
0000
0000
0000
0000
0000
,
0010
1000
0001
0010
,
0100
0000
0000
0010
0001
0000
0000
0000
,
0000
2000
0000
0000
,
3001
0100
0010
1000
,
0100
1000
0010
0100
,
0000
0001
0100
0000
0000
0000
0000
0000
,
0001
0000
1000
0000
0000
0100
1000
0000
,
0100
0000
1000
0000
0010
0000
0000
0100
,
0000
0000
0001
0000
0000
1000
0000
0000
,
1001
0001
0010
0001
,
1000
0100
0010
0100
,
0000
1100
0000
0000
,
0100
1000
0010
0100
,
0001
0010
0001
0000
,
0000
2000
0000
3010
,
0001
0100
0001
0010
,
0001
1000
0100
0010
,
0000
0011
0000
0000
,
0001
0100
0000
1010
,
0010
0000
1000
0000
0001
0000
0000
1000
,
0000
0000
0010
0000
0000
0100
0000
0000
,
0001
0000
0000
0010
0000
0000
0100
0000
,
0000
1000
0000
0000
0001
0000
0000
0010
,
0000
0000
0100
0000
0000
0010
0000
0000
,
0001
0000
0000
1000
0000
0000
0010
0000
,
0000
0100
0000
0000
0001
0000
0000
0000
,
0000
1000
0001
0100
,
0010
0000
0000
1000
0000
0000
0100
0000
,
0000
0001
0000
0000
0100
0000
0000
1000
,
0000
0000
0010
0000
0000
0001
0000
0000
,
0010
0000
0000
0100
0000
0000
0001
0000
,
0000
1000
0000
0000
0001
0000
0010
0000
,
0001
1000
0100
1000
,
0002
0000
0000
0003
,
0000
2000
3020
0130
,
0001
0020
0130
1000
,
0020
0000
0130
0000
0001
1000
0200
0000
,
0000
1300
0002
0103
,
0001
0020
0130
1000
,
0200
0000
1300
0000
0100
0010
0002
0000
,
0000
1003
0200
0310
,
1000
0002
0013
0001
,
0200
0000
0000
0310
0000
0000
1000
0000
,
0100
0010
0100
1000
,
2000
0000
0000
3001
,
0001
1000
2000
0000
,
0000
3010
0200
0301
,
0010
0200
0310
0001
,
2000
0000
3001
0000
0100
0001
0020
0000
,
0000
0130
0020
0031
,
1000
0200
1300
0001
,
0200
0000
0310
0000
1000
0001
0020
0000
,
0000
0130
2000
3001
,
1000
0020
0130
0001
,
0020
0000
0000
0130
0000
0000
0010
0000
,
0001
1000
0010
0100
,
0200
0000
0300
0100
,
0010
0100
0200
0000
,
0000
0000
0320
0000
,
0000
1030
0000
0000
,
0002
0000
0000
0013
,
0000
0000
0200
0000
,
0000
1300
0000
0000
,
2000
0000
0000
3001
;

//---------------dance-single - ----------------
#NOTES:
     dance-single:
     :
     Easy:
     4:
     0.193810,0.290177,0.033498,0.058622,0.000000,162.000000,158.000000,4.000000,7.000000,0.000000,0.000000,0.193810,0.290177,0.033498,0.058622,0.000000,162.000000,158.000000,4.000000,7.000000,0.000000,0.000000:
0000
0000
0000
0000
,
0000
0000
0000
0000
,
0000
0000
0000
0000
,
0000
0000
0000
0000
,
1000
0000
0000
0010
,
0000
0000
0100
0000
,
0000
0001
0000
0000
,
1000
0000
0000
0010
,
0000
0000
0100
0000
,
0000
0001
1000
0000
,
0001
0010
0100
1000
,
0100
0010
0100
1000
,
0000
0001
0000
0000
,
1000
0001
0100
0001
,
0010
0000
0001
0000
,
0000
0001
0000
0100
,
0010
1000
0010
0100
,
0001
0010
0100
0010
,
0000
0100
0000
0000
,
0010
0001
0000
0100
,
0001
0000
1000
0000
0001
0000
0000
0001
,
0000
0000
1000
0000
0000
1000
0000
0000
,
0010
1000
0010
1000
,
0010
0100
0010
1000
,
0000
1001
0000
0000
,
0001
0010
0100
0010
,
0001
1000
0001
0000
,
0000
0100
0000
0001
,
0010
0001
1000
0100
,
1000
0010
0100
0001
,
0000
1001
0000
0000
,
1000
0001
0000
1001
,
0001
0000
1000
0000
0010
0000
0000
0010
,
0000
0000
0100
0000
0000
0100
0000
0000
,
0001
0000
0000
0000
,
0000
0000
1000
0000
,
0000
0000
0000
0000
,
0010
0000
0000
0000
,
0000
0000
0100
0000
,
0000
0010
0000
0000
,
1000
0000
0000
0000
,
0000
0000
0001
0000
,
0000
0000
0000
0000
,
0100
0000
0000
0100
,
0000
0000
0010
1000
,
0001
1000
0100
0010
,
2002
0000
0000
0000
,
3003
0001
1000
0000
,
0000
0100
0000
0000
,
1000
0000
0010
0100
,
0000
0010
1000
0000
,
0000
1000
0000
0000
,
0010
0000
0100
0001
,
0000
0010
0100
0000
,
0000
0100
0000
0000
,
0100
0000
0000
0010
0000
0000
0001
0000
,
1000
0010
1000
0001
,
0002
0000
0003
1000
,
0001
1000
2000
0000
,
3000
0001
0100
0000
,
0000
0010
0000
0000
,
1000
0000
0100
1000
,
0000
0100
0010
0000
,
0000
0010
0000
0000
,
0001
0000
1000
0010
,
0000
0100
0001
0000
,
0000
0001
0000
0000
,
0001
0000
0000
1000
0000
0000
0001
0000
,
1000
0010
0100
0001
,
0002
0000
0003
1000
,
0001
1000
2000
0000
,
0000
3000
0010
0000
,
0000
1000
0000
0000
,
0100
0000
0000
0010
,
0000
0000
0001
0000
,
0000
1000
0000
0000
,
0010
0000
0000
0200
,
0300
0000
0000
0000
;

//---------------dance-single - ----------------
#NOTES:
     dance-single:
     :
     Beginner:
     2:
     0.092120,0.193451,0.000000,0.016749,0.000000,77.000000,77.000000,0.000000,2.000000,0.000000,0.000000,0.092120,0.193451,0.000000,0.016749,0.000000,77.000000,77.000000,0.000000,2.000000,0.000000,0.000000:
0000
0000
0000
0000
,
0000
0000
0000
0000
,
0000
0000
0000
0000
,
0000
0000
0000
0000
,
1000
0000
0000
0000
,
0000
0000
0001
0000
,
0000
0000
0000
0000
,
1000
0000
0000
0000
,
0000
0000
0001
0000
,
0000
0000
0000
0000
,
0100
0000
0000
0000
,
0000
0000
0010
0000
,
0000
0000
0000
0000
,
1000
0000
0000
0000
,
0000
0000
0001
0000
,
0000
1000
0000
0000
,
0010
0000
0000
0000
,
0000
0000
0100
0000
,
0000
0000
0000
0000
,
0001
0000
0000
0000
,
0000
0000
1000
0000
,
0000
1000
0000
0000
,
0010
0000
0000
0000
,
0000
0000
0100
0000
,
0000
0000
0000
0000
,
0001
0000
0000
0000
,
0000
0000
1000
0000
,
0000
0010
0000
0000
,
0100
0000
0000
0000
,
0000
0000
0001
0000
,
0000
0000
0000
0000
,
0010
0000
0000
0000
,
0000
0000
0100
0000
,
0000
1000
0000
0000
,
0001
0000
0000
0000
,
0000
0000
1000
0000
,
0000
0000
0000
0000
,
0010
0000
0000
0000
,
0000
0000
0100
0000
,
0000
0000
0000
0000
,
0010
0000
0000
0000
,
0000
0000
1000
0000
,
0000
0000
0000
0000
,
0001
0000
0000
0001
,
0000
0000
0001
0000
,
0000
0000
0000
0000
,
1000
0000
0000
0000
,
0000
0000
0010
0000
,
0000
0010
0000
0000
,
0010
0000
0100
0100
,
0000
0000
0001
0000
,
0000
0001
0000
0000
,
0001
0000
1000
1000
,
0000
0000
0010
0000
,
0000
0010
0000
0000
,
0010
0000
0000
0100
,
0000
0000
0001
0001
,
0001
0000
0000
0000
,
1000
1000
1000
0000
,
0000
0000
0010
0000
,
0000
1000
0000
0000
,
0001
0000
0100
0100
,
0000
0000
0010
0000
,
0000
1000
0000
0000
,
0100
0000
1000
1000
,
0000
0001
1000
0000
,
0000
0001
0000
0000
,
0100
0000
0000
0010
,
0000
0000
0100
0100
,
0100
0000
0000
0000
,
0010
0010
0010
0000
,
0000
0000
2000
0000
,
0000
0000
0000
0000
,
0000
0000
0000
0000
,
0000
3000
0002
0000
,
0000
0000
0000
0000
,
0000
0000
0000
0000
,
0003
0000
0000
0000
;
