#VERSION:0.83;
#TITLE:But I Go Back;
#SUBTITLE:;
#ARTIST:Mameyudoufu;
#TITLETRANSLIT:;
#SUBTITLETRANSLIT:;
#ARTISTTRANSLIT:;
#GENRE:;
#ORIGIN:;
#CREDIT:;
#BANNER:But I Go Back.png;
#BACKGROUND:But I Go Back-bg.png;
#PREVIEWVID:;
#JACKET:But I Go Back-jacket.png;
#CDIMAGE:;
#DISCIMAGE:;
#LYRICSPATH:;
#CDTITLE:;
#MUSIC:But I Go Back.ogg;
#OFFSET:1.827000;
#SAMPLESTART:29.096001;
#SAMPLELENGTH:15.000000;
#SELECTABLE:YES;
#DISPLAYBPM:130.000000;
#BPMS:0.000=130.000,
34.000=260.000,
35.000=130.000,
129.000=65.000,
130.000=130.000,
190.000=260.000,
191.000=130.000,
222.000=260.000,
223.000=130.000;
#STOPS:32.000=0.231,
32.500=0.231,
34.000=0.115,
34.500=0.115,
142.000=0.231,
142.500=0.231,
143.000=0.231,
143.500=0.231,
188.000=0.231,
188.500=0.231,
190.000=0.115,
190.500=0.115,
222.000=0.115,
222.500=0.115;
#DELAYS:;
#WARPS:;
#TIMESIGNATURES:0.000=4=4;
#TICKCOUNTS:0.000=4;
#COMBOS:0.000=1;
#SPEEDS:0.000=1.000=0.000=0;
#SCROLLS:0.000=1.000;
#FAKES:;
#LABELS:0.000=Song Start;
#BGCHANGES:;
#KEYSOUNDS:;
#ATTACKS:
;

//---------------dance-single - ----------------
#NOTEDATA:;
#CHARTNAME:;
#STEPSTYPE:dance-single;
#DESCRIPTION:;
#CHARTSTYLE:;
#DIFFICULTY:Hard;
#METER:14;
#RADARVALUES:0.659637,0.664593,0.275272,0.435107,0.732578,520.000000,489.000000,31.000000,49.000000,0.000000,0.000000,0.000000,0.000000,0.000000,0.659637,0.664593,0.275272,0.435107,0.732578,520.000000,489.000000,31.000000,49.000000,0.000000,0.000000,0.000000,0.000000,0.000000;
#CREDIT:;
#DISPLAYBPM:130.000000;
#NOTES:
0000
0000
0000
0000
,
0000
0000
0000
0000
,
0000
0000
0000
0000
,
0000
0000
0000
0000
,
0000
0000
0000
0000
,
1000
0000
0000
0100
0000
0000
0010
0000
0000
0100
0000
0000
1000
0000
0001
0000
0000
0010
0000
0000
0010
0100
0000
0010
,
0001
0000
0000
0001
0000
0000
0001
0000
0100
0010
0000
1000
0000
0000
1000
0010
0000
0000
0110
0000
0000
0100
0000
0000
,
0001
0000
0000
0100
0000
0000
0010
0000
0000
0100
0000
0002
0000
0000
1003
0000
0000
0010
0000
0000
0010
0100
0000
0000
,
1001
0000
0000
0110
0000
0000
1010
0000
0000
0011
0000
0000
0100
0000
0000
0100
0000
0000
0100
0000
0000
1000
0000
0001
,
0000
0000
0002
0000
0003
0000
0010
0000
0001
0000
0000
0002
0000
0000
0000
1003
0000
0000
0001
0000
0000
0100
0000
0001
,
0000
0000
0001
0100
0000
0001
1000
0000
0100
0000
0000
1000
0000
0000
1000
0100
0000
0000
1000
0000
0000
0010
0000
0000
,
0100
0000
0000
0001
0000
0010
0000
0000
0010
0001
0000
0001
1000
0000
1000
0100
0000
0000
2100
0000
0000
0002
0000
3003
,
0000
0000
0001
1000
0000
0001
0100
0000
0010
0000
0000
0220
0000
0000
0000
0330
0000
0000
0100
0000
0000
0001
0000
1000
,
0000
0000
2000
0000
3000
0000
0010
0000
1000
0000
0000
2000
0000
0000
0000
3001
0000
0000
1000
0000
0000
0010
0000
1000
,
0000
0000
1000
0010
0000
1000
0001
0000
0010
0000
0000
0010
0100
0000
0000
0100
0000
0010
0001
0000
0000
1000
0000
0000
,
0100
0000
0000
1000
0000
0001
0000
0000
0001
1000
0000
0000
0010
0000
0100
0010
0000
0220
0300
0000
0000
1000
0000
0000
,
0230
0000
0000
0001
0000
0020
0330
0000
0000
0110
0000
0000
1001
0000
0000
0001
0000
0000
0010
0000
0000
0001
0000
0100
,
0000
0000
0001
1000
0000
0000
0010
0000
0000
1000
0000
0100
0000
0000
0100
1000
0000
0001
0010
0000
0000
0001
0000
0000
,
1000
0000
0010
0000
0000
2010
0000
0000
0000
3001
0000
0000
1001
0000
0000
1000
0000
0000
0100
0000
0000
1000
0000
0010
,
0000
0000
1000
0001
0000
0000
0100
0000
0000
0001
0000
2000
0000
3000
0001
1000
0000
0100
0010
0000
0100
0000
0000
1100
,
0000
0000
0110
0000
0000
0012
0000
0000
0000
1000
0000
0000
0100
0000
0000
1003
0000
0000
0100
0000
0000
0010
0000
0001
,
0000
0000
0010
0001
0000
0000
0100
0000
0000
0010
0000
1000
0000
0000
1000
0001
0000
0000
0100
0000
0000
0001
0000
0000
,
1000
0000
0100
0000
0000
1200
0000
0000
0000
1300
0000
0000
1001
0000
0000
0001
0000
0000
0010
0000
0000
0100
0000
1000
,
0000
0000
0001
1000
0000
0000
0010
0000
0000
0100
0000
0001
0000
0000
1000
0001
0000
0020
0000
0000
0000
0130
0000
0000
,
0010
0000
0001
0000
0000
2001
0000
0000
0000
0010
0000
0000
0001
0000
0000
3100
0000
0000
1000
0000
0000
0000
0000
1000
,
0100
0000
0000
0000
0000
0100
1000
0000
0000
0000
0000
1000
0100
0000
0000
1000
0000
0000
0001
0000
0000
0001
0000
0000
,
0100
0000
0001
0000
0000
0001
0100
0000
0000
0010
0000
0000
0010
0000
0100
0010
0000
0000
0010
0000
0000
0000
0000
0010
,
1000
0000
0000
0000
0000
1000
0001
0000
0000
0000
0000
0001
0100
0000
0000
0001
0000
0000
0010
0000
0000
0010
0000
0000
,
0100
0000
0000
0100
0000
1000
0000
0000
1000
0001
0000
0000
0200
0000
0002
0303
0000
0000
0001
0000
0000
0100
0000
0000
,
0010
0100
1000
0100
0010
0100
0001
0001
,
1000
0000
0001
0000
0000
0102
0000
0000
0000
0103
0000
0000
0001
0000
1000
0001
0000
0000
1000
0000
0000
0100
0000
0000
,
0010
0100
0001
0100
0010
0100
1000
1000
,
0001
0000
0000
1000
0000
0020
0000
0000
0000
0000
0000
0000
1030
0000
0000
0010
0000
0000
0100
0000
0000
0001
0000
0000
,
0010
0000
0000
1000
0000
0000
0001
0000
0000
0100
0000
0000
0010
0000
0000
0010
0000
0100
0010
0000
0100
0000
0000
1000
,
0000
0001
1100
0001
0001
0010
0100
1000
,
0010
0000
0100
0010
0000
0100
0000
0000
0001
0000
0000
0001
0010
0000
0000
1010
0000
0000
0011
0000
0000
0101
0000
0000
,
0001
0100
0010
1000
0100
0001
1000
0010
,
0100
0000
0000
0100
0000
0010
0100
0000
0010
0000
0000
0010
0001
0000
0000
1000
0000
0000
0100
0000
0000
0010
0000
0000
,
0100
0000
0000
1000
0000
0000
0100
0000
0000
1000
0000
0000
0001
0000
0100
0001
0000
0100
0000
0000
0010
0000
0000
1000
,
0002
0000
0000
0000
,
2003
0000
0000
0100
0000
0000
3100
0000
0000
0000
0000
1000
0000
0000
0100
2000
0000
0000
3100
0000
0000
0010
0000
0000
,
0002
0000
0000
0100
0000
0000
0103
0000
0000
0000
0000
0001
0000
0000
0100
0002
0000
0000
0103
0000
0000
0100
0000
0000
,
0002
0000
0000
0010
0000
0000
0013
0000
0000
0000
0000
0001
0000
0000
0010
0002
0000
0000
0013
0000
0000
0100
0000
0000
,
2000
0000
0000
0010
0000
0000
3010
0000
0000
0000
0000
1000
0000
0000
0010
2000
0000
0000
3001
0000
0000
0001
0000
0000
,
0100
0000
0000
0010
0000
0000
1000
0000
0000
0010
0000
0200
0000
0000
0302
0000
0000
0103
0000
0000
0010
1000
0000
0000
,
0100
0000
0000
0010
0000
0000
0001
0000
0000
0010
0000
0200
0000
0000
0000
1300
0000
0000
0100
0000
0000
0100
0000
0000
,
0010
0000
0000
0001
0000
0000
1000
0000
0000
0010
0000
2000
0000
0000
3002
0000
0000
0103
0000
0000
0100
0010
0000
0000
,
1001
0000
0000
0110
0000
0000
0101
0000
0000
1100
0000
0000
0010
0000
0000
0010
0000
0000
0010
0000
0100
1000
0000
0000
,
1000
0000
0100
0010
0000
0002
0000
0000
0000
1003
0000
0000
0001
0000
0000
0100
0000
0000
0010
0000
0100
0001
0000
0000
,
0001
0000
0100
0010
0000
2000
0000
0000
0000
3010
0000
0000
0110
0000
0000
0110
0000
0000
0100
0000
0001
1000
0000
0000
,
1000
0000
0001
0010
0000
0200
0000
0000
0320
0000
0000
0130
0000
0000
1000
0001
0000
0000
0001
0000
0100
0000
0000
0010
,
0000
0000
0100
0000
0000
1000
0000
0000
0100
0001
0000
1000
0010
0000
0000
0010
0000
0000
1000
0000
0001
0010
0000
0000
,
0010
0000
0001
1000
0000
0200
0000
0000
0000
1300
0000
0000
0100
0000
0000
0010
0000
0000
0001
0000
1000
0100
0000
0000
,
0100
0000
1000
0001
0000
0020
0000
0000
0000
0031
0000
0000
0100
0000
0000
0010
0000
0000
1000
0000
0010
0100
0000
0000
,
0100
0000
0010
1000
0000
0002
0000
0000
2003
0000
0000
3100
0000
0000
0100
0010
0000
0000
2002
0000
0000
0000
0000
0000
,
0000
0000
0003
0000
0100
3100
0001
1000
,
0001
0000
0100
0000
0000
0010
0000
0000
0100
0001
0000
0000
0010
0000
0000
0100
0000
0000
1000
0000
0000
0001
0000
0000
,
1000
0000
0100
0000
0000
0010
0000
0000
0100
1000
0000
0000
0001
0000
0001
1000
0000
1000
0001
0000
0000
1000
0000
0000
,
0001
0000
0010
0000
0000
0100
0000
0000
0010
0001
0000
0000
0100
0000
0000
0010
0000
0000
1000
0000
0000
0001
0000
0000
,
1000
0000
0010
0000
0000
0100
0000
0000
0100
0010
0000
0000
1000
0000
0001
1000
0000
0000
2002
0000
0000
3003
0000
0000
;

//---------------dance-single - ----------------
#NOTEDATA:;
#CHARTNAME:;
#STEPSTYPE:dance-single;
#DESCRIPTION:;
#CHARTSTYLE:;
#DIFFICULTY:Medium;
#METER:10;
#RADARVALUES:0.399588,0.505090,0.301911,0.381829,0.079918,315.000000,281.000000,34.000000,43.000000,0.000000,0.000000,0.000000,0.000000,0.000000,0.399588,0.505090,0.301911,0.381829,0.079918,315.000000,281.000000,34.000000,43.000000,0.000000,0.000000,0.000000,0.000000,0.000000;
#CREDIT:;
#DISPLAYBPM:130.000000;
#NOTES:
0000
0000
0000
0000
,
0000
0000
0000
0000
,
0000
0000
0000
0000
,
0000
0000
0000
0000
,
0000
0000
0000
0000
,
1000
0000
0000
0100
0000
0000
0001
0000
0000
0000
0000
0000
0001
0000
0100
0000
0000
1000
0000
0000
0000
0000
0000
0000
,
0001
0000
0000
0010
0000
0000
1000
0000
0000
0000
0000
0110
0000
0000
0000
0000
0000
0000
1001
0000
0000
0000
0000
0000
,
0001
0000
0000
0100
0000
0000
1000
0000
0000
0000
0000
0000
1000
0000
0100
0000
0000
0001
0000
0000
0000
0100
0000
0000
,
0110
1001
0001
1000
0100
0100
1000
0001
,
0020
0000
0100
0000
0031
0000
0010
0001
,
0100
0000
0010
1000
0100
0000
2000
0000
,
3020
0000
1030
0001
0100
0000
0002
0000
,
0023
0000
0031
1000
0001
0001
0001
1000
,
0020
0000
0100
0000
1030
0000
0010
0100
,
0001
0000
0010
0100
1000
0000
0002
0000
,
0023
0000
0000
0000
0000
0130
0000
0000
0000
0100
0000
0000
0010
0000
0000
0000
0000
2002
0000
0000
3003
0000
0000
0000
,
1100
0000
0000
0000
0000
0202
0000
0000
0303
0000
0000
0000
0001
0000
0000
1000
0000
0000
0010
0000
0000
1000
0000
0000
,
0010
0000
0100
0001
0100
0000
0001
0010
,
0002
0000
0000
0000
0000
1003
0000
0000
0000
1000
0000
0000
0001
0000
0000
0000
0000
0000
0010
0000
0000
0001
0000
0000
,
0010
0000
0100
1000
0100
0000
0200
0000
,
0001
0000
0000
0000
0000
2300
0000
0000
0000
0000
0000
0000
3001
0000
0000
0001
0000
0000
0100
0000
0000
0010
0000
0000
,
1000
0000
0010
0100
0001
0000
1000
0001
,
2000
0000
0000
0000
0000
3100
0000
0000
0000
0100
0000
0000
0010
0000
0000
0000
0000
0000
0001
0000
0000
1000
0000
0000
,
0100
0000
0000
0000
0000
0000
1000
0000
0000
0001
0000
0000
0010
0000
0000
0000
0000
0220
0000
0000
0330
0000
0000
0000
,
1000
0000
0000
0000
0000
1001
0000
0000
0000
0001
0000
0000
0100
0000
0000
0010
0000
0000
2000
0000
0000
0000
0000
0000
,
3010
0020
0130
0200
,
0301
0000
1000
0001
1000
0000
0002
0000
,
0013
0020
0130
0200
,
1300
0000
1000
0001
1000
0001
2000
0000
,
3100
0200
0310
0020
,
0031
0000
1000
0001
1000
0000
0002
0000
,
0103
0200
0310
0020
,
1030
0000
0000
0000
0000
0001
0000
0000
0000
0000
0000
0000
1000
0000
0000
0000
0000
0000
1100
0000
0000
0000
0000
0000
,
0001
0000
1100
0000
0100
0010
0100
0010
,
0001
1000
0001
0000
0001
0000
0101
0000
,
1000
0000
0101
0000
1001
1010
0011
0110
,
1000
0011
0001
0011
,
0010
0100
0010
0100
1000
0001
1000
0000
,
0001
1010
1000
1010
,
2002
0000
0000
3003
,
0002
0000
0103
0000
0001
0100
0010
0000
,
0100
0100
0001
0001
,
2000
0000
3100
0000
1000
0100
0010
0000
,
0100
1000
0001
0100
,
0002
0000
0013
0000
0001
0010
0100
0000
,
2000
0000
3010
0000
1000
0010
0100
0010
,
2000
3001
0002
1003
,
1001
0110
1000
0001
0100
0100
0001
0000
,
1010
0000
1000
0000
0011
0000
0001
0010
,
0100
1000
0002
0000
0003
0000
1000
0000
,
0101
0000
0000
0000
0000
0000
0001
0000
0000
0000
0000
0000
1100
0000
0000
0000
0000
0000
1000
0000
0100
0000
0000
0010
,
0000
0000
0001
0000
0000
1000
0000
0000
0000
2000
0000
0000
3001
0000
0000
0000
0000
0000
0100
0000
0000
0000
0000
0000
,
1010
0000
0100
0000
0011
0000
0001
0010
,
1000
0010
0002
0000
0003
0000
0010
0000
,
1100
0010
0101
1001
,
0000
0000
0000
0000
0100
0100
0001
0000
,
1000
0000
0001
0100
0010
0000
1000
0000
,
0001
0000
1000
0100
0010
0100
1000
0000
,
0001
0000
1000
0010
0100
0000
0001
0000
,
1000
0000
0010
0100
0010
0000
2002
3003
;

//---------------dance-single - ----------------
#NOTEDATA:;
#CHARTNAME:;
#STEPSTYPE:dance-single;
#DESCRIPTION:;
#CHARTSTYLE:;
#DIFFICULTY:Easy;
#METER:6;
#RADARVALUES:0.237216,0.319004,0.079918,0.142076,0.022199,187.000000,178.000000,9.000000,16.000000,0.000000,0.000000,0.000000,0.000000,0.000000,0.237216,0.319004,0.079918,0.142076,0.022199,187.000000,178.000000,9.000000,16.000000,0.000000,0.000000,0.000000,0.000000,0.000000;
#CREDIT:;
#DISPLAYBPM:130.000000;
#NOTES:
0000
0000
0000
0000
,
0000
0000
0000
0000
,
0000
0000
0000
0000
,
0000
0000
0000
0000
,
0000
0000
0000
0000
,
1000
1000
0100
1000
,
0001
0010
0100
1000
,
0001
0001
0100
0001
,
0010
0010
0010
0000
0100
0100
1000
0000
,
0100
0001
0100
1000
,
1000
0001
1000
0001
,
0100
1000
0100
0002
,
0003
2000
3000
1000
,
0010
0001
0010
1000
,
1000
0001
1000
0001
,
0010
0000
0000
0000
0000
0000
0100
0000
0000
0000
0000
0000
1000
0000
0000
0000
0000
1001
0000
0000
0000
0000
0000
0000
,
0001
0000
0000
0000
0000
1001
0000
0000
0000
0000
0000
0000
1000
0000
0000
0000
0000
0000
0100
0000
0000
0000
0000
0000
,
0010
0100
0010
0001
,
1000
0002
0003
0100
,
0010
0100
0010
1000
,
0010
0200
0300
0001
,
0010
1000
0010
0001
,
1000
0002
0003
1000
,
0010
0000
0000
0000
0000
0000
0100
0000
0000
0000
0000
0000
0001
0000
0000
0000
0000
1001
0000
0000
0000
0000
0000
0000
,
1000
0000
0000
0000
0000
1001
0000
0000
0000
0000
0000
0000
0100
0000
0000
0000
0000
0000
1001
0000
0000
0000
0000
0000
,
0000
0000
0000
0000
,
0000
0000
0000
0001
,
0100
0010
0010
1000
,
0100
0010
0010
0100
,
0000
1000
0001
0100
,
0000
0001
1000
0010
,
0000
1000
0001
0010
,
0000
0000
0000
0000
0000
1001
0000
0000
0000
0000
0000
0000
0000
0000
0000
0000
0000
0000
0001
0000
0000
0000
0000
0000
,
0100
0001
2000
3000
,
2000
3000
0000
1000
,
0100
0000
1000
0000
0001
0001
1000
1000
,
0000
0001
0100
0010
,
2000
3000
0002
0003
,
0000
1000
0100
0010
,
0002
0000
0000
0003
,
0000
1000
0000
1000
,
0000
0001
0000
0001
,
0000
1000
0000
0010
,
0000
0100
0000
0001
,
0000
1000
0000
1000
,
0000
0001
0000
0001
,
0000
0001
0010
0100
,
1000
0001
0100
0000
0010
0010
1000
0000
,
0010
0001
0100
0001
,
0010
1000
0002
0003
,
0001
0010
1000
0100
,
1000
0010
0110
0001
,
0010
1000
0100
1000
,
0010
0001
2000
3000
,
1000
0100
0010
0002
,
0000
0003
1001
1000
,
0100
0000
0100
1000
,
0001
0000
0100
0001
,
1000
0000
0001
0010
,
0010
0000
0020
0000
0030
0000
2002
3003
;

//---------------dance-single - ----------------
#NOTEDATA:;
#CHARTNAME:;
#STEPSTYPE:dance-single;
#DESCRIPTION:;
#CHARTSTYLE:;
#DIFFICULTY:Beginner;
#METER:2;
#RADARVALUES:0.128122,0.185697,0.044399,0.000000,0.017759,101.000000,96.000000,5.000000,0.000000,0.000000,0.000000,0.000000,0.000000,0.000000,0.128122,0.185697,0.044399,0.000000,0.017759,101.000000,96.000000,5.000000,0.000000,0.000000,0.000000,0.000000,0.000000,0.000000;
#CREDIT:;
#DISPLAYBPM:130.000000;
#NOTES:
// measure 0
0000
0000
0000
0000
,  // measure 1
0000
0000
0000
0000
,  // measure 2
0000
0000
0000
0000
,  // measure 3
0000
0000
0000
0000
,  // measure 4
0000
0000
0000
0000
,  // measure 5
1000
0000
0000
0000
,  // measure 6
0001
0000
0000
0000
,  // measure 7
1000
0000
0001
0000
,  // measure 8
0100
0100
0100
0000
0000
0000
0001
0000
,  // measure 9
0000
0000
0000
0100
,  // measure 10
0000
0100
0000
0001
,  // measure 11
0000
0000
0000
0010
,  // measure 12
0000
0001
0000
1000
,  // measure 13
0000
0000
0000
0100
,  // measure 14
0000
0100
0000
1000
,  // measure 15
0000
0000
0000
0000
0000
0000
0000
0000
0000
0000
0000
0000
0000
0000
0000
0000
0000
0010
0000
0000
0000
0000
0000
0000
,  // measure 16
0000
0000
0000
0000
0000
0010
0000
0000
0000
0000
0000
0000
0000
0000
0000
0000
0000
0000
1000
0000
0000
0000
0000
0000
,  // measure 17
0000
1000
0000
0100
,  // measure 18
0000
0100
0000
0010
,  // measure 19
0000
0010
0000
0001
,  // measure 20
0000
0001
0000
0001
,  // measure 21
0000
0001
0000
0100
,  // measure 22
0000
0100
0000
0010
,  // measure 23
0000
0000
0000
0000
0000
0000
0010
0000
0000
0000
0000
0000
0000
0000
0000
0000
0000
1000
0000
0000
0000
0000
0000
0000
,  // measure 24
0000
0000
0000
0000
0000
1000
0000
0000
0000
0000
0000
0000
0000
0000
0000
0000
0000
0000
1001
0000
0000
0000
0000
0000
,  // measure 25
0000
0000
0000
0000
,  // measure 26
0000
0000
0000
0000
,  // measure 27
0001
0000
0001
0000
,  // measure 28
1000
0000
1000
1000
,  // measure 29
0000
0000
0000
0001
,  // measure 30
0000
0000
0000
1000
,  // measure 31
0000
0001
0000
0110
,  // measure 32
0000
0000
1000
0000
,  // measure 33
0001
0000
0010
0000
,  // measure 34
0000
0000
0001
0000
,  // measure 35
1000
0000
0000
0000
0010
0010
0010
0000
,  // measure 36
1000
0000
0001
0000
,  // measure 37
0100
0000
0000
0000
,  // measure 38
0001
0000
1000
0000
,  // measure 39
1001
0000
0000
0000
,  // measure 40
1000
1000
0000
0000
,  // measure 41
0001
0001
0000
0000
,  // measure 42
1000
0100
0000
0000
,  // measure 43
0001
0100
0000
0000
,  // measure 44
1000
0010
0000
0000
,  // measure 45
0001
0010
0000
0000
,  // measure 46
1000
0000
0001
0000
,  // measure 47
0100
0100
0100
0000
0000
0000
0001
0000
,  // measure 48
0000
0000
0000
0010
,  // measure 49
0000
0010
0000
0100
,  // measure 50
0000
0000
0000
1000
,  // measure 51
0000
1000
0000
0010
,  // measure 52
0000
0000
0000
0100
,  // measure 53
0000
0100
0000
0001
,  // measure 54
0000
0000
0000
1001
,  // measure 55
0000
0000
0000
1000
,  // measure 56
0000
0100
0000
1000
,  // measure 57
0000
0100
0000
0001
,  // measure 58
0000
0100
0000
0001
,  // measure 59
0000
0100
0000
1001
;
