#TITLE:Boomy and The Boost;
#SUBTITLE:;
#ARTIST:Eagle;
#TITLETRANSLIT:;
#SUBTITLETRANSLIT:;
#ARTISTTRANSLIT:;
#GENRE:;
#CREDIT:;
#BANNER:banner.png;
#BACKGROUND:background.png;
#LYRICSPATH:;
#CDTITLE:;
#MUSIC:Boomy and The Boost.ogg;
#OFFSET:-0.680000;
#SAMPLESTART:46.177238;
#SAMPLELENGTH:11.034485;
#SELECTABLE:YES;
#BPMS:0.000000=174.000000
;
#STOPS:
;
#BGCHANGES:;
#KEYSOUNDS:;
#ATTACKS:;

//---------------dance-single - ----------------
#NOTES:
     dance-single:
     :
     Hard:
     14:
     0.637108,0.910042,0.786553,0.196638,0.369680,567.000000,467.000000,100.000000,25.000000,0.000000,0.000000,0.637108,0.910042,0.786553,0.196638,0.369680,567.000000,467.000000,100.000000,25.000000,0.000000,0.000000:
// measure 0
0000
0000
0000
0000
,  // measure 1
0000
0000
0000
0000
,  // measure 2
0000
0000
0000
0000
,  // measure 3
0000
0000
0000
0000
,  // measure 4
0000
0000
0000
0000
,  // measure 5
0000
0000
0000
0000
,  // measure 6
0000
0000
0000
0000
,  // measure 7
0000
0000
0000
0000
,  // measure 8
0000
0000
0000
0000
0000
0000
0000
0000
0000
0000
0000
0000
0000
0000
1000
0001
,  // measure 9
0010
0100
0010
0001
0000
0000
0000
0000
,  // measure 10
0100
0000
0001
0000
0010
0000
0100
0000
0000
0000
0000
0000
0000
0000
0001
1000
,  // measure 11
0100
1000
0001
1000
0000
0000
0000
0000
,  // measure 12
0000
0000
0000
0000
0000
0000
0000
0000
0000
0000
0000
0000
0000
0000
1000
0001
,  // measure 13
0010
0001
1000
0100
0000
0000
0000
0000
,  // measure 14
0100
0000
0010
0000
0100
0000
1000
0000
0000
0000
0000
0000
0000
0000
0100
1000
,  // measure 15
0010
0100
0001
1000
0000
0000
0000
0000
,  // measure 16
0001
0010
1000
0010
0100
0010
0001
1000
,  // measure 17
1010
0000
0000
0000
1100
0000
0000
0000
0110
0000
0000
0010
0000
0000
0011
0000
,  // measure 18
0000
0000
0010
0000
0110
0000
0000
0000
0010
0000
0000
0001
0000
0000
1000
0000
,  // measure 19
1010
0000
0000
0000
1001
0000
0000
0000
0011
0000
0000
1000
0000
0000
1001
0000
,  // measure 20
0000
0000
0100
0000
0101
0000
0000
0000
1100
0000
0000
0100
0000
0000
0010
0000
,  // measure 21
0001
0001
1000
0010
0100
0100
0010
1000
,  // measure 22
0100
0100
0010
0001
1000
1000
0001
0010
,  // measure 23
0100
1000
0100
1000
0100
1000
0100
1000
0100
1000
0100
1000
0100
1000
0100
1000
,  // measure 24
0200
0301
0000
0002
0103
0000
0000
0000
,  // measure 25
0020
0000
0000
0000
0130
0000
0000
0010
0000
0000
0001
0000
0000
0100
0000
0000
,  // measure 26
0010
0000
0000
1000
0000
0000
0001
0000
0000
1000
0000
0000
0100
0000
1000
0000
,  // measure 27
0010
0000
0000
1000
0002
0000
0000
0013
0000
0000
0100
0000
0000
0010
0000
0000
,  // measure 28
0001
0000
0000
1000
0000
0000
0010
0000
0000
1000
0000
0000
0100
0000
0010
0000
,  // measure 29
0001
0000
0000
0100
0010
0100
0010
0100
0010
0100
0010
0000
0000
1000
0000
0000
,  // measure 30
0100
0000
0000
0001
0000
0000
0100
0000
0000
0010
0000
0000
0100
0000
1000
0000
,  // measure 31
1001
0000
0000
0000
1010
0000
0000
0000
1001
0000
0000
0001
0000
0000
0011
0000
,  // measure 32
0000
0001
1001
0000
0110
0000
2000
0000
,  // measure 33
3100
0000
1000
0010
0000
0100
0001
0000
,  // measure 34
0010
0100
0000
0010
0001
0000
0100
0010
,  // measure 35
1000
0000
0100
1000
0000
0001
0010
0000
,  // measure 36
0100
0000
0000
0100
0000
0000
0100
0000
0010
0001
0000
0001
0100
0001
0100
0000
,  // measure 37
0010
1000
0010
1000
0010
1000
0010
1000
0010
1000
0010
0000
0000
0000
0000
0000
,  // measure 38
1000
0000
0000
0001
0000
0000
1000
0000
0000
0100
0000
0000
0010
0000
0100
0000
,  // measure 39
2000
0000
0000
0000
,  // measure 40
3010
0000
0000
0000
0100
0000
0000
0000
0010
0000
0000
0100
0000
0000
0001
0000
,  // measure 41
0110
0000
0000
0000
1001
0000
0000
1010
0000
0000
1001
0000
0000
0011
0000
0000
,  // measure 42
1001
0000
0000
1010
0000
0000
1001
0000
0000
0011
0000
0000
1001
0000
0000
0000
,  // measure 43
0010
0000
0000
0000
1001
0000
0000
0101
0000
0000
1001
0000
0000
1100
0000
0000
,  // measure 44
1001
0000
0000
0101
0000
0000
1001
0000
0000
1100
0000
0000
0001
1000
0001
0000
,  // measure 45
0100
0000
0000
0000
1010
0000
0000
0101
0000
0000
0011
0000
0000
0110
0000
0000
,  // measure 46
1100
0000
0000
0110
0000
0000
0011
0000
0000
0110
0000
0000
1000
0100
1000
0000
,  // measure 47
0001
0000
0000
0000
0110
0000
0000
1001
0000
0000
0110
0000
0000
1001
0000
0000
,  // measure 48
0110
0000
0000
1001
0000
0000
0110
0000
1000
0000
0000
0000
0100
0000
0000
0000
,  // measure 49
0010
0001
0100
0002
0000
1003
0020
0000
,  // measure 50
0130
1000
0100
0002
0000
0013
0100
0010
,  // measure 51
0002
0000
0000
1000
0000
1003
0000
0000
,  // measure 52
2000
0000
0000
0001
0000
3001
0100
0001
,  // measure 53
0010
0100
0010
0002
0000
0103
2000
0000
,  // measure 54
3100
0010
1000
0200
0000
0310
0100
1000
,  // measure 55
0002
0000
0000
0100
0000
0103
0000
0000
,  // measure 56
0020
0000
0000
0000
0000
0000
1000
0000
0000
0000
1030
0000
0000
0000
0100
0010
,  // measure 57
1000
0100
0001
0100
0000
0000
0020
0000
,  // measure 58
0130
1000
0001
0100
0000
0001
1000
0000
,  // measure 59
0200
0000
0000
0010
0000
0310
0000
0000
,  // measure 60
0020
0000
0000
0000
0000
0000
0100
0000
0000
0000
0130
0000
0010
0000
0100
1000
,  // measure 61
0001
0100
0001
1000
0000
0100
0020
0000
,  // measure 62
0031
0010
0100
0010
0000
0100
1000
0010
,  // measure 63
0200
0000
0000
0001
0000
0301
0000
0000
,  // measure 64
0100
1000
0100
0001
0010
1000
0010
0001
,  // measure 65
1001
0000
0000
0000
0011
0000
0000
0000
0110
0000
0000
0100
0000
0000
1100
0000
,  // measure 66
0000
0000
1000
0000
1010
0000
0000
0000
1001
0000
0000
0001
0000
0000
0010
0000
,  // measure 67
0110
0000
0000
0000
1100
0000
0000
0000
1001
0000
0000
1000
0000
0000
1001
0000
,  // measure 68
0000
0000
0001
0000
0101
0000
0000
0000
0110
0000
0000
1000
0000
0000
0001
0000
,  // measure 69
1000
0001
0010
0000
0100
0010
0100
0000
,  // measure 70
0010
0100
0010
0000
0100
1000
0100
0000
,  // measure 71
1000
0010
0100
0001
1000
0010
0100
0001
,  // measure 72
2000
3010
0000
0002
0013
0000
0000
0000
,  // measure 73
0100
0000
0000
0000
1001
0000
0000
0011
0000
0000
0110
0000
0000
1100
0000
0000
,  // measure 74
1010
0000
0000
0110
0000
0000
0101
0000
0000
1001
0000
0000
1010
0000
0000
0000
,  // measure 75
0101
0000
0100
1000
0000
0100
0001
0000
,  // measure 76
0101
0000
0001
0010
0000
0010
1000
0000
,  // measure 77
0010
0000
0000
0000
0011
0000
0000
0110
0000
0000
1100
0000
0000
1010
0000
0000
,  // measure 78
0101
0000
0000
0011
0000
0000
0110
0000
0000
1100
0000
0000
1001
0000
0000
0000
,  // measure 79
0010
0010
0100
0100
0010
0000
0010
0000
,  // measure 80
1000
0000
0001
0010
0000
0010
1000
0000
,  // measure 81
0010
0000
0000
0000
0011
0000
0000
1100
0000
0000
1010
0000
0000
0101
0000
0000
,  // measure 82
1001
0000
0000
1010
0000
0000
1001
0000
0000
0011
0000
0000
0110
0000
0000
0000
,  // measure 83
1000
0100
1000
0010
0100
0001
0020
0000
,  // measure 84
0130
0010
0001
1000
0010
1000
0200
0000
,  // measure 85
0310
0000
0000
0000
1001
0000
0000
1010
0000
0000
1001
0000
0000
0011
0000
0000
,  // measure 86
0110
0000
0000
1100
0000
0000
1010
0000
0000
0101
0000
0000
1001
0000
0000
0000
,  // measure 87
1000
0000
0001
0000
0010
0000
0100
0000
1000
0000
1000
0100
0000
0010
0001
0000
,  // measure 88
1000
0001
1000
0001
1000
0001
1000
0001
1000
0001
1000
0001
1000
0001
1000
0001
,  // measure 89
0010
0000
0000
0000
;

//---------------dance-single - ----------------
#NOTES:
     dance-single:
     :
     Medium:
     12:
     0.529238,0.770035,0.731494,0.251697,0.283159,471.000000,378.000000,93.000000,32.000000,0.000000,0.000000,0.529238,0.770035,0.731494,0.251697,0.283159,471.000000,378.000000,93.000000,32.000000,0.000000,0.000000:
// measure 0
0000
0000
0000
0000
,  // measure 1
0000
0000
0000
0000
,  // measure 2
0000
0000
0000
0000
,  // measure 3
0000
0000
0000
0000
,  // measure 4
0000
0000
0000
0000
,  // measure 5
0000
0000
0000
0000
,  // measure 6
0000
0000
0000
0000
,  // measure 7
0000
0000
0000
0000
,  // measure 8
0000
0000
0000
0000
,  // measure 9
0100
1000
0010
0100
0000
0000
0000
0000
,  // measure 10
0010
1000
0001
0010
0000
0000
0000
0100
,  // measure 11
0010
0001
1000
0001
0000
0000
0000
0000
,  // measure 12
0000
0000
0000
0000
0000
0000
0000
0100
,  // measure 13
0010
1000
0001
0010
0000
0000
0000
0000
,  // measure 14
0100
0010
0001
1000
0000
0000
0000
1000
,  // measure 15
0100
1000
0001
0100
0000
0000
0000
0000
,  // measure 16
0001
0010
0100
0010
0001
1000
0100
0010
,  // measure 17
0011
0101
0110
1000
,  // measure 18
0001
0010
0100
0010
,  // measure 19
1001
1100
1010
0001
,  // measure 20
1000
0100
1000
0010
,  // measure 21
1010
0101
1001
0001
,  // measure 22
1000
0100
1000
0001
,  // measure 23
0101
1010
1100
0110
,  // measure 24
0100
1000
0000
0100
1000
0000
0000
0000
,  // measure 25
0012
0000
0000
0000
0103
0000
0000
0010
0000
0000
1000
0000
0000
0001
0000
0000
,  // measure 26
0010
0000
0000
0100
0000
0000
0010
0000
0000
0001
0000
0000
1000
0000
0001
0000
,  // measure 27
1000
0000
0000
0000
0200
0000
0000
0310
0000
0000
0100
0000
0000
1000
0000
0000
,  // measure 28
0001
0000
0000
0100
0000
0000
0001
0000
0000
1000
0000
0000
0002
0000
0000
0000
,  // measure 29
0023
0000
0000
0000
0130
0000
0000
0010
0000
0000
0001
0000
0000
1000
0000
0000
,  // measure 30
0010
0000
0000
0100
0000
0000
0001
0000
0000
1000
0000
0000
0001
0000
0010
0000
,  // measure 31
0100
0000
0000
0000
0010
0000
0000
0000
0100
0000
0000
1000
0000
0000
0001
0000
,  // measure 32
0000
1000
0010
0000
1000
0000
0002
0000
,  // measure 33
0013
0000
0000
0000
0100
0000
0000
0010
0000
0000
0001
0000
0000
1000
0000
0000
,  // measure 34
0010
0000
0000
1000
0000
0000
0100
0000
0000
1000
0000
0000
0001
0000
1000
0000
,  // measure 35
0100
0000
0000
0000
1000
0000
0000
0010
0000
0000
0100
0000
0000
0010
0000
0000
,  // measure 36
1001
0000
0000
0110
0000
0000
1001
0000
1000
0001
0000
0001
1000
0000
0000
0000
,  // measure 37
1020
0000
0000
0000
0130
0000
0000
0001
0000
0000
0010
0000
0000
0100
0000
0000
,  // measure 38
0010
0000
0000
0001
0000
0000
1000
0000
0000
0010
0000
0000
1000
0000
0001
0000
,  // measure 39
0200
0000
0000
0000
,  // measure 40
0310
0000
0000
0000
1000
0000
0000
0000
0001
0000
0000
1000
0000
0000
0010
0000
,  // measure 41
0100
0000
0000
0000
0101
0000
0000
0101
0000
0000
0101
0000
0000
0101
0000
0000
,  // measure 42
0101
0000
0000
0101
0000
0000
0101
0000
0000
0101
0000
0000
0101
0000
0000
0000
,  // measure 43
0000
0000
0000
0000
1100
0000
0000
1100
0000
0000
1100
0000
0000
1100
0000
0000
,  // measure 44
1100
0000
0000
1100
0000
0000
1100
0000
0000
1100
0000
0000
1100
0000
0000
0000
,  // measure 45
1000
0000
0010
0000
0110
0000
0000
0110
0000
0000
0110
0000
0000
0110
0000
0000
,  // measure 46
0110
0000
0000
0110
0000
0000
0110
0000
0000
0110
0000
0000
0110
0000
0000
0000
,  // measure 47
1000
0000
0000
0000
0011
0000
0000
0011
0000
0000
0011
0000
0000
0011
0000
0000
,  // measure 48
0011
0000
0000
0011
0000
0000
0011
0000
0000
0011
0000
0000
0011
0000
0000
0000
,  // measure 49
0010
0100
1000
0000
0002
0000
2003
0000
,  // measure 50
3010
1000
0000
0010
0000
0100
0001
0000
,  // measure 51
0020
0000
0000
0100
0000
0130
0000
0000
,  // measure 52
0200
0000
0000
1000
0000
1300
0000
0000
,  // measure 53
0010
0001
0100
0000
0002
0000
2003
0000
,  // measure 54
3010
1000
0000
0100
0000
0010
0100
0000
,  // measure 55
2000
0000
0000
0010
0000
3010
0000
0000
,  // measure 56
0002
0000
0000
0010
0000
0013
0000
0000
,  // measure 57
0100
0010
0001
0000
2000
0000
3002
0000
,  // measure 58
0013
0100
1000
0020
0000
0130
0001
0000
,  // measure 59
2000
0000
0000
0010
0000
3010
0000
0000
,  // measure 60
0200
0000
0000
0001
0000
0301
0000
0000
,  // measure 61
0010
0100
1000
0001
0200
0000
0320
0000
,  // measure 62
1030
0001
0000
0010
0000
0100
0010
0000
,  // measure 63
0002
0000
0000
0100
0000
0103
0000
0000
,  // measure 64
2000
0000
0000
0100
0000
3100
0000
0000
,  // measure 65
0110
0100
0010
0000
0002
0000
0203
0000
,  // measure 66
0310
1000
0001
0000
2000
0000
3200
0000
,  // measure 67
0310
0100
1000
0000
0002
0000
0203
0000
,  // measure 68
0310
0100
0001
0000
2000
0000
3002
0000
,  // measure 69
0013
0100
1000
0000
0100
1000
0010
0000
,  // measure 70
0100
0001
0010
0000
0100
0010
0001
0000
,  // measure 71
1000
0000
0000
0000
0001
0000
0000
0000
0100
0000
0000
0010
0000
0000
1000
0000
,  // measure 72
0001
0010
0000
0001
0010
0000
0000
0000
,  // measure 73
1001
0000
0000
0000
1001
0000
0000
1010
0000
0000
1001
0000
0000
0011
0000
0000
,  // measure 74
1001
0000
0000
1010
0000
0000
1001
0000
0000
0011
0000
0000
1001
0000
0000
0000
,  // measure 75
1000
0000
0000
0100
0000
0000
0010
0000
0000
0100
0000
0000
1000
0000
0000
0000
,  // measure 76
0010
0000
0000
0100
0000
0000
0001
0000
0000
1000
0000
0000
0001
0000
0000
0000
,  // measure 77
1000
0000
0000
0000
1001
0000
0000
1010
0000
0000
1001
0000
0000
0011
0000
0000
,  // measure 78
1001
0000
0000
1010
0000
0000
1001
0000
0000
0011
0000
0000
1001
0000
0000
0000
,  // measure 79
1000
0000
0000
0001
0000
0000
0010
0000
0000
0001
0000
0000
0100
0000
0000
0000
,  // measure 80
0010
0000
0000
1000
0000
0000
0100
0000
0000
0010
0000
0000
0100
0000
0000
0000
,  // measure 81
1000
0000
0000
0000
0110
0000
0000
0011
0000
0000
0110
0000
0000
1100
0000
0000
,  // measure 82
0110
0000
0000
0011
0000
0000
0110
0000
0000
1100
0000
0000
0110
0000
0000
0000
,  // measure 83
0100
0000
0000
1000
0000
0000
0010
0000
0000
0100
0000
0000
0001
0000
0000
0000
,  // measure 84
1000
0000
0000
0001
0000
0000
0010
0000
0000
0001
0000
0000
0100
0000
0000
0000
,  // measure 85
0010
0000
0000
0000
1010
0000
0000
0110
0000
0000
0101
0000
0000
0011
0000
0000
,  // measure 86
0110
0000
0000
1100
0000
0000
1010
0000
0000
0101
0000
0000
1001
0000
0000
0000
,  // measure 87
0001
1000
0100
0010
0000
0000
0000
0000
,  // measure 88
0100
1000
0010
0100
0001
0010
0100
1000
,  // measure 89
1001
0000
0000
0000
;

//---------------dance-single - ----------------
#NOTES:
     dance-single:
     :
     Easy:
     7:
     0.340465,0.455021,0.377545,0.078655,0.000000,303.000000,255.000000,48.000000,10.000000,0.000000,0.000000,0.340465,0.455021,0.377545,0.078655,0.000000,303.000000,255.000000,48.000000,10.000000,0.000000,0.000000:
// measure 0
0000
0000
0000
0000
,  // measure 1
0000
0000
0000
0000
,  // measure 2
0000
0000
0000
0000
,  // measure 3
0000
0000
0000
0000
,  // measure 4
0000
0000
0000
0000
,  // measure 5
0000
0000
0000
0000
,  // measure 6
0000
0000
0000
0000
,  // measure 7
0000
0000
0000
0000
,  // measure 8
0000
0000
0000
0000
,  // measure 9
1000
0100
0000
0000
,  // measure 10
0010
0100
0000
0000
,  // measure 11
0100
1000
0000
0000
,  // measure 12
0000
0000
0000
0000
,  // measure 13
0001
0100
0000
0000
,  // measure 14
0010
0100
0000
0000
,  // measure 15
0100
0001
0000
0000
,  // measure 16
1000
0100
0010
0100
,  // measure 17
1100
0000
0100
0000
,  // measure 18
1000
0001
0100
0000
,  // measure 19
0101
0000
0001
0000
,  // measure 20
0010
0001
1000
0000
,  // measure 21
1001
0001
1000
0010
,  // measure 22
1000
0001
0010
0001
,  // measure 23
1000
0100
0010
0001
,  // measure 24
1000
0001
0000
1000
0001
0000
0000
0000
,  // measure 25
1001
0010
1000
0010
,  // measure 26
0100
0001
0010
0100
,  // measure 27
0010
0011
1000
0001
,  // measure 28
0100
0100
0001
0001
,  // measure 29
0020
0000
0000
0030
,  // measure 30
0100
1000
0001
1000
,  // measure 31
0010
1000
0100
0000
,  // measure 32
0010
0001
0100
0020
,  // measure 33
1030
0001
0010
0001
,  // measure 34
1000
0100
0010
0100
,  // measure 35
1000
0010
0100
0001
,  // measure 36
1000
0001
0101
1100
,  // measure 37
0020
0000
0000
0030
,  // measure 38
0100
1000
0010
1000
,  // measure 39
0002
0000
0000
0000
,  // measure 40
1003
0001
0100
0000
,  // measure 41
0010
0000
1010
0000
0000
0101
0000
0000
,  // measure 42
1010
0000
0000
0101
0000
0000
1010
0000
,  // measure 43
1000
0000
1100
0000
0000
0011
0000
0000
,  // measure 44
1100
0000
0000
0011
0000
0000
1001
0000
,  // measure 45
0001
0000
0101
0000
0000
1010
0000
0000
,  // measure 46
1100
0000
0000
0110
0000
0000
0101
0000
,  // measure 47
0100
0000
0110
0000
0000
1010
0000
0000
,  // measure 48
1100
0000
0000
0110
0000
0000
0011
0000
,  // measure 49
0001
1000
0000
0100
,  // measure 50
1000
0010
0000
0100
,  // measure 51
0001
0000
0000
1000
0000
1000
0000
0000
,  // measure 52
0001
0000
0000
1000
0000
1000
0000
0000
,  // measure 53
0001
1000
0000
0010
,  // measure 54
1000
0100
0000
0010
,  // measure 55
0100
0000
0000
0010
0000
0010
0000
0000
,  // measure 56
0100
0000
0000
0010
0000
0010
0000
0000
,  // measure 57
0100
1000
0000
0010
,  // measure 58
0100
0001
0000
1000
,  // measure 59
0001
0000
0000
0100
0000
0100
0000
0000
,  // measure 60
0001
0000
0000
0010
0000
0010
0000
0000
,  // measure 61
0001
1000
0000
0100
,  // measure 62
1000
0010
0000
0100
,  // measure 63
0010
0000
0000
1000
0000
1000
0000
0000
,  // measure 64
0100
0010
0001
0010
,  // measure 65
0100
1000
0020
2030
,  // measure 66
3001
0010
0200
0310
,  // measure 67
0001
0000
0000
0100
0000
0010
0000
0000
,  // measure 68
1000
0000
0000
0100
0000
0010
0000
0000
,  // measure 69
0100
1000
0002
2003
,  // measure 70
3010
0200
0301
0010
,  // measure 71
0100
0010
0001
1000
,  // measure 72
0001
0100
0000
0010
1000
0000
0000
0000
,  // measure 73
0010
0000
1001
0000
0000
1010
0000
0000
,  // measure 74
1001
0000
0000
0011
0000
0000
1001
0000
,  // measure 75
0001
1000
0010
1000
,  // measure 76
0001
0010
0001
1000
,  // measure 77
0001
0000
1001
0000
0000
1010
0000
0000
,  // measure 78
1100
0000
0000
0110
0000
0000
0011
0000
,  // measure 79
0001
1000
0100
1000
,  // measure 80
0001
0100
0001
1000
,  // measure 81
0001
0000
1001
0000
0000
1010
0000
0000
,  // measure 82
0011
0000
0000
0110
0000
0000
1100
0000
,  // measure 83
0100
1000
0010
1000
,  // measure 84
0001
0010
0100
1000
,  // measure 85
0100
0000
0011
0000
0000
1100
0000
0000
,  // measure 86
1010
0000
0000
0101
0000
0000
1001
0000
,  // measure 87
0001
0010
0100
0010
,  // measure 88
0001
0100
1000
0100
,  // measure 89
0101
0000
0000
0000
;

//---------------dance-single - ----------------
#NOTES:
     dance-single:
     :
     Beginner:
     4:
     0.123601,0.280013,0.117983,0.000000,0.000000,110.000000,95.000000,15.000000,0.000000,0.000000,0.000000,0.123601,0.280013,0.117983,0.000000,0.000000,110.000000,95.000000,15.000000,0.000000,0.000000,0.000000:
// measure 0
0000
0000
0000
0000
,  // measure 1
0000
0000
0000
0000
,  // measure 2
0000
0000
0000
0000
,  // measure 3
0000
0000
0000
0000
,  // measure 4
0000
0000
0000
0000
,  // measure 5
0000
0000
0000
0000
,  // measure 6
0000
0000
0000
0000
,  // measure 7
0000
0000
0000
0000
,  // measure 8
0000
0000
0000
0000
,  // measure 9
0010
0000
0000
0000
,  // measure 10
0100
0000
0000
0000
,  // measure 11
0001
0000
0000
0000
,  // measure 12
0000
0000
0000
0000
,  // measure 13
1000
0000
0000
0000
,  // measure 14
0100
0000
0000
0000
,  // measure 15
1000
0000
0000
0000
,  // measure 16
0001
0000
1000
0000
,  // measure 17
0110
0000
0000
0000
,  // measure 18
0100
0000
0000
0000
,  // measure 19
0010
0000
0000
0000
,  // measure 20
1000
0000
0000
0000
,  // measure 21
0001
0000
0000
0000
,  // measure 22
1000
0000
0000
0000
,  // measure 23
0100
0000
0000
0000
,  // measure 24
1001
0000
0000
0000
,  // measure 25
0010
0000
0000
0000
,  // measure 26
0100
0000
0000
0000
,  // measure 27
0001
0000
0000
0000
,  // measure 28
1000
0000
0100
0000
,  // measure 29
1000
0000
0000
0000
,  // measure 30
0010
0000
0000
0000
,  // measure 31
0100
0000
0100
0000
,  // measure 32
0010
0000
0010
0100
,  // measure 33
0001
0000
0000
0000
,  // measure 34
1000
0000
0000
0000
,  // measure 35
0010
0000
0000
0000
,  // measure 36
1000
0000
0001
0000
,  // measure 37
1000
0000
0000
0000
,  // measure 38
0100
0000
0000
0000
,  // measure 39
0010
0000
0000
0000
,  // measure 40
0001
0000
1000
0000
,  // measure 41
0110
0000
0000
0110
,  // measure 42
0000
0000
0110
0000
,  // measure 43
0000
1001
0000
0000
,  // measure 44
1001
0000
0000
1001
,  // measure 45
0000
0110
0000
0000
,  // measure 46
0110
0000
0000
0110
,  // measure 47
0000
1001
0000
0000
,  // measure 48
1001
0000
0000
1001
,  // measure 49
0001
0000
0000
0000
,  // measure 50
1000
0000
0000
0000
,  // measure 51
0010
0000
0000
0000
,  // measure 52
0010
0000
0000
0000
,  // measure 53
0100
0000
0000
0000
,  // measure 54
0010
0000
0000
0000
,  // measure 55
1000
0000
0000
0000
,  // measure 56
0100
0000
0010
0000
,  // measure 57
0001
0000
0000
0000
,  // measure 58
0100
0000
0000
0000
,  // measure 59
0010
0000
0000
0000
,  // measure 60
0010
0000
0000
0000
,  // measure 61
1000
0000
0000
0000
,  // measure 62
0001
0000
0000
0000
,  // measure 63
0010
0000
0000
0000
,  // measure 64
0100
0000
0010
0000
,  // measure 65
0001
0000
0000
0000
,  // measure 66
1000
0000
0000
0000
,  // measure 67
0010
0000
0000
0000
,  // measure 68
1000
0000
0000
0000
,  // measure 69
0100
0000
0000
0000
,  // measure 70
1000
0000
0000
0000
,  // measure 71
0001
0000
0000
0000
,  // measure 72
0100
0000
0100
0000
,  // measure 73
0010
0000
0000
0000
,  // measure 74
1000
0000
0000
0000
,  // measure 75
0001
0000
0000
0000
,  // measure 76
0010
0000
0000
0000
,  // measure 77
0100
0000
0000
0000
,  // measure 78
0010
0000
0000
0000
,  // measure 79
0001
0000
0000
0000
,  // measure 80
1000
0000
0000
0000
,  // measure 81
0010
0000
0000
0000
,  // measure 82
1000
0000
0000
0000
,  // measure 83
0100
0000
0000
0000
,  // measure 84
0010
0000
0000
0000
,  // measure 85
0100
0000
0000
0000
,  // measure 86
1000
0000
0000
0000
,  // measure 87
0001
0000
0000
0000
,  // measure 88
0100
0000
0010
0000
,  // measure 89
1001
0000
0000
0000
;
