#TITLE:僕があなたの鐘になる;
#SUBTITLE:;
#ARTIST:黒魔;
#TITLETRANSLIT:Boku ga anata no kane ni naru;
#SUBTITLETRANSLIT:;
#ARTISTTRANSLIT:Chroma;
#GENRE:;
#CREDIT:;
#BANNER:Boku ga anata no kane ni naru.png;
#BACKGROUND:Boku ga anata no kane ni naru-bg.png;
#JACKET:Boku ga anata no kane ni naru-jacket.png;
#CDTITLE:;
#MUSIC:Boku ga anata no kane ni naru.ogg;
#OFFSET:0.880000;
#SAMPLESTART:47.599953;
#SAMPLELENGTH:15.000000;
#SELECTABLE:YES;
#BPMS:0.000000=170.000000;
#STOPS:;
#BGCHANGES:;
#KEYSOUNDS:;
#ATTACKS:;

//---------------dance-single - ----------------
#NOTES:
     dance-single:
     :
     Hard:
     12:
     0.373776,0.490690,0.139543,0.593058,0.061050,300.000000,284.000000,16.000000,68.000000,0.000000,0.000000,0.373776,0.490690,0.139543,0.593058,0.061050,300.000000,284.000000,16.000000,68.000000,0.000000,0.000000:
// measure 0
0000
0000
0000
0000
,  // measure 1
0000
0000
0000
0000
,  // measure 2
0000
0000
0000
0000
,  // measure 3
0000
0000
0000
0000
,  // measure 4
0000
0000
0000
0000
,  // measure 5
0000
0000
0000
0000
,  // measure 6
0000
0000
0000
0000
,  // measure 7
0000
0000
0000
0000
,  // measure 8
0000
0000
0000
0000
,  // measure 9
0000
0000
0000
0000
,  // measure 10
0000
0000
0000
0000
,  // measure 11
0010
0001
1000
0002
0000
0000
0103
0020
,  // measure 12
0000
2030
0000
3200
0000
0000
0310
0200
,  // measure 13
0000
2300
0000
3002
0000
0203
0000
2300
,  // measure 14
0000
3020
0000
0032
0000
0000
1003
0020
,  // measure 15
0000
0000
0000
0000
0130
0001
0200
0000
0000
0000
0302
0000
0000
0000
0023
0000
,  // measure 16
0000
2030
0000
3200
0000
0000
0000
0000
,  // measure 17
0301
0000
0100
0000
1000
0000
0200
0000
0000
0000
0000
0000
1300
0100
0002
0000
,  // measure 18
0000
0000
0000
0000
1003
0100
0002
0000
0000
0000
0000
0000
0000
0000
0000
0000
,  // measure 19
0103
0010
0100
2000
0000
0000
3001
0002
,  // measure 20
0000
0023
0000
2030
0000
0000
3010
0002
,  // measure 21
0000
2003
0000
3002
0000
0203
0000
2300
,  // measure 22
0000
3020
0000
0032
0000
0000
0103
0020
,  // measure 23
0000
0000
0000
0000
1030
0100
2000
0000
0000
0000
3200
0000
0000
0000
0302
0000
,  // measure 24
0000
0023
0000
2030
0000
0000
0000
0000
,  // measure 25
3001
0000
1000
0000
0100
0000
0002
0000
0000
0000
0000
0000
1003
0010
0002
0000
,  // measure 26
0000
0000
0000
0000
1003
0010
0200
0000
0000
0000
0000
0000
0000
0000
0000
0000
,  // measure 27
0000
0000
0000
0000
,  // measure 28
0000
0000
0000
0301
0100
0001
0000
1000
,  // measure 29
0100
1000
0000
0001
0100
0001
0000
1000
,  // measure 30
0100
1000
0000
0001
0010
1000
0000
1000
,  // measure 31
0010
0001
0000
1000
0001
1000
0000
0010
,  // measure 32
0100
0010
0000
1000
0010
0001
0000
1000
,  // measure 33
0010
0001
0000
1000
0000
0000
0000
0000
,  // measure 34
0010
1000
0000
0011
0000
1100
0000
1000
,  // measure 35
0100
0000
0001
0000
0000
0000
0100
0000
0000
0010
0001
0000
1000
0000
0010
0000
,  // measure 36
0000
0000
0000
1010
0000
0011
0000
0001
,  // measure 37
0100
0000
1000
0000
0000
0000
0100
0000
0000
0001
1000
0000
0100
0000
0001
0000
,  // measure 38
0000
0000
0000
0110
0000
1001
0000
1000
,  // measure 39
0010
0000
0100
0000
0000
0000
0001
0000
0000
0010
0100
0000
0010
0000
1000
0000
,  // measure 40
0000
0000
0000
0011
0000
0101
0000
0001
,  // measure 41
0100
0000
0010
0000
0000
0000
1000
0000
0000
0010
0100
0000
1000
0000
0100
0000
,  // measure 42
0000
0000
0000
1010
0000
1100
0000
1000
,  // measure 43
0001
0000
0100
0000
0000
0000
0010
0000
0000
1000
0100
0000
0010
0000
0001
0000
,  // measure 44
0000
0000
0000
0110
0000
0011
0000
0001
,  // measure 45
0010
0000
0100
0000
0000
0000
0001
0000
0000
0100
0010
0000
0001
0000
0100
0000
,  // measure 46
0000
0000
0000
1001
0000
0110
0000
1000
,  // measure 47
0100
0000
0010
0000
0000
0000
1000
0000
0000
0010
0100
0000
1000
0000
0010
0000
,  // measure 48
0000
0000
0000
1010
0000
0101
0000
0001
,  // measure 49
0100
0000
1000
0000
0000
0000
0001
0000
0000
0010
1000
0000
0100
0000
0010
0000
,  // measure 50
0000
0000
0000
0010
0001
1000
2000
0000
,  // measure 51
3010
0100
0020
0000
0130
0001
0020
0000
,  // measure 52
0031
0100
2000
0000
3100
0001
2000
0000
,  // measure 53
3100
0010
0002
0000
0013
0100
0002
0000
,  // measure 54
0003
0100
0000
0010
0001
1000
2000
0000
,  // measure 55
3010
0100
0002
0000
1003
0100
0001
0000
,  // measure 56
0100
0000
0020
0000
1030
0010
0002
0000
,  // measure 57
1003
0100
0002
0000
0103
1000
0020
0000
,  // measure 58
0031
0001
0000
0010
1000
0100
0200
0000
,  // measure 59
0310
0100
0002
0000
0103
1000
0002
0000
,  // measure 60
1003
0010
0200
0000
0310
0100
0002
0000
,  // measure 61
0013
1000
0020
0000
0031
1000
0002
0000
,  // measure 62
0000
0103
0000
0001
0100
1000
0200
0000
,  // measure 63
0310
0100
0002
0000
0013
0100
0001
0000
,  // measure 64
0100
0000
2000
0000
3001
0100
2000
0000
,  // measure 65
3001
0010
2000
0000
3001
0010
2000
0000
,  // measure 66
0000
3010
0000
0200
0000
0000
0000
0000
,  // measure 67
0000
0000
0000
0000
,  // measure 68
0000
0000
0000
0000
,  // measure 69
0000
0000
0000
0000
,  // measure 70
0000
0000
0000
0000
,  // measure 71
0000
0000
0000
0000
,  // measure 72
0000
0000
0000
0000
,  // measure 73
0000
0000
0000
1300
1000
0001
0001
1000
,  // measure 74
1000
0100
0001
0000
0000
0000
0000
0000
,  // measure 75
0000
0000
0000
0000
,  // measure 76
0000
0000
0000
0020
0000
0000
0000
0000
,  // measure 77
0000
0000
0000
0000
,  // measure 78
0000
0000
0000
0000
,  // measure 79
0000
0000
0000
0000
,  // measure 80
0000
0000
0000
0030
0000
0000
0000
0000
;

//---------------dance-single - ----------------
#NOTES:
     dance-single:
     :
     Medium:
     9:
     0.353841,0.490690,0.279086,0.375022,0.000000,284.000000,252.000000,32.000000,43.000000,0.000000,0.000000,0.353841,0.490690,0.279086,0.375022,0.000000,284.000000,252.000000,32.000000,43.000000,0.000000,0.000000:
0000
0000
0000
0000
,
0000
0000
0000
0000
,
0000
0000
0000
0000
,
0000
0000
0000
0000
,
0000
0000
0000
0000
,
0000
0000
0000
0000
,
0000
0000
0000
0000
,
0000
0000
0000
0000
,
0000
0000
0000
0000
,
0000
0000
0000
0000
,
0000
0000
0000
0000
,
0001
1000
0001
0200
0000
0000
0310
0020
,
0000
2030
0000
3200
0000
0000
0310
0020
,
0000
0032
0000
0203
0000
2300
0000
3200
,
0000
0302
0000
2003
0000
0000
3001
0020
,
0000
0000
0031
2000
0000
3020
0000
0032
,
0000
0023
0000
2030
0000
0000
0000
0000
,
3001
0010
0100
2000
0000
0000
3100
0020
,
0000
0000
0031
0020
0000
0000
0000
0000
,
0031
0010
0100
2000
0000
0000
3001
0002
,
0000
0103
0000
0020
0000
0000
1030
2000
,
0000
3001
0000
2000
0000
3200
0000
0302
,
0000
0203
0000
2300
0000
3000
0010
0200
,
0000
0000
1300
0200
0000
0302
0000
0023
,
0000
2030
0000
3020
0000
0000
0000
0000
,
0031
0100
0001
2000
0000
0000
3001
0200
,
0000
0000
0310
0200
0000
0000
0000
0000
,
0000
0000
0000
0000
,
0000
0000
0000
0301
0000
0010
0000
0001
,
0000
1000
0000
0010
0000
0100
0000
0001
,
0000
0010
0000
0001
0000
1000
0000
0100
,
0000
0001
0000
0100
0000
1000
0000
0010
,
0000
0100
0000
1000
0000
0010
0000
0001
,
0000
0010
0000
0001
0000
0000
0000
0000
,
0100
0001
0000
1100
0000
1010
0000
0010
,
0100
1000
0000
1100
0000
1000
0100
0010
,
0000
0000
0000
0101
0000
0110
0000
1000
,
0010
0001
0000
0011
0000
0001
0010
1000
,
0000
0000
0000
0110
0000
1001
0000
0001
,
0010
1000
0000
1001
0000
1000
0100
0001
,
0000
0000
0000
0011
0000
0101
0000
0001
,
0100
1000
0000
1001
0000
0001
0100
1000
,
0000
0000
0000
0110
0000
1100
0000
0100
,
0010
1000
0000
1010
0000
1000
0010
0001
,
0000
0000
0000
0101
0000
0011
0000
0001
,
0010
1000
0000
1001
0000
0001
0010
1000
,
0000
0000
0000
1001
0000
1010
0000
0010
,
0100
1000
0000
1100
0000
0100
0001
0010
,
0000
0000
0000
0101
0000
0110
0000
0010
,
1000
0100
0000
0110
0000
0010
0100
1000
,
0000
0000
0000
0001
0100
1000
0100
0000
,
0010
0100
0001
0000
1000
0100
0010
0000
,
0001
0010
0002
0000
1003
0010
0100
0000
,
0010
0100
0001
0000
1000
0001
1000
0000
,
0000
1001
0000
1000
0100
0010
0001
0000
,
0010
0001
0100
0000
1000
0100
0001
0000
,
1001
0000
1100
0000
0100
1000
0001
0000
,
0010
0100
1000
0000
0010
1000
0010
0000
,
0001
0010
0000
1000
0010
1000
0001
0000
,
0100
0001
0010
0000
0001
0010
0100
0000
,
0010
0100
0002
0000
0103
1000
0100
0000
,
1000
0010
0100
0000
0010
0100
0001
0000
,
0000
0011
0000
0010
0001
1000
0010
0000
,
1000
0010
0100
0000
0010
0100
1000
0000
,
0110
0000
0101
0000
0001
0010
0100
0000
,
0010
0100
1000
0000
0100
1000
0001
0000
,
0000
1010
0000
0022
0000
0000
0000
0000
,
0000
0000
0000
0000
,
0000
0000
0000
0000
,
0000
0000
0000
0000
,
0000
0000
0000
0000
,
0000
0000
0000
0000
,
0000
0000
0000
0000
,
0000
0000
0000
0000
,
0000
0033
0000
0000
,
0000
0000
0000
0000
,
0000
0000
0000
2000
0000
0000
0000
0000
,
0000
0000
0000
0000
,
0000
0000
0000
0000
,
0000
0000
0000
0000
,
0000
0000
0000
3000
0000
0000
0000
0000
;

//---------------dance-single - ----------------
#NOTES:
     dance-single:
     :
     Easy:
     5:
     0.204331,0.350493,0.069771,0.148264,0.000000,164.000000,156.000000,8.000000,17.000000,0.000000,0.000000,0.204331,0.350493,0.069771,0.148264,0.000000,164.000000,156.000000,8.000000,17.000000,0.000000,0.000000:
0000
0000
0000
0000
,
0000
0000
0000
0000
,
0000
0000
0000
0000
,
0000
0000
0000
0000
,
0000
0000
0000
0000
,
0000
0000
0000
0000
,
0000
0000
0000
0000
,
0000
0000
0000
0000
,
0000
0000
0000
0000
,
0000
0000
0000
0000
,
0000
0000
0000
0000
,
0000
0000
0000
0020
0000
0000
0000
0130
,
0000
0001
0000
0020
0000
0000
0000
0031
,
0000
0100
0000
0001
0000
0001
0000
1000
,
0000
1000
0000
0200
0000
0000
0300
0020
,
0000
0000
0030
0100
0000
0100
0000
0010
,
0000
0010
0000
0002
0000
0000
0000
0000
,
0003
1000
0000
0020
0000
0000
0000
0230
,
0000
0000
0000
0302
0000
0000
0000
0003
,
0000
0010
0000
0200
0000
0000
0000
1300
,
0000
1000
0000
0020
0000
0000
0000
0130
,
0000
0001
0000
0010
0000
0010
0000
0100
,
0000
0100
0000
2000
0000
0000
0000
3002
,
0000
0000
0000
1003
0000
1000
0000
0010
,
0000
0010
0000
0200
0000
0000
0000
0000
,
0300
0001
0000
0020
0000
0000
0000
0230
,
0000
0000
0000
2300
0000
0000
0000
0000
,
0000
0000
0000
0000
,
0000
0000
0000
3010
0000
0000
0000
0010
,
0000
0000
0000
1000
0000
0000
0000
1000
,
0000
0000
0000
0100
0000
0000
0000
0100
,
0000
0000
0000
0001
0000
0000
0000
0001
,
0000
0000
0000
0010
0000
0000
0000
0010
,
0000
0000
0000
1000
0000
0000
0000
0000
,
0000
0000
0000
1000
0000
0010
0000
0100
,
0000
0100
0000
0001
0000
1000
0000
1001
,
0000
0000
0000
0001
0000
0010
0000
0100
,
0000
0100
0000
1000
0000
0100
0000
0110
,
0000
0000
0000
0010
0000
0001
0000
1000
,
0000
1000
0000
0010
0000
0100
0000
0101
,
0000
0000
0000
0001
0000
0010
0000
1000
,
0000
1000
0000
0010
0000
0001
0000
1001
,
0000
0000
0000
1000
0000
0010
0000
0100
,
0000
0100
0000
0001
0000
0010
0000
0011
,
0000
0000
0000
0001
0000
1000
0000
0010
,
0000
0010
0000
0100
0000
0001
0000
0101
,
0000
0000
0000
0001
0000
0100
0000
1000
,
0000
1000
0000
0100
0000
0010
0000
0110
,
0000
0000
0000
0100
0000
0001
0000
0010
,
0000
0010
0000
0001
0000
1000
0000
1001
,
0000
0000
0000
0001
0000
0000
0100
0000
,
0000
0010
0000
1000
,
0000
0100
0000
0010
,
0000
0001
0000
1000
,
0000
0010
0000
0100
0000
0000
0001
0000
,
0000
0010
0000
0100
,
1000
0001
0000
0100
,
0000
0010
0000
0100
,
0000
0000
0000
0100
0000
0000
0001
0000
,
0000
0010
0000
1000
,
0000
0010
0000
0001
,
0000
1000
0000
0010
,
0000
0100
0000
0001
0000
0000
1000
0000
,
0000
0100
0000
0010
,
0001
0100
0000
0010
,
0000
0001
0000
0010
,
0000
1000
0000
0001
0000
0000
0000
0000
,
0000
0000
0000
0000
,
0000
0000
0000
0000
,
0000
0000
0000
0000
,
0000
0000
0000
0000
,
0000
0000
0000
0000
,
0000
0000
0000
0000
,
0000
0000
0000
0000
0001
1000
0001
1000
,
0001
1000
0001
0000
0000
0000
0000
0000
,
0000
0000
0000
0000
,
0000
0000
0000
0200
0000
0000
0000
0000
,
0000
0000
0000
0000
,
0000
0000
0000
0000
,
0000
0000
0000
0000
,
0000
0000
0000
0300
0000
0000
0000
0000
;
