#TITLE:Blue star parade;
#SUBTITLE:;
#ARTIST:Chroma;
#TITLETRANSLIT:;
#SUBTITLETRANSLIT:;
#ARTISTTRANSLIT:;
#GENRE:;
#CREDIT:;
#BANNER:;
#BACKGROUND:;
#LYRICSPATH:;
#CDTITLE:;
#MUSIC:Blue star parade.ogg;
#OFFSET:-0.086155;
#SAMPLESTART:90.663490;
#SAMPLELENGTH:12.075470;
#SELECTABLE:YES;
#BPMS:0.000000=159.000000
,168.000000=79.500000
,184.000000=159.000000
;
#STOPS:
;
#BGCHANGES:;
#KEYSOUNDS:;
#ATTACKS:;

//---------------dance-single - ----------------
#NOTES:
     dance-single:
     :
     Hard:
     14:
     0.656628,0.887194,0.253697,0.395469,1.141638,616.000000,582.000000,34.000000,53.000000,0.000000,0.000000,0.656628,0.887194,0.253697,0.395469,1.141638,616.000000,582.000000,34.000000,53.000000,0.000000,0.000000:
// measure 0
0000
0000
0000
0000
,  // measure 1
0000
0000
0000
0000
,  // measure 2
0000
0000
0000
0000
,  // measure 3
0000
0000
0000
0000
,  // measure 4
0000
0000
0000
0000
,  // measure 5
0000
0000
0000
0000
,  // measure 6
0000
0000
0000
0000
,  // measure 7
0000
0000
0000
0000
,  // measure 8
0000
0000
0000
0000
,  // measure 9
0020
0000
0000
0000
0000
0000
0030
0000
0000
0000
1000
0010
1000
0000
0001
0000
0100
0000
0010
0000
0100
0000
0010
0000
,  // measure 10
2000
0000
3002
0000
,  // measure 11
0203
0000
0000
0000
0000
0000
0300
0000
0000
0000
0001
0100
0001
0000
1000
0000
0010
0000
0100
0000
0010
0000
0100
0000
,  // measure 12
0002
0000
0000
0000
0000
0000
0013
0000
0000
0010
0100
1000
,  // measure 13
0001
1000
0100
0010
0000
0010
0001
0000
0000
0100
0000
0100
,  // measure 14
0001
0000
0000
0000
0000
0000
0010
0000
0000
0000
0010
0000
0100
0000
0000
0000
0000
0000
1000
0000
0000
0000
1000
0001
,  // measure 15
1000
0100
0010
0001
0010
0100
1000
0001
1000
0010
0100
0001
,  // measure 16
1000
0100
0010
0001
0100
0010
1000
0000
0000
0100
0000
0000
,  // measure 17
1002
0000
0000
0103
0000
0000
0101
0000
0000
0001
0100
0010
,  // measure 18
2000
3001
0011
0110
,  // measure 19
2100
0000
0000
3010
0000
0000
0110
0000
0100
0010
1000
0100
,  // measure 20
0010
0001
0010
0100
0010
0100
1000
0010
0100
0002
0000
0000
,  // measure 21
0013
0000
0010
0100
0010
0001
0100
0000
0100
0001
0000
0001
,  // measure 22
1000
0000
0010
1000
0001
1000
0100
0000
0100
0010
0000
0001
,  // measure 23
1000
0000
0010
0100
0000
0010
1000
0000
0001
0100
0000
0001
,  // measure 24
0010
0001
1000
0001
0100
0010
1000
0000
0001
0010
0000
0001
,  // measure 25
0100
0000
0010
0100
0000
0010
0100
0010
1000
0001
0000
0000
,  // measure 26
1001
0000
0000
1000
0100
1000
0100
0000
0000
0100
0010
0100
,  // measure 27
0010
0000
0010
0001
0100
0001
0100
0000
0000
0010
0100
0010
,  // measure 28
0100
0000
0000
0001
0100
0001
0100
0000
0000
0100
0010
0100
,  // measure 29
0010
0000
0010
1000
0010
1000
0020
0000
0130
0002
0000
0013
,  // measure 30
0200
0300
0000
0100
0010
0001
0100
0000
0000
0001
0100
0001
,  // measure 31
0100
0000
0000
0100
0010
1000
0100
0000
0000
0100
1000
0100
,  // measure 32
1000
0000
0000
0010
1000
0010
0100
0000
0001
0010
0000
0001
,  // measure 33
1000
0100
0020
0000
0000
0000
0031
1000
0200
0000
0000
0000
,  // measure 34
0310
0000
0000
0010
0001
1000
0100
0000
0000
0011
0000
0000
,  // measure 35
0001
0000
1000
0020
0000
0000
0130
0000
0100
0010
0000
0000
,  // measure 36
1020
0000
0000
1030
0001
0100
0010
0000
0000
1100
0000
0000
,  // measure 37
0100
0000
1000
0002
0000
0000
0023
0000
0130
2000
0000
3010
,  // measure 38
0100
0000
0000
0100
0001
0100
0020
0000
0000
1030
0000
0100
,  // measure 39
0010
0000
0000
0010
0001
0010
0200
0000
0000
1300
0001
0100
,  // measure 40
0010
0100
0010
1000
0010
1000
0001
1000
0001
0010
0100
1000
,  // measure 41
0100
0000
0010
0000
0001
0000
0100
0000
0010
0000
1000
0001
1000
0000
0001
0000
1000
0000
0100
0000
0010
0000
0001
0000
,  // measure 42
0100
0000
0000
0000
0100
0010
1000
0000
0000
0000
0001
1000
0001
0000
0000
0001
0000
0000
0011
0000
0000
0000
0000
0000
,  // measure 43
0010
0000
0000
0000
0000
0010
0100
0000
0000
0000
0100
0010
0100
0000
1000
0001
0000
0001
1000
0000
0000
0010
1000
0001
,  // measure 44
0100
0000
0000
0000
0000
0100
0010
0000
0000
0000
1000
0010
1000
0000
0000
1000
0000
0000
1100
0000
0000
0000
0000
0000
,  // measure 45
0100
0000
0000
0000
0000
0100
0010
0000
0000
0000
0010
0100
0010
0000
0001
0100
0000
0100
0001
0010
0001
0100
0010
1000
,  // measure 46
0100
1000
0100
0020
0000
0000
0031
1000
0100
0010
0100
1000
,  // measure 47
0002
0203
0320
2030
,  // measure 48
3001
0000
0000
0100
0010
0100
0001
1000
0010
0100
0001
1000
,  // measure 49
0100
0010
0100
0010
0001
0010
0001
0100
0001
1000
0010
1000
,  // measure 50
0001
0100
0001
0010
0100
0010
0220
0330
0000
0100
0010
0100
,  // measure 51
1000
0100
1000
2200
3300
0000
1000
0000
0000
0001
0000
0000
,  // measure 52
0020
0000
0000
0001
0000
0000
0001
0000
0000
0031
0100
0010
,  // measure 53
2000
0000
0000
3010
0000
0000
0020
0000
0000
0130
0001
0100
,  // measure 54
0010
0000
0010
1000
0000
1000
0100
0000
0100
0010
0000
0010
,  // measure 55
0001
0100
0001
0010
0100
1000
0100
0010
0001
2002
3003
0000
,  // measure 56
0001
0010
0100
1000
0000
0000
1100
0000
0000
1010
0000
0000
,  // measure 57
0010
1000
0001
0100
0000
0000
0001
0000
0000
0100
0010
0100
,  // measure 58
0001
0010
0001
1000
0000
0000
0002
0000
0103
0020
0000
0130
,  // measure 59
0001
0000
1000
0010
0000
1000
0100
0000
0010
0001
0000
0100
,  // measure 60
0001
0000
0000
0000
0001
0000
1000
0000
0000
0000
0010
1000
0002
0000
0000
0000
0000
0000
0203
0000
0000
0000
0000
0000
,  // measure 61
0310
0000
0000
0000
0100
0001
1000
0000
0001
0000
0100
0000
0020
0000
0000
0000
1030
0000
0002
0000
0000
0000
1003
0000
,  // measure 62
0010
0100
0001
1000
0000
0000
0100
0000
0000
0010
0000
0000
,  // measure 63
0001
0100
0010
1000
0100
0010
0001
1000
0100
0010
0001
0100
,  // measure 64
0010
1000
0001
0100
0000
0000
0101
0000
0000
0011
0000
0000
,  // measure 65
0010
0001
1000
0100
0000
0000
1000
0000
0000
0001
1000
0001
,  // measure 66
0010
0001
1000
0100
0000
0000
0020
0000
0031
2000
0000
3001
,  // measure 67
0010
0001
0100
0010
1000
0001
1000
0100
0010
0100
1000
0001
,  // measure 68
1000
0000
0000
0000
0001
0010
0001
0000
0100
0000
0001
0000
1001
0000
0000
0000
0110
0000
0000
0000
1001
0000
0000
0000
,  // measure 69
0001
0000
0000
0000
1000
0010
1000
0000
0001
0000
0100
0000
0110
0000
0000
0000
1001
0000
0000
0000
0110
0000
0000
0000
,  // measure 70
0010
0000
0000
0000
0100
0010
0100
0000
0001
0000
1000
0000
0100
0000
0010
0000
0001
1000
0001
0000
1000
0000
0010
0000
,  // measure 71
0200
0000
0000
0302
0000
0000
0023
0000
0000
0031
0100
0001
,  // measure 72
2001
0000
0000
0100
0000
0000
3020
0000
0000
1030
0100
1000
,  // measure 73
2001
0000
0000
0001
0000
0000
3010
0000
0000
0100
0010
0100
,  // measure 74
0102
0000
0000
0010
0000
0000
2003
0000
0000
3010
0100
0010
,  // measure 75
1010
0000
0000
0000
1000
0100
1000
0000
0100
0000
0010
0000
0011
0000
0000
0000
0001
0100
0001
0000
0100
0000
0010
0000
,  // measure 76
1010
0000
0000
0000
1000
0100
1000
0000
0100
0000
0010
0000
0011
0000
0000
0000
0001
0100
0001
0000
0100
0000
0010
0000
,  // measure 77
1000
0010
0010
0100
0010
0010
1000
0001
0001
0010
0001
0001
,  // measure 78
1000
0000
0000
1001
1000
0001
2002
0000
0000
0000
0000
0000
,  // measure 79
0000
0000
0000
0000
,  // measure 80
0000
0000
0000
0000
,  // measure 81
0000
0000
0000
0000
,  // measure 82
3003
0000
0000
0000
;

//---------------dance-single - ----------------
#NOTES:
     dance-single:
     :
     Challenge:
     13:
     0.663024,0.878613,0.171619,0.208927,1.122983,622.000000,599.000000,23.000000,28.000000,0.000000,0.000000,0.663024,0.878613,0.171619,0.208927,1.122983,622.000000,599.000000,23.000000,28.000000,0.000000,0.000000:
0000
0000
0000
0000
,
0000
0000
0000
0000
,
0000
0000
0000
0000
,
0000
0000
0000
0000
,
0000
0000
0000
0000
,
1000
0000
0100
0010
0000
0100
1000
0000
0100
0010
0000
0001
,
0100
0000
0010
1000
0000
0010
0100
0000
0010
1000
0000
0001
,
0010
0000
0100
1000
0000
0100
0010
0000
0100
1000
0000
0100
,
0010
0000
0001
1000
0000
0001
0010
0000
0001
0100
0000
0010
,
2000
0000
0000
3000
0000
1000
0100
0000
0100
1000
0001
1000
,
0020
0000
0000
0030
0100
0010
0100
0000
0000
0000
0001
1000
,
0002
0000
0000
0003
0000
0001
0100
0000
0100
0001
1000
0001
,
0020
0000
0000
0030
0100
0010
0100
0000
0000
1000
0100
0010
,
0001
0000
0000
0100
0000
0100
0010
0000
0000
1000
0000
1000
,
0001
0000
0000
0010
0000
0010
0100
0000
0000
0010
0000
0010
,
0001
0000
0010
1000
0000
0010
0001
0000
0100
1000
0000
0100
,
0001
0000
1000
0010
0000
0100
0002
0000
0000
2003
3000
0000
,
1001
0000
0000
1000
0000
1000
0010
0000
0000
0100
0010
0100
,
0010
0000
0000
0100
0000
0100
0002
0000
0000
0023
0000
0000
,
0130
0000
0000
1000
0000
1000
0100
0000
0100
1000
0000
0001
,
0010
0100
0010
0100
0010
0001
0010
0100
1000
0002
0000
0000
,
1003
0000
1000
0010
0000
0100
0010
0000
0100
0001
0000
0010
,
0100
0000
0100
0010
0000
0001
1000
0000
1000
0001
0000
0100
,
0010
0000
1000
0001
0000
1000
0100
0000
0010
0001
0000
1000
,
0001
0010
0001
0010
0000
0010
0100
0000
0010
0100
0000
1000
,
0100
0000
1000
0100
0000
0010
0001
0000
1000
0001
0000
0000
,
1001
0000
0000
0001
0100
0001
0200
0000
0000
0320
0000
0000
,
1030
0000
0010
0002
0000
0000
0000
0000
0000
0000
0000
0000
,
0013
0000
0000
1000
0100
1000
0100
0000
0000
0010
0000
0000
,
0001
0000
0010
2000
0000
0000
3000
0000
0001
0200
0000
1300
,
0010
0000
0000
0010
1000
0010
0100
0000
0000
0001
0000
0001
,
0010
0000
0000
0010
0001
0010
0100
0000
0000
1000
0100
0010
,
0001
0000
0000
0001
1000
0010
0100
0000
1000
0100
0000
0001
,
0010
0100
2000
0000
0000
0000
3010
0100
0002
0000
0000
0000
,
1003
0000
1000
0010
0000
1000
0001
0000
0001
0010
0000
0100
,
1000
0000
1000
0001
0000
1000
0100
0000
0100
0010
0000
0000
,
0011
0000
0001
0010
0000
0001
1000
0000
1000
0010
0000
0100
,
0001
0000
0100
0010
0000
1000
0100
0000
0100
0001
0000
0100
,
1000
0000
0000
0010
1000
0010
1000
0000
0000
0001
0000
0001
,
1000
0000
0000
0001
0010
0001
0010
0000
0000
0100
1000
0100
,
0010
0001
0010
0001
0010
0001
1000
0001
1000
0001
1000
0001
,
1000
0010
1000
0010
1000
0010
1000
0100
0010
0000
0000
0000
,
0011
0000
0000
0001
0000
0000
1100
0000
0000
1000
0000
0100
0010
0000
0000
0010
0000
0000
0101
0000
0000
0010
0000
0000
,
1100
0000
0000
1000
0000
0000
0011
0000
0000
0001
0000
0010
0100
0000
0000
0100
0000
0000
1010
0000
0000
1000
0001
1000
,
0001
0000
0000
0010
0000
0000
0110
0000
0000
0100
0010
0100
1000
0000
0000
1000
0000
0000
0011
0000
0000
0001
0000
0000
,
1010
0000
0000
1000
0000
0001
1000
0000
0000
0100
0010
0001
1000
0000
1000
0001
0000
0001
0010
0000
0010
0100
0000
0100
,
1000
0001
1000
0020
0000
0000
1030
0001
1000
0100
1000
0001
,
0020
0230
2300
3002
,
0203
0000
0000
0310
1000
0010
1000
0001
1000
0100
0010
0001
,
2000
0000
0000
0100
0000
0000
0010
0000
0000
3001
0100
0001
,
0100
0010
0100
0001
0000
0000
0012
0000
0000
1003
0100
0010
,
0100
0000
0000
1200
0000
0000
1300
0001
1000
0001
1000
0001
,
0200
0000
0000
0010
0000
0000
1000
0000
0000
0301
1000
0001
,
0020
0000
0000
0001
0000
0000
1000
0000
0000
0130
1000
0100
,
0010
0000
0010
0100
0000
0100
0001
0000
0001
0100
0000
0100
,
1000
0100
0010
0001
0100
0010
1000
0100
0010
0001
0000
0000
,
1000
0001
0100
0010
0000
0100
0001
0000
0010
1000
0000
0010
,
0001
0010
0100
1000
0000
0010
1000
0000
0001
1000
0010
1000
,
0001
0100
0001
0010
0000
0010
0001
0000
0100
1000
0000
0100
,
0001
0000
0001
1000
0001
1000
0010
0000
0010
0100
0010
0100
,
0001
0000
0001
1000
0000
0010
0100
0000
0000
0101
0000
0000
,
1001
0000
1000
0100
0010
0001
1000
0000
0010
0001
0000
0010
,
1000
0010
0100
0001
0000
0001
1000
0000
0000
1010
0000
0000
,
0001
0100
0001
0100
0010
1000
0001
1000
0100
0010
0001
1000
,
0001
0010
0100
1000
0000
0001
1000
0000
0010
0001
0000
0010
,
1000
0010
0100
0001
0000
0001
0100
0000
0100
0010
0100
0010
,
1000
0001
1000
0001
0000
0001
1000
0000
0100
0001
0000
0100
,
1000
0000
0100
0010
0100
0010
0100
0000
0010
0001
0010
0100
,
1000
0000
1000
0001
1000
0100
0010
0000
1100
0000
0011
0000
,
1001
0000
0001
0100
0001
1000
0010
0000
0101
0000
1010
0000
,
1001
0000
0001
1000
0001
0010
1000
0010
0001
0100
0010
1000
,
0001
0000
0000
0100
0001
0100
0002
0000
0000
1003
0010
1000
,
0010
0000
0000
0100
0010
0100
0010
0000
0000
1000
0001
1000
,
0001
0000
0000
0010
0001
0010
0001
0000
0000
1000
0100
1000
,
0100
0000
0000
1000
0001
1000
0001
0000
0001
0100
0010
1000
,
0001
0000
0010
1000
0010
0001
1000
0000
0100
0001
0100
1000
,
0010
0000
0100
0001
0100
0010
1000
0000
0100
0010
0100
1000
,
0001
0010
0100
1000
0100
0010
0001
0010
0100
1000
0010
0100
,
0001
0000
0000
1000
0001
1000
0001
0000
0000
0000
0000
0000
;
