#VERSION:0.83;
#TITLE:Black Lotus;
#SUBTITLE:;
#ARTIST:wa.;
#TITLETRANSLIT:;
#SUBTITLETRANSLIT:;
#ARTISTTRANSLIT:;
#GENRE:;
#ORIGIN:;
#CREDIT:Telperion;
#BANNER:Black Lotus.png;
#BACKGROUND:Black Lotus-bg.png;
#PREVIEWVID:;
#JACKET:Black Lotus-jacket.png;
#CDIMAGE:;
#DISCIMAGE:Black Lotus-bg-fs.png;
#LYRICSPATH:;
#CDTITLE:;
#MUSIC:Black Lotus.ogg;
#OFFSET:-1.272000;
#SAMPLESTART:39.672001;
#SAMPLELENGTH:19.200001;
#SELECTABLE:YES;
#DISPLAYBPM:0.000000:200.000000;
#BPMS:0.000=200.000;
#STOPS:16.500=0.900,
45.500=0.900,
107.500=0.900,
119.000=0.300,
119.500=0.300,
120.000=0.300,
120.500=0.300,
148.500=0.900,
160.000=0.300,
160.500=0.300,
161.000=0.300,
161.500=0.300,
252.500=0.900,
281.500=0.900,
375.500=0.900,
387.000=0.300,
387.500=0.300,
388.000=0.300,
388.500=0.300,
416.500=0.900,
428.000=0.300,
428.500=0.300,
429.000=0.300,
429.500=0.300;
#DELAYS:;
#WARPS:0.000=8.000,
8.500=8.000,
29.000=8.000,
37.500=8.000,
90.000=8.000,
99.500=8.000,
131.000=8.000,
140.500=8.000,
236.000=8.000,
244.500=8.000,
265.000=8.000,
273.500=8.000,
358.000=8.000,
367.500=8.000,
399.000=8.000,
408.500=8.000;
#TIMESIGNATURES:0.000=4=4;
#TICKCOUNTS:0.000=4;
#COMBOS:0.000=1;
#SPEEDS:0.000=1.000=0.000=0,
19.000=4.000=2.000=0,
21.000=1.000=4.000=0,
29.000=1.000=0.000=0,
48.000=4.000=2.000=0,
54.000=1.000=3.000=0,
110.000=4.000=7.000=0,
116.500=1.000=0.500=0,
119.000=4.000=2.000=0,
121.000=1.000=2.000=0,
151.000=2.500=7.000=0,
158.000=1.000=2.000=0,
160.000=4.000=2.000=0,
162.000=1.000=2.000=0,
236.000=1.000=0.000=0,
255.000=2.500=2.000=0,
257.000=1.000=8.000=0,
265.000=1.000=0.000=0,
284.000=4.000=2.000=0,
290.000=1.000=3.000=0,
378.000=4.000=7.000=0,
384.500=1.000=0.500=0,
387.000=4.000=2.000=0,
389.000=1.000=2.000=0,
419.000=2.500=7.000=0,
426.000=1.000=2.000=0,
428.000=4.000=2.000=0,
430.000=1.000=2.000=0;
#SCROLLS:0.000=0.800,
16.500=0.000,
17.000=0.160,
17.500=0.320,
18.000=0.480,
18.500=0.640,
19.000=0.800,
45.500=0.000,
46.000=0.160,
46.500=0.320,
47.000=0.480,
47.500=0.640,
48.000=0.800,
50.000=0.200,
50.500=0.350,
50.750=0.200,
51.250=0.350,
51.500=0.200,
52.000=0.350,
52.250=0.200,
52.750=0.350,
53.000=0.250,
54.000=0.500,
58.000=1.000,
82.500=0.500,
83.000=1.500,
83.500=0.500,
84.000=1.500,
84.500=0.500,
85.000=1.500,
85.500=0.500,
85.750=1.500,
86.000=0.000,
86.125=2.000,
86.250=0.000,
86.375=2.000,
86.500=0.000,
86.625=2.000,
86.750=0.000,
86.875=2.000,
87.000=0.000,
87.125=2.000,
87.250=0.000,
87.375=2.000,
87.500=0.000,
87.625=2.000,
87.750=0.000,
87.875=2.000,
88.000=0.000,
88.125=2.000,
88.250=0.000,
88.375=2.000,
88.500=0.000,
88.625=2.000,
88.750=0.000,
88.875=2.000,
89.000=0.000,
89.125=2.000,
89.250=0.000,
89.375=2.000,
89.500=0.000,
89.625=2.000,
89.750=0.000,
89.875=2.000,
90.000=0.500,
107.500=0.000,
108.000=0.100,
108.500=0.200,
109.000=0.300,
109.500=0.400,
110.000=0.500,
123.000=1.000,
131.000=0.500,
148.500=0.000,
149.000=0.100,
149.500=0.200,
150.000=0.300,
150.500=0.400,
151.000=0.500,
164.000=1.000,
202.500=0.500,
203.000=1.500,
203.500=0.500,
203.750=1.500,
204.000=1.000,
228.500=0.500,
229.000=1.500,
229.500=0.500,
230.000=1.500,
230.500=0.500,
231.000=1.500,
231.500=0.500,
231.750=1.500,
232.000=0.000,
232.125=2.000,
232.250=0.000,
232.375=2.000,
232.500=0.000,
232.625=2.000,
232.750=0.000,
232.875=2.000,
233.000=0.000,
233.125=2.000,
233.250=0.000,
233.375=2.000,
233.500=0.000,
233.625=2.000,
233.750=0.000,
233.875=2.000,
234.000=0.000,
234.125=2.000,
234.250=0.000,
234.375=2.000,
234.500=0.000,
234.625=2.000,
234.750=0.000,
234.875=2.000,
235.000=0.000,
235.125=2.000,
235.250=0.000,
235.375=2.000,
235.500=0.000,
235.625=2.000,
235.750=0.000,
235.875=2.000,
236.000=0.800,
252.500=0.000,
253.000=0.160,
253.500=0.320,
254.000=0.480,
254.500=0.640,
255.000=0.800,
257.000=0.500,
259.000=0.600,
261.000=0.700,
263.000=0.800,
281.500=0.000,
282.000=0.160,
282.500=0.320,
283.000=0.480,
283.500=0.640,
284.000=0.800,
286.000=0.200,
286.500=0.350,
286.750=0.200,
287.250=0.350,
287.500=0.200,
288.000=0.350,
288.250=0.200,
288.750=0.350,
289.000=0.250,
292.000=0.500,
294.000=1.000,
318.500=0.500,
318.750=1.500,
319.000=1.000,
319.250=0.000,
319.375=2.000,
319.500=0.000,
319.625=2.000,
319.750=0.000,
319.875=2.000,
320.000=1.000,
320.500=0.500,
320.750=1.500,
321.000=1.000,
321.250=0.000,
321.375=2.000,
321.500=0.000,
321.625=2.000,
321.750=0.000,
321.875=2.000,
322.000=0.500,
322.333=1.000,
322.667=1.500,
323.000=0.000,
323.125=2.000,
323.250=0.000,
323.375=2.000,
323.500=0.500,
324.000=1.500,
324.500=0.000,
324.625=2.000,
324.750=0.000,
324.875=2.000,
325.000=0.000,
325.125=2.000,
325.250=0.000,
325.375=2.000,
325.500=0.000,
325.625=2.000,
325.750=0.000,
325.875=2.000,
326.000=1.000,
340.000=0.500,
340.250=1.500,
340.500=0.500,
340.750=1.500,
341.000=0.000,
341.125=2.000,
341.250=0.000,
341.375=2.000,
341.500=0.000,
341.625=2.000,
341.750=0.000,
341.875=2.000,
342.000=1.000,
344.500=0.000,
344.625=2.000,
344.750=0.000,
344.875=2.000,
345.000=0.000,
345.125=2.000,
345.250=0.000,
345.375=2.000,
345.500=0.000,
345.625=2.000,
345.750=0.000,
345.875=2.000,
346.000=1.000,
348.500=0.500,
348.750=1.500,
349.000=0.000,
349.125=2.000,
349.250=0.000,
349.375=2.000,
349.500=0.000,
349.625=2.000,
349.750=0.000,
349.875=2.000,
350.000=1.000,
350.500=0.500,
350.750=1.500,
351.000=1.000,
351.500=0.500,
351.750=1.500,
352.000=1.000,
352.500=0.500,
352.750=1.500,
353.000=1.000,
356.000=0.000,
356.125=2.000,
356.250=0.000,
356.375=2.000,
356.500=0.000,
356.625=2.000,
356.750=0.000,
356.875=2.000,
357.000=0.000,
357.125=2.000,
357.250=0.000,
357.375=2.000,
357.500=0.000,
357.625=2.000,
357.750=0.000,
357.875=2.000,
358.000=0.500,
375.500=0.000,
376.000=0.100,
376.500=0.200,
377.000=0.300,
377.500=0.400,
378.000=0.500,
391.000=1.000,
399.000=0.500,
416.500=0.000,
417.000=0.100,
417.500=0.200,
418.000=0.300,
418.500=0.400,
419.000=0.500,
432.000=1.000,
438.000=0.800;
#FAKES:;
#LABELS:0.000=Song Start;
#BGCHANGES:0.000=Black Lotus.avi=1.000=0=0=0=StretchNoLoop==CrossFade_Fastest==,
99999=-nosongbg-=1.000=0=0=0 // don't automatically add -songbackground-
;
#KEYSOUNDS:;
#ATTACKS: TIME=106.29:LEN=5.00:MODS=*2.2 stealth;

//---------------dance-single - Telperion----------------
#NOTEDATA:;
#CHARTNAME:Telperion;
#STEPSTYPE:dance-single;
#DESCRIPTION:Telperion;
#CHARTSTYLE:;
#DIFFICULTY:Challenge;
#METER:17;
#RADARVALUES:0.931498,1.265448,0.380952,0.124031,1.262458,736.000000,693.000000,43.000000,14.000000,2.000000,0.000000,0.000000,0.000000,124.000000,0.931498,1.265448,0.380952,0.124031,1.262458,736.000000,693.000000,43.000000,14.000000,2.000000,0.000000,0.000000,0.000000,124.000000;
#CREDIT:Telperion;
#DISPLAYBPM:0.000000:200.000000;
#NOTES:
// measure 0
0000
0000
0000
0000
0000
0000
M000
000M
M000
000M
00M0
0M00
M000
000M
0M00
0000
,  // measure 1
0000
0000
0000
0000
,  // measure 2
0000
0000
0000
0000
,  // measure 3
0000
0000
0000
0000
,  // measure 4
0000
0000
0000
0000
0000
0000
0000
0000
0000
0000
0000
0000
1000
0001
1000
0001
,  // measure 5
0010
0100
1000
0001
0100
0000
0000
0000
0000
0000
0000
0000
0000
0000
0000
0000
,  // measure 6
0000
0000
0000
0000
,  // measure 7
0000
0000
0000
0000
0000
0000
0000
0000
0000
0000
000M
M000
000M
M000
00M0
0M00
,  // measure 8
000M
M000
0M00
0000
0000
0MM0
0000
0000
MM00
0000
0000
M00M
0000
0000
0M0M
0000
,  // measure 9
0000
0000
0000
0000
,  // measure 10
0000
0000
0000
0000
,  // measure 11
0000
0000
0000
0000
,  // measure 12
0001
1000
0001
1000
0010
0100
0001
1000
0100
0000
0000
0110
0000
0000
1100
0000
,  // measure 13
0000
1001
0000
0000
0201
0000
0000
0000
0010
0000
0000
0000
0000
0000
0000
0000
,  // measure 14
0000
0000
0000
0000
0301
0000
0000
0000
0100
0000
0010
0000
0100
0000
0001
1000
,  // measure 15
0100
0000
0010
0100
1000
0000
0001
0000
0100
0000
0010
0000
0100
0000
0001
1000
,  // measure 16
0100
0010
0100
1000
0001
0100
0001
1000
0010
0000
0100
0000
0010
0000
1000
0001
,  // measure 17
0010
0000
0100
0010
0001
0000
1000
0000
0010
0000
0100
0000
0010
0000
1000
0001
,  // measure 18
0020
0000
0130
1000
0001
0100
0001
0100
0010
0000
1000
0000
0001
0000
0010
0100
,  // measure 19
1000
0000
0001
1000
0100
0000
0010
0000
0001
0000
1000
0000
0010
0100
0001
0000
,  // measure 20
1000
0100
1000
0001
0100
0001
1000
0100
0010
0000
0011
0000
0000
0000
1010
0000
,  // measure 21
0000
0000
0101
0000
0000
0000
1100
0000
0001
1000
0001
1000
0100
0010
0100
1000
,  // measure 22
0001
0100
0001
0100
0010
1000
0001
0010
0100
0000
0000
0000
0000
0000
M000
000M
,  // measure 23
M000
000M
00M0
0M00
M000
000M
0M00
000M
M000
0M00
00M0
000M
M000
00M0
0M00
00M0
,  // measure 24
M000
0000
0000
0000
,  // measure 25
0000
0000
0000
0000
,  // measure 26
0000
0000
0000
0000
,  // measure 27
0000
0000
0000
0000
0000
0000
0000
0000
1000
0001
1000
0001
0010
0100
1000
0001
,  // measure 28
0100
0001
1000
0100
0010
0001
1000
0010
0100
0010
1000
0001
0010
0100
2000
0000
,  // measure 29
0000
0002
3003
0000
0000
0000
0101
1100
,  // measure 30
0011
1010
1002
0000
0000
0000
0103
0100
,  // measure 31
0010
0000
1000
0001
0010
0000
0010
0000
0100
1000
0001
0000
0100
0000
0100
0010
,  // measure 32
1000
0001
0010
0000
0100
1000
0100
1000
0001
0100
0010
1000
0001
0000
0000
0000
,  // measure 33
0000
0000
0000
0000
0000
0000
M000
0000
0000
000M
0000
0000
M000
0000
0000
000M
0000
0000
00M0
0000
0000
0000
0M00
0000
0000
0000
M000
0000
0000
0000
000M
0000
0000
0000
0M00
0000
0000
0000
000M
0000
0000
0000
M000
0000
0000
0000
00M0
0000
,  // measure 34
0000
0M00
0000
000M
0000
0000
0000
0000
0000
0000
0000
0000
0000
0000
0000
0000
0000
0000
0000
0000
0000
0000
0000
0000
,  // measure 35
0000
0000
0000
0000
,  // measure 36
0000
0000
0000
0000
,  // measure 37
0000
0000
0000
0000
0000
0000
0000
0000
0000
0000
0000
0000
1000
0001
1000
0001
,  // measure 38
0010
0100
1000
0001
0100
0001
1000
0010
0100
0001
0010
0001
,  // measure 39
1000
0000
0000
0000
0100
0000
0000
0000
0010
0000
0000
0000
0001
0000
0000
0000
1000
0000
0000
0000
0001
0000
0000
0000
0100
0000
0000
0000
0000
0000
0000
0000
0000
0010
0000
0000
0000
0000
0000
0000
0000
0000
1000
0000
0000
0000
0000
0000
,  // measure 40
1100
0101
1010
0011
2001
0000
0000
0000
,  // measure 41
3100
0000
0100
0000
0010
0000
0001
1000
0010
0000
0010
0000
0100
0001
1000
0000
,  // measure 42
0100
0000
0100
0010
0001
1000
0010
0000
MM01
0000
0010
0100
0001
0000
1000
0100
,  // measure 43
0010
0000
0001
0000
1000
0000
0010
0100
0000
0100
0001
0000
1000
0100
0010
0001
,  // measure 44
1000
0000
0010
0000
0100
0000
0001
1000
0000
0100
0010
0000
0001
0100
0001
1000
,  // measure 45
0010
0000
0100
0000
0001
0000
0010
0100
0000
0100
1000
0000
0001
0100
0010
1000
,  // measure 46
0001
0000
0010
0000
0100
0000
1000
0001
0000
0100
0010
0000
1000
0000
0010
0100
,  // measure 47
0001
0000
1000
0000
0001
0000
0010
0100
0000
0100
1000
0000
0001
0100
0010
1000
,  // measure 48
0001
0000
0010
0000
0100
0000
1000
0001
0000
0100
0010
0000
1000
0100
1000
0001
,  // measure 49
0010
0000
0100
0000
1000
0000
0010
0100
0000
0100
0001
0000
1000
0100
0010
0001
,  // measure 50
1000
0000
0010
0000
0100
0000
0001
1000
0010
0000
1010
0000
0000
0000
0101
0000
,  // measure 51
1000
0000
0001
0000
0010
0000
0100
1000
0000
1000
0001
0000
0100
0010
1000
0000
,  // measure 52
0010
0100
0001
0000
0010
0000
0100
1000
0100
0010
0100
0000
1000
0000
0001
0100
,  // measure 53
0001
0000
1000
0000
0010
0000
0100
0001
0000
0001
1000
0000
0100
0010
0001
0000
,  // measure 54
0010
0100
1000
0000
0010
0000
0100
0001
0100
0010
0100
0000
0001
0000
1000
0100
,  // measure 55
1000
0000
0001
0000
0100
0000
0010
1000
0000
1000
0001
0010
0100
0010
0001
0000
,  // measure 56
1000
0010
0100
0000
0001
0000
1000
0100
1000
0001
0010
0000
0100
0000
0010
0001
,  // measure 57
1000
1010
0000
0101
0000
0011
0000
1100
,  // measure 58
0001
1000
0100
0000
0010
0000
0001
1000
0010
0100
0001
0000
0010
0100
1000
0001
,  // measure 59
0100
0000
0000
0000
0000
0000
000M
M000
000M
M000
00M0
0M00
000M
M000
0M00
0000
,  // measure 60
0000
0000
0000
0000
,  // measure 61
0000
0000
0000
0000
,  // measure 62
0000
0000
0000
0000
,  // measure 63
0000
0000
0000
0000
0000
0000
0000
0000
0000
0000
0000
0000
0001
1000
0001
1000
,  // measure 64
0010
0000
0000
0100
0000
0000
0001
0000
0000
1000
0000
0000
0100
0000
0000
0000
0000
0000
0000
0000
0000
0000
0000
0000
0010
0000
0000
0000
0001
0000
0000
0000
0100
0000
0000
0000
0010
0000
0000
0000
0000
0000
0000
0000
0000
0000
0000
0000
,  // measure 65
1000
0001
0010
0100
0000
0000
2000
0000
0000
3100
0000
0000
,  // measure 66
0002
0000
0000
0000
0103
0000
0000
0000
0000
0000
M000
000M
M000
000M
00M0
0M00
,  // measure 67
M000
000M
0M00
0000
0000
0MM0
0000
0000
0M0M
0000
0000
M00M
0000
0000
MM00
0000
,  // measure 68
0000
0000
0000
0000
,  // measure 69
0000
0000
0000
0000
,  // measure 70
0000
0000
0000
0000
,  // measure 71
1000
0001
1000
0001
0010
0100
1000
0001
0100
0000
0000
0110
0000
0000
0101
0000
,  // measure 72
0000
1001
0000
0000
1200
0000
0000
0000
0000
0000
0010
0000
0000
0000
0310
0000
,  // measure 73
0100
0000
0000
0000
0000
0000
0000
0000
1000
0000
0001
0100
0010
0000
1000
0000
,  // measure 74
0001
0010
0100
0000
1000
0000
0001
0000
0100
0000
0010
1000
0100
0000
0010
0000
,  // measure 75
0001
1000
0100
1000
0001
0000
0100
0000
0001
0000
1000
0100
0010
0000
0001
0000
,  // measure 76
1000
0010
0100
0000
0010
0000
1000
0000
0001
0010
0100
1000
0001
0100
0001
1000
,  // measure 77
0100
0010
0001
0010
1000
0000
0001
0100
,  // measure 78
1000
0001
0100
0000
0010
0000
1000
0000
0001
0000
0100
0010
1000
0000
0001
0000
,  // measure 79
0010
0100
1000
0000
0001
0000
0100
0000
0010
0000
1010
0000
0000
0001
1000
0001
,  // measure 80
0010
0000
0011
0000
0000
1000
0001
1000
0100
0000
0000
0000
0010
0001
0200
0000
,  // measure 81
0000
0000
1300
0100
0010
1000
0001
0010
0100
0000
1000
0100
0010
0000
0001
0000
,  // measure 82
1000
0010
0100
0000
0001
0000
1000
0000
0100
0000
0010
0001
0100
0000
0010
0000
,  // measure 83
1000
0001
0100
0001
1000
0000
0100
0000
1100
0000
1000
0000
0001
0000
0101
0000
,  // measure 84
0100
0000
0010
0000
1010
0000
0000
0000
1000
0010
0100
0001
1000
0100
1000
0001
,  // measure 85
0010
0000
0100
0000
1000
0100
1000
0100
0001
0000
0100
0000
1000
0000
0100
0000
,  // measure 86
0001
0000
0100
1000
0001
0100
0010
1000
0001
0000
0100
0000
1000
0000
0100
0000
,  // measure 87
0001
0000
0100
0000
1000
0100
1000
0100
0010
1000
0001
0000
0010
0001
1000
0000
,  // measure 88
0100
1000
0001
0000
0100
0001
1000
0000
0100
0000
0000
0000
1000
0000
0001
0000
,  // measure 89
0010
0100
0001
0100
0010
0100
1000
0001
0100
0000
0000
0000
0000
0000
000M
M000
,  // measure 90
000M
M000
00M0
0M00
000M
M000
0M00
M000
000M
0M00
00M0
M000
000M
00M0
0M00
00M0
,  // measure 91
000M
0000
0000
0000
,  // measure 92
0000
0000
0000
0000
,  // measure 93
0000
0000
0000
0000
,  // measure 94
0000
0000
0000
0000
0000
0000
0000
0000
0001
1000
0001
1000
0010
0100
0001
1000
,  // measure 95
0100
1000
0001
0100
0010
1000
0001
0010
0100
0010
0001
1000
0010
0100
0002
0000
,  // measure 96
0000
2000
3003
0000
0000
0000
1100
0101
,  // measure 97
1010
0011
2001
0000
0000
0000
3100
0100
,  // measure 98
0010
0000
0001
1000
0010
0000
0010
0000
0100
0001
1000
0000
0100
0000
0100
0010
,  // measure 99
0001
1000
0010
0000
0100
0001
0100
0001
1000
0100
0010
0001
1000
0000
0000
0000
,  // measure 100
0000
0000
0000
0000
0000
0000
000M
0000
0000
M000
0000
0000
000M
0000
0000
M000
0000
0000
00M0
0000
0000
0000
0M00
0000
0000
0000
000M
0000
0000
0000
M000
0000
0000
0000
0M00
0000
0000
0000
M000
0000
0000
0000
000M
0000
0000
0000
00M0
0000
,  // measure 101
0000
0M00
0000
M000
0000
0000
0000
0000
0000
0000
0000
0000
0000
0000
0000
0000
0000
0000
0000
0000
0000
0000
0000
0000
,  // measure 102
0000
0000
0000
0000
,  // measure 103
0000
0000
0000
0000
,  // measure 104
0000
0000
0000
0000
0000
0000
0000
0000
0000
0000
0000
0000
0001
1000
0001
1000
,  // measure 105
0010
0100
0001
1000
0100
1000
0001
0010
0100
1000
0010
1000
,  // measure 106
0001
0000
0000
0000
0100
0000
0000
0000
0010
0000
0000
0000
1000
0000
0000
0000
0001
0000
0000
0000
1000
0000
0000
0000
0100
0000
0000
0000
0000
0000
0000
0000
0000
0010
0000
0000
0000
0000
0000
0000
0000
0000
0001
0000
0000
0000
0000
0000
,  // measure 107
0101
1100
0011
1010
1002
0000
0000
0000
,  // measure 108
0103
0000
0100
0000
0010
0000
1000
0001
0010
0000
0010
0000
0100
1000
0001
0000
,  // measure 109
0100
0000
0010
0100
0010
1000
0001
0000
0010
0000
0100
0000
1000
0000
0010
0000
;
