#TITLE:Beyond the Geostationary Orbit Level;
#SUBTITLE:;
#ARTIST:かめりあ;
#TITLETRANSLIT:;
#SUBTITLETRANSLIT:;
#ARTISTTRANSLIT:camellia;
#GENRE:;
#CREDIT:;
#BANNER:Beyond the Geostationary Orbit Level.png;
#BACKGROUND:Beyond the Geostationary Orbit Level-bg.png;
#LYRICSPATH:;
#CDTITLE:;
#MUSIC:Beyond the Geostationary Orbit Level.ogg;
#OFFSET:1.372000;
#SAMPLESTART:98.056999;
#SAMPLELENGTH:15.000000;
#LASTBEATHINT:1.061667;
#SELECTABLE:YES;
#DISPLAYBPM:87.500000:175.000000;
#BPMS:0.000000=175.000000
,68.000000=350.000000
,72.000000=175.000000
,164.000000=87.500000
,196.000000=175.000000
,225.000000=350.000000
,227.000000=175.000000
,352.000000=350.000000
,356.000000=175.000000
;
#STOPS:68.000000=0.171000,
69.000000=0.171000,
70.000000=0.171000,
71.000000=0.171000,
225.000000=0.043000,
225.250000=0.043000,
225.500000=0.043000,
225.750000=0.043000,
226.000000=0.043000,
226.250000=0.043000,
226.500000=0.043000,
226.750000=0.043000,
352.000000=0.086000,
352.500000=0.086000,
353.000000=0.171000,
354.000000=0.086000,
354.500000=0.086000,
355.000000=0.171000
;
#BGCHANGES:0.000=./effects.lua=1.000=0=0=0=StretchNoLoop====,
1.062=Beyond the Geostationary Orbit Level-bg.png=1.000=0=0=1=Centered====,
99999=-nosongbg-=1.000=0=0=0 // don't automatically add -songbackground-
;
#FGCHANGES:10.000=./star.lua=1.000=0=0=0=StretchNoLoop====,
16.000=./star.lua=1.000=0=0=0=StretchNoLoop====,
28.000=./star.lua=1.000=0=0=0=StretchNoLoop====,
100.000=./star.lua=1.000=0=0=0=StretchNoLoop====,
;
#KEYSOUNDS:;
#ATTACKS:;

//---------------dance-single - ----------------
#NOTES:
     dance-single:
     :
     Challenge:
     16:
     0.692977,0.991866,0.322474,0.823339,0.692977,707.000000,660.000000,47.000000,120.000000,18.000000,8.000000,0.692977,0.991866,0.322474,0.823339,0.692977,707.000000,660.000000,47.000000,120.000000,18.000000,8.000000:
0000
0000
0000
0000
,
0220
0000
0000
0330
,
1001
0000
0100
0000
,
0100
0000
0100
0000
,
0100
0000
0100
0000
,
0100
0000
0000
0000
0000
0000
0000
0000
0100
0000
0000
0000
2200
0000
0000
3300
,
0021
0030
0100
0000
,
0100
0000
0000
0000
0100
0001
0100
0000
,
0100
0000
1000
0000
0100
0000
0000
0000
0100
0000
0000
0001
0000
0000
0010
0000
,
0220
0000
0000
0330
,
1001
0101
1001
0101
,
0110
0000
1010
0000
1001
0000
0001
0010
,
0011
1010
0110
1010
,
1001
0000
0011
0000
1001
0000
0011
0001
,
0010
0100
1000
0001
1000
0100
0010
0001
,
0010
0100
1000
0001
1000
0010
1000
0100
,
1000
0001
1000
0001
0100
0010
0100
0010
1000
0001
1000
0001
2000
0000
0000
3000
,
0010
0110
1001
0110
,
1001
0000
0100
0000
0010
0000
0000
0010
0000
0000
0000
0010
0100
0000
0100
0000
,
0001
0000
0000
0000
0100
0000
0000
0100
0000
0000
0000
0100
0010
0000
0001
0000
,
0400
0000
0310
1000
0100
0000
1000
0200
,
M304
0000
0000
0103
0000
0000
0400
0000
0000
0301
0000
0000
0001
0000
0100
0000
1000
0000
0200
0000
0000
0000
0000
0000
,
0320
0000
0000
0000
0031
0000
0100
0000
0010
0000
0000
0000
0010
0000
0100
0010
,
0100
0000
0000
0010
0100
0000
0001
0000
1000
0000
0010
0000
0100
0000
0001
0000
,
0040
0000
0000
MM00
0000
0000
0000
0000
0000
0000
0000
0000
0000
0000
0000
0000
0000
0000
0000
0000
0000
0000
0000
0000
0030
0000
0000
0000
0000
0000
0000
0000
0000
0000
0000
0000
0000
0000
0000
0000
0000
0000
0000
0000
0000
0000
0000
0000
0001
0000
0000
0000
0000
0000
0000
0000
0000
0000
0000
0000
0000
0000
0000
0000
0100
0000
0000
0000
0000
0000
0000
0000
0000
0000
0000
0000
0000
0000
0000
0000
0010
0000
0000
0000
0000
0000
0000
0000
0000
0000
0000
0000
0000
0000
0000
0000
1000
0000
0000
0000
0000
0000
0000
0000
0000
0000
0000
0000
0000
0000
0000
0000
0000
0000
0000
0000
0000
0000
0000
0000
0001
0000
0000
0000
0000
0000
0000
0000
0000
0000
0000
0000
0000
0000
0000
0000
0000
0000
0000
0000
0000
0000
0000
0000
0010
0000
0000
0000
0000
0000
0000
0000
0000
0000
0000
0000
0000
0000
0000
0000
0000
0000
0000
0000
0000
0000
0000
0000
0000
0000
0000
0000
0000
0000
0000
0000
0000
0000
0000
0000
0000
0000
0000
0000
0000
0000
0000
0000
0000
0000
0000
0000
,
00M2
0000
0000
0M00
0000
0000
M000
0000
0000
00M0
0000
0000
0M00
0000
0000
M000
0000
0000
00M0
0000
0000
0000
0000
0000
2M03
0000
0000
00M0
0000
0000
0000
0000
0M00
0000
0000
0000
00M0
0000
0000
000M
0M00
0000
0000
0000
3000
00M0
0000
0000
,
0M01
0000
0000
1000
0000
0000
1000
0100
0010
0000
0000
0000
0100
0000
0000
0010
,
0000
0001
0000
0000
0101
0000
0100
0001
0010
0000
0000
0000
1100
0000
1000
0000
,
0100
0001
0100
1000
0001
1000
0010
0100
0001
0010
0100
1000
,
1001
0000
0000
0000
1000
0000
0000
0001
0000
0000
1001
0000
1001
0000
0000
0000
,
0100
0000
0000
0000
0010
0000
0000
0100
0010
1000
0001
0100
0010
0000
0000
0000
,
2000
0000
3000
0000
0020
0000
0000
0130
,
0004
0000
0000
0000
0000
0003
0000
0000
,
0101
0000
1000
1100
0000
0000
0010
0101
,
0000
0000
0100
0101
0000
0000
0001
0101
,
0400
0000
0000
0000
0301
0010
0100
1000
0000
0000
0000
0000
1000
0001
0100
0010
,
0000
0000
0000
0000
1000
0001
0010
0100
0000
0000
0000
0000
0100
0001
0100
1000
,
2004
0000
3003
0000
1000
0001
0100
0010
0100
0001
1000
0001
0100
0000
0000
0000
,
0100
0010
0100
0001
0100
0010
0100
1000
0100
0010
0100
0001
0100
0000
0000
0000
,
0000
0000
0000
0000
1000
0100
1000
0100
1000
0100
1000
0000
0001
0100
0001
0100
,
0001
0100
0001
0000
1000
0100
1000
0010
0100
1000
0100
0010
1000
0100
0010
0100
,
1000
0000
0010
0010
0000
0100
0100
0000
1000
0000
0001
0001
0000
0100
0100
0000
,
0010
0000
1000
1000
0000
0100
0100
0000
0010
0000
0010
0010
0000
0100
0100
0000
,
0001
0100
0010
1000
0000
0000
0101
0000
1000
0000
0100
0100
0000
0001
0001
0000
,
2000
3000
0200
0300
0020
0030
0002
0003
2000
3000
0200
0300
0020
0030
0002
0003
2000
3000
0200
0300
0020
0030
0002
0003
2000
3000
0200
0300
0020
0030
0002
0003
,
2000
0010
0000
0010
3200
0010
0000
0010
,
0302
0010
0000
0010
0203
0010
0000
0010
,
2300
0100
3002
0100
2003
0100
3002
0100
,
2003
0100
3002
0100
1003
1000
1001
0001
,
0002
0000
0103
0000
2000
3020
0230
0320
,
0000
0000
0000
0000
0030
0000
0200
0000
0000
0000
0000
0000
0000
0000
0301
1000
,
0020
0030
2020
3000
1000
0130
0010
0002
,
0000
0010
1000
2003
0000
0200
3000
0300
,
0002
0000
0000
0000
1003
0100
0010
0100
1000
0010
0100
0010
2000
0000
0000
0000
,
0000
0000
0000
0000
3020
0000
0000
0000
0000
0000
0000
0000
0130
0010
0100
0010
,
0200
0000
0000
0000
0000
0000
0000
0000
0000
0000
0302
0003
0020
0030
0002
0000
,
0000
0000
0003
0000
1000
0001
1000
0001
1000
0001
1000
0001
4000
0000
3000
0000
,
0010
0000
0100
0000
0010
0100
0010
0000
0100
0001
0100
0010
0100
1000
0100
0010
,
0100
0001
0100
0010
0100
1000
0100
0010
0001
1000
0001
0010
0200
0000
0000
0000
,
1300
0010
1000
0001
1000
0010
1000
0001
1000
0100
1000
0010
1000
0100
1000
0001
,
1000
0100
1000
0001
1000
0100
1000
0010
2000
0000
0000
0000
3011
0000
0000
0000
,
1000
0010
0100
0001
0010
0100
1000
0010
1000
0100
1000
0001
,
0010
0001
1000
0010
1000
0001
0010
0001
1000
0001
0100
0010
,
1000
0100
1000
0010
0100
0010
0100
0001
0100
0010
0100
0020
0000
0000
0000
0030
,
0100
0000
0001
1000
0001
0000
0001
1000
0001
0000
0001
0010
0001
0100
0001
1000
,
0002
0000
0000
0000
0000
0100
0003
0000
0200
0000
0000
0000
0000
0010
0000
0000
,
0320
0000
0000
0000
0000
0100
0030
0000
0100
0000
0010
0000
1000
0100
0000
0100
,
2000
0000
0000
0000
0000
0100
3000
0000
0020
0000
0000
0000
0000
0001
0030
0000
,
0100
0000
0000
1000
0020
0000
0000
0000
0200
0030
0000
0000
0000
0300
0000
0000
,
1100
0000
2000
0000
0200
3000
0020
0000
,
0302
0230
0023
2300
,
0032
3200
0323
2030
,
3020
0000
0000
0100
0030
0110
0000
0000
1000
0000
0001
0000
1001
0000
0000
0000
,
2000
0000
0000
0100
3020
0000
0000
0130
,
0200
0000
0000
1300
0020
0000
0000
0100
,
0230
0000
0000
0010
0320
0000
1000
0030
,
2000
0000
0000
3000
0002
0000
0100
0000
,
1003
0000
1000
0000
0000
0100
0000
0000
0010
0000
0010
0000
0000
0001
0000
0000
,
1000
0000
1000
0000
0000
0001
0000
0000
0010
0000
0010
0000
0000
0100
0000
0000
,
1000
0010
0100
0001
0010
0001
0010
0001
,
1000
0000
0000
0010
0000
0000
0001
0000
1000
0000
0010
0000
0001
0000
0000
0000
,
1000
0100
1000
0100
0010
0001
0010
0001
1000
0001
1000
0001
1000
0010
1000
0010
,
0100
0000
0000
0001
0000
0000
0100
0000
0000
0001
0000
0000
1000
0000
0000
0010
0000
0000
1000
0000
0000
0010
0000
0000
0100
0000
0010
0000
1000
0000
0001
0000
0100
0000
0000
0000
0000
0000
0000
0000
0000
0000
0000
0000
0000
0000
0000
0000
,
1000
0010
0100
0001
0010
0100
1000
0010
0100
0001
0010
0100
1000
0100
0010
0100
,
0010
0001
1000
0001
0100
0001
1000
0001
0020
0000
0000
0000
0100
0000
0030
0000
,
0100
0100
0100
0100
0001
0001
0001
0001
,
1000
1000
0010
0010
1000
1000
0101
0101
,
0001
0010
0100
1000
0001
0010
0100
1000
0010
0100
0001
0010
0100
0000
0100
0000
,
1000
0010
0110
0000
0010
0010
0010
0000
,
2002
0000
0000
3003
,
0220
0000
0000
0330
,
2000
3020
0230
0302
0003
2000
3002
0023
,
0000
0000
0030
0000
0002
0003
0200
0300
,
0020
0230
0302
0203
0300
0000
0200
0300
,
0020
2030
3002
0023
0030
0200
2300
3000
,
0200
2300
3200
0302
0000
0000
0000
0000
,
0000
0000
0000
0003
0000
0000
0000
0000
;

//---------------dance-single - ----------------
#NOTES:
     dance-single:
     :
     Hard:
     14:
     0.632207,0.925742,0.192112,0.864506,0.494003,645.000000,617.000000,28.000000,126.000000,0.000000,9.000000,0.632207,0.925742,0.192112,0.864506,0.494003,645.000000,617.000000,28.000000,126.000000,0.000000,9.000000:
// measure 0
0000
0000
0000
0000
,  // measure 1
0220
0000
0000
0330
,  // measure 2
1001
0000
0100
0000
,  // measure 3
0100
0000
0100
0000
,  // measure 4
0100
0000
0100
0000
,  // measure 5
0100
0000
0000
0000
0000
0000
0000
0000
0100
0000
0000
0000
0200
0000
0000
0300
,  // measure 6
0020
0030
0100
0000
,  // measure 7
0100
0000
0000
0000
0100
0001
0100
0000
,  // measure 8
0100
0001
0100
0000
0100
0000
0100
0010
,  // measure 9
0220
0000
0000
0330
,  // measure 10
1001
0100
1000
0001
,  // measure 11
0110
0010
1000
0001
,  // measure 12
0011
1000
0010
0010
,  // measure 13
1001
0000
0001
0000
1001
0000
0010
0001
,  // measure 14
0010
0100
1000
0001
1000
0100
0010
0001
,  // measure 15
0010
0100
1000
0001
1000
0010
1000
0100
,  // measure 16
1000
0000
1000
0000
0001
0000
0001
0000
1000
0000
1000
0000
2000
0000
0000
3000
,  // measure 17
0010
0100
1000
0100
,  // measure 18
2002
0000
3013
0000
0010
0000
0100
0100
,  // measure 19
0001
0000
0100
0000
0100
0000
0010
0001
,  // measure 20
0200
0000
0310
1000
0100
0000
1000
0100
,  // measure 21
0020
0000
0000
0130
0000
0000
0200
0000
0000
0300
0000
0000
0001
0000
0100
0000
0010
0000
0200
0000
0000
0000
0000
0000
,  // measure 22
0320
0000
0031
0100
0010
0000
0010
0100
,  // measure 23
1000
0001
0100
0001
1000
0010
0100
0001
,  // measure 24
0020
0030
0001
1000
0001
0100
0010
0000
,  // measure 25
0002
0000
0000
0000
0000
0000
2003
0000
0000
0000
0000
3000
,  // measure 26
0001
0000
0000
1000
0000
0000
1000
0100
0010
0000
0000
0000
0100
0000
0010
0000
,  // measure 27
0001
0010
0101
0100
0001
0100
1100
1000
,  // measure 28
0010
0100
0001
1000
0001
1000
0010
0100
0001
0010
0100
1000
,  // measure 29
0001
0000
0000
0000
1000
0000
0000
0001
0000
0000
1001
0000
1001
0000
0000
0000
,  // measure 30
0100
0000
0000
0000
0100
0000
0000
0010
0100
0001
1000
0010
0100
0000
0000
0000
,  // measure 31
2000
0000
3000
0000
0020
0000
0000
0130
,  // measure 32
0002
0000
0000
0003
,  // measure 33
0101
0000
1000
1100
0000
0000
0001
0101
,  // measure 34
0000
0000
0100
0101
0000
0000
0001
0101
,  // measure 35
0200
0000
0000
0000
0301
0010
0100
1000
0000
0000
0000
0000
1000
0001
0100
0010
,  // measure 36
0000
0000
0000
0000
1000
0001
0010
0100
0000
0000
0000
0000
0100
0001
0100
1000
,  // measure 37
0002
0000
0000
0000
1003
0000
0100
0010
0100
0000
1000
0001
0100
0000
0000
0000
,  // measure 38
0100
0010
0100
0000
1000
0010
1000
0000
0100
0010
0100
0001
0100
0000
0000
0000
,  // measure 39
0000
0000
0000
0000
1000
0100
1000
0100
1000
0100
1000
0000
0001
0100
0001
0100
,  // measure 40
0001
0100
0001
0000
1000
0001
1000
0000
0100
1000
0100
0000
1000
0100
0010
0100
,  // measure 41
1000
0000
0010
0010
0000
0100
0100
0000
1000
0000
0001
0001
0000
0100
0100
0000
,  // measure 42
0010
0000
1000
1000
0000
0100
0100
0000
0010
0000
0010
0010
0000
0100
0100
0000
,  // measure 43
0001
0100
0010
1000
0000
0000
0101
0000
1000
0000
0100
0100
0000
0001
0001
0000
,  // measure 44
2000
3000
0200
0300
0020
0030
0002
0003
2000
3000
0200
0300
0020
0030
0002
0003
2000
3000
0200
0300
0020
0030
0002
0003
2000
3000
0200
0300
0020
0030
0002
0003
,  // measure 45
2000
0010
0000
0010
3200
0010
0000
0010
,  // measure 46
2300
0010
0000
0010
3200
0010
0000
0010
,  // measure 47
2300
0100
3002
0010
2003
0100
3002
0010
,  // measure 48
2003
0100
3002
0010
1003
1000
1001
0001
,  // measure 49
0002
0000
0103
0000
2000
3020
0230
0320
,  // measure 50
0000
0000
0000
0000
0030
0000
0200
0000
0000
0000
0000
0000
0000
0000
0301
1000
,  // measure 51
0020
0030
2020
3000
1000
0130
0010
0002
,  // measure 52
0000
1000
1000
2003
0000
0200
3000
0300
,  // measure 53
0002
0000
0000
0000
1003
0100
0010
0100
1000
0000
0100
0000
2000
0000
0000
0000
,  // measure 54
0000
0000
0000
0000
3020
0000
0000
0000
0000
0000
0000
0000
0130
0010
0100
0010
,  // measure 55
0200
0000
0000
0000
0000
0000
0000
0000
0000
0000
0302
0003
0020
0030
0002
0000
,  // measure 56
0000
0000
0003
0000
1000
0001
1000
0001
1000
0001
1000
0001
4000
0000
3000
0000
,  // measure 57
0010
0000
0100
0000
0010
0100
0010
0000
0100
0001
0100
0000
0100
0010
0100
0000
,  // measure 58
0100
0001
0100
0000
0001
0100
0001
0000
0001
1000
0001
0010
0200
0000
0000
0000
,  // measure 59
1300
0010
1000
0000
1000
0001
1000
0000
0001
0100
0001
0000
0001
0010
0001
0000
,  // measure 60
1000
0100
1000
0000
1000
0001
1000
0010
2000
0000
0000
0000
3011
0000
0000
0000
,  // measure 61
1000
0010
0100
0001
0010
0100
1000
0010
1000
0001
1000
0100
,  // measure 62
0010
0100
1000
0010
1000
0001
0010
0001
1000
0001
0100
0010
,  // measure 63
1000
0100
1000
0000
0100
0010
0100
0000
0100
0010
0100
0020
0000
0000
0000
0030
,  // measure 64
0100
0000
0001
1000
0001
0000
0001
1000
0001
0000
0001
0010
0001
0100
0001
1000
,  // measure 65
0002
0000
0000
0000
0000
0100
0003
0000
0200
0000
0000
0000
0000
0010
0000
0000
,  // measure 66
0320
0000
0000
0000
0000
0100
0030
0000
0100
0000
0010
0000
1000
0100
0000
0100
,  // measure 67
2000
0000
0000
0000
0000
0100
3000
0000
0020
0000
0000
0000
0000
0001
0030
0000
,  // measure 68
0100
0000
0000
1000
0020
0000
0000
0000
0200
0030
0000
0000
0000
0300
0000
0000
,  // measure 69
1100
0000
2000
0000
0200
3000
0020
0000
,  // measure 70
0302
0230
0023
2300
,  // measure 71
0032
3200
0323
2030
,  // measure 72
3020
0000
0000
0100
0030
0100
0000
0000
1000
0000
0001
0000
0001
0000
0000
0000
,  // measure 73
2000
0000
0000
0100
3020
0000
0000
0130
,  // measure 74
0200
0000
0000
1300
0020
0000
0000
0100
,  // measure 75
0230
0000
0000
0010
0320
0000
1000
0030
,  // measure 76
2000
0000
0000
3000
0002
0000
0100
0000
,  // measure 77
1003
0000
1000
0000
0000
0100
0000
0000
0010
0000
0010
0000
0000
0001
0000
0000
,  // measure 78
1000
0000
1000
0000
0000
0001
0000
0000
0010
0000
0010
0000
0000
0100
0000
0000
,  // measure 79
1000
0010
0100
0001
0010
0001
0010
0001
,  // measure 80
1000
0000
0000
0010
0000
0000
0001
0000
1000
0000
0010
0000
0001
0000
0000
0000
,  // measure 81
1000
0100
1000
0000
0010
0001
0010
0000
1000
0001
1000
0000
1000
0010
1000
0000
,  // measure 82
0100
0000
0000
0001
0000
0000
0100
0000
0000
0000
0000
0000
1000
0000
0000
0010
0000
0000
1000
0000
0000
0000
0000
0000
0100
0000
0010
0000
1000
0000
0001
0000
0100
0000
0000
0000
0000
0000
0000
0000
0000
0000
0000
0000
0000
0000
0000
0000
,  // measure 83
1000
0010
0100
0000
0010
0100
1000
0000
1000
0001
0010
0000
1000
0000
0010
0100
,  // measure 84
0010
0000
1000
0000
0100
0010
0100
1000
0020
0000
0000
0000
0100
0000
0030
0000
,  // measure 85
0100
0100
0100
0100
0001
0001
0001
0001
,  // measure 86
1000
1000
0010
0010
1000
1000
0101
0101
,  // measure 87
0001
0010
0100
1000
0001
0010
0100
1000
0010
0100
0001
0010
0100
0000
0100
0000
,  // measure 88
1000
0010
0110
0000
0010
0010
0010
0000
,  // measure 89
2002
0000
0000
3003
,  // measure 90
0220
0000
0000
0330
,  // measure 91
2000
3020
0230
0302
0003
2000
3002
0023
,  // measure 92
0000
0000
0030
0000
0002
0003
0200
0300
,  // measure 93
0020
0230
0302
0203
0300
0000
0200
0300
,  // measure 94
0020
2030
3002
0023
0030
0200
2300
3000
,  // measure 95
0200
2300
3200
0302
0000
0000
0000
0000
,  // measure 96
0000
0000
0000
0003
0000
0000
0000
0000
;
