#TITLE:Beautiful Harmony;
#SUBTITLE:(IIDX Mix);
#ARTIST:Ryu☆;
#TITLETRANSLIT:;
#SUBTITLETRANSLIT:;
#ARTISTTRANSLIT:;
#GENRE:;
#CREDIT:;
#BANNER:banner.png;
#BACKGROUND:background.png;
#LYRICSPATH:;
#CDTITLE:;
#MUSIC:Beautiful Harmony (IIDX Mix).ogg;
#OFFSET:0.000000;
#SAMPLESTART:33.757778;
#SAMPLELENGTH:28.444443;
#SELECTABLE:YES;
#BPMS:0.000000=135.000000
;
#STOPS:
;
#BGCHANGES:;
#KEYSOUNDS:;
#ATTACKS:;

//---------------dance-single - ----------------
#NOTES:
     dance-single:
     :
     Hard:
     11:
     0.364337,0.610992,0.023470,0.547624,0.359867,326.000000,323.000000,3.000000,70.000000,0.000000,0.000000,0.364337,0.610992,0.023470,0.547624,0.359867,326.000000,323.000000,3.000000,70.000000,0.000000,0.000000:
0000
0000
0000
0000
,
0000
0000
0000
0000
,
0000
0000
0000
0000
,
0000
0000
0000
0000
,
0000
0000
0000
0000
,
0000
0000
0000
0000
,
0000
0000
0000
0000
,
0000
0000
0000
0000
,
0000
0000
0000
0000
,
0002
0000
0023
0000
,
2030
0000
3200
0302
,
2003
0000
3002
2003
,
3020
0000
0230
0302
,
2003
0000
3020
0000
,
0032
0000
0000
0203
,
2300
0000
0000
0000
,
0002
0000
0000
0000
,
3003
0000
0000
0000
,
1001
0110
2002
3003
,
2000
0000
3100
1000
0020
0000
0130
0001
,
0020
0000
0130
0001
0200
0000
2300
0000
,
3020
0000
0031
0000
0001
0010
1000
0010
,
0200
0000
1300
0000
0100
0010
2000
0000
,
3002
0000
1000
0000
0103
0001
0010
0000
,
0002
0000
0013
0001
0200
0000
0310
0000
,
0200
0000
0301
0010
0200
0000
1300
0100
,
0002
0000
0103
0010
0002
0000
1003
0000
,
2000
0000
3001
0100
0020
0000
1030
0100
,
0002
0000
0103
0010
0002
0000
0203
0000
,
0320
0000
0130
0001
0100
0010
1000
0001
,
0200
0000
0310
0000
0100
0010
1000
0001
,
0020
0000
0130
0001
2000
0000
3001
1000
,
0002
0000
0203
0000
0310
1000
0100
0001
,
0200
0000
0310
0001
2000
0000
3010
0001
,
0200
0000
0310
1000
0200
0000
0310
0000
,
0002
0000
0000
0000
,
2003
0000
0000
0000
,
3002
0000
0203
0000
,
2300
0000
3020
0000
,
0032
0000
0000
0000
,
2003
0000
0000
0000
,
3002
0000
0203
0000
,
2300
0000
3020
0000
,
0002
0000
0000
0000
,
0000
0000
0000
0033
,
1000
0000
0000
0001
0000
0000
0010
0000
0001
0000
0000
1000
0000
0000
0001
0100
,
0000
0000
0001
0000
0010
0000
0001
0000
0010
0000
0000
0100
0000
0000
0000
0000
,
0010
0000
0000
0001
0000
0000
0010
0000
0001
0000
0000
1000
0000
0000
0100
0000
,
1000
0000
0010
0000
0001
0000
0010
0000
0100
0000
0001
0100
0000
0000
0100
0010
,
0100
0000
0000
0001
0000
0000
0010
0000
0001
0000
0000
1000
0000
0000
0001
0000
,
0010
0000
1000
0000
0010
0000
0100
0000
1000
0000
0000
0010
0000
0000
0000
0000
,
0100
0000
0000
0001
0000
0000
0010
0000
0001
0000
0000
1000
0000
0000
0001
0000
,
2000
3200
0302
0013
,
0001
1000
0000
0001
0000
0010
0001
0000
0100
0000
0010
1000
0000
0000
0100
0010
,
0000
0000
0100
0000
1000
0000
0010
0000
0100
0000
0001
0020
0000
0000
0000
0000
,
0130
0010
0000
0001
0000
0000
1000
0000
0001
0000
0100
0001
0000
0010
0100
1000
,
0000
0100
0000
1000
0000
0010
0100
0000
0001
0000
1000
0010
0000
0010
0100
0000
,
0001
0010
0000
0100
0000
0010
0100
0000
1000
0000
0001
1000
0000
0000
0010
0100
,
0000
0001
0010
0000
0100
0010
0001
0000
1000
0000
0001
0200
0000
0000
0000
0000
,
0310
1000
0000
0001
0000
0010
0100
0000
0010
0000
0001
0010
0000
0000
0100
0010
,
0000
0001
0000
1000
0000
0010
1000
0001
0000
1000
0000
0001
0000
0010
0100
1000
,
0001
0100
0000
1000
0000
0100
0001
0000
0010
0000
0100
0010
0000
0000
0001
1000
,
0000
0100
1000
0000
0010
0100
0001
0000
1000
0000
0001
0200
0000
0000
0000
0000
,
0301
0100
0000
1000
0000
0100
0010
0000
1000
0000
0001
0010
0000
0100
0010
0001
,
0000
0010
0000
0100
0000
0010
0001
0000
1000
0000
0001
0100
0000
0100
0010
0000
,
1000
0010
0000
0001
0000
0010
0100
0000
0001
0000
1000
0100
0000
0010
0100
1000
,
0000
0001
0100
0000
0001
0010
0001
0000
0010
0000
0100
0020
0000
0000
0000
0000
,
0130
1000
0000
0010
0000
0100
0001
0000
1000
0000
0001
0100
0000
0010
0000
1000
,
0000
0100
0000
0010
0000
0100
1000
0010
0000
0100
0000
0001
0000
0100
0010
1000
,
0002
0000
0000
0000
,
0000
0000
0000
0000
,
0003
0000
0000
0000
;

//---------------dance-single - ----------------
#NOTES:
     dance-single:
     :
     Medium:
     8:
     0.242519,0.388813,0.070409,0.625856,0.000000,217.000000,208.000000,9.000000,80.000000,0.000000,0.000000,0.242519,0.388813,0.070409,0.625856,0.000000,217.000000,208.000000,9.000000,80.000000,0.000000,0.000000:
0000
0000
0000
0000
,
0000
0000
0000
0000
,
0000
0000
0000
0000
,
0000
0000
0000
0000
,
0000
0000
0000
0000
,
0000
0000
0000
0000
,
0000
0000
0000
0000
,
0000
0000
0000
0000
,
0000
0000
0000
0000
,
2000
0000
3200
0000
,
0302
0000
0023
2030
,
3002
0000
2003
3002
,
2003
0000
3020
2030
,
3002
0000
0203
0000
,
2300
0000
0000
3020
,
0032
0000
0000
0000
,
2003
0000
0000
0000
,
3000
0000
0000
0000
,
1001
0110
2002
3003
,
0020
1030
0200
0310
,
2000
3010
0200
0302
,
0023
1030
0020
0032
,
0203
1300
0200
0320
,
2030
0001
0010
3001
,
0002
1000
0023
0130
,
2000
0010
3002
0013
,
2000
0010
3010
0101
,
2000
3100
0002
0103
,
0020
0130
2000
3200
,
0302
0103
0002
0023
,
2030
3010
0200
0320
,
0032
0013
0200
0310
,
2000
0100
3010
0002
,
0203
0310
0002
0013
,
0200
1300
0020
0130
,
0002
0000
0000
0000
,
2003
0000
0000
0000
,
3002
0000
0203
0000
,
2300
0000
3020
0000
,
0032
0000
0000
0000
,
2003
0000
0000
0000
,
3002
0000
0203
0000
,
2300
0000
3020
0000
,
0002
0000
0000
0000
,
0000
0000
0000
0033
,
2100
0000
0020
3030
,
0100
0001
0010
0100
,
0020
0000
0002
0033
,
0100
0010
0001
1000
,
0002
0000
0200
0303
,
0010
1000
0001
1000
,
0002
0000
0020
0033
,
2200
0000
3300
0011
,
1001
0001
0100
1000
,
0100
0010
1000
0000
0001
0010
0100
0000
,
0010
0001
1000
0100
,
0010
0100
1000
0010
0100
0001
0010
0100
,
1000
0001
0010
0001
,
1000
0001
0100
0000
0010
1000
0100
0000
,
0001
0100
1000
0100
,
0001
0100
0010
0001
0100
1000
0100
0010
,
1000
0010
1000
0100
,
0010
0001
0100
0000
1000
0100
0001
0000
,
0100
0010
1000
0001
,
0010
0100
1000
0100
0001
0100
1000
0010
,
0001
0010
1000
0010
,
0100
1000
0010
0000
0100
0001
1000
0000
,
0001
1000
0010
0100
,
0001
0100
1000
0010
0001
1000
0010
1000
,
2002
0000
0000
0000
,
0000
0000
0000
0000
,
3003
0000
0000
0000
;

//---------------dance-single - ----------------
#NOTES:
     dance-single:
     :
     Easy:
     4:
     0.137465,0.222179,0.023470,0.234696,0.000000,123.000000,120.000000,3.000000,30.000000,0.000000,0.000000,0.137465,0.222179,0.023470,0.234696,0.000000,123.000000,120.000000,3.000000,30.000000,0.000000,0.000000:
0000
0000
0000
0000
,
0000
0000
0000
0000
,
0000
0000
0000
0000
,
0000
0000
0000
0000
,
0000
0000
0000
0000
,
0000
0000
0000
0000
,
0000
0000
0000
0000
,
0000
0000
0000
0000
,
0000
0000
0000
0000
,
2000
0000
0000
3000
,
0002
0000
0000
0003
,
0200
0000
0000
0300
,
0020
0000
0000
0030
,
2000
0000
0000
0000
,
3002
0000
0000
0000
,
0203
0000
0000
0000
,
0320
0000
0000
0000
,
0030
0000
0000
0000
,
1000
1000
1000
1001
,
0001
0000
0010
0000
,
0100
0000
0010
0001
,
2000
0000
3001
1000
,
0200
0000
1300
0010
,
0200
0000
0000
0300
,
0020
0000
0130
0000
,
0002
0000
1003
0000
,
0200
0000
0300
1001
,
0001
0000
1000
0000
,
0100
0000
1000
0010
,
0200
0000
0310
1000
,
0002
0000
0013
0001
,
0200
0310
2000
3100
,
0020
0000
0000
0130
,
2000
0000
3200
0000
,
0320
0000
0000
0030
,
0100
0000
0000
0000
,
1000
0000
0000
0000
,
0010
0000
0100
0000
,
0001
0000
0010
0000
,
0100
0000
0000
0000
,
0010
0000
0000
0000
,
0001
0000
1000
0000
,
0010
0000
0100
0000
,
0000
0000
0000
0000
,
0000
0000
0000
0000
,
1000
0000
0001
0000
,
0200
0000
0000
0300
,
0010
0000
1000
0000
,
0002
0000
0000
0003
,
1000
0000
0001
0000
,
0010
0000
0200
0300
,
0010
0000
0001
0000
,
0200
0000
0000
0300
,
0010
0000
1000
0000
,
0001
1000
0010
0000
,
1000
0000
0100
0000
,
0010
0100
1000
0010
,
0100
0000
0001
0000
,
0010
0001
0100
0000
,
0001
0000
1000
0000
,
0100
1000
0010
1000
,
0001
0000
1000
0000
,
0010
1000
0200
0300
,
0010
0000
0001
0000
,
0010
0001
0100
0010
,
1000
0000
0001
0000
,
0010
0001
0200
0300
,
0010
0000
0100
0000
,
0001
0100
0010
1000
,
2002
0000
0000
0000
,
0000
0000
0000
0000
,
3003
0000
0000
0000
;

//---------------dance-single - ----------------
#NOTES:
     dance-single:
     :
     Beginner:
     3:
     0.094996,0.161940,0.015646,0.070409,0.000000,85.000000,83.000000,2.000000,9.000000,0.000000,0.000000,0.094996,0.161940,0.015646,0.070409,0.000000,85.000000,83.000000,2.000000,9.000000,0.000000,0.000000:
// measure 0
0000
0000
0000
0000
,  // measure 1
0000
0000
0000
0000
,  // measure 2
0000
0000
0000
0000
,  // measure 3
0000
0000
0000
0000
,  // measure 4
0000
0000
0000
0000
,  // measure 5
0000
0000
0000
0000
,  // measure 6
0000
0000
0000
0000
,  // measure 7
0000
0000
0000
0000
,  // measure 8
0000
0000
0000
0000
,  // measure 9
1000
0000
0000
0000
,  // measure 10
0001
0000
0000
0000
,  // measure 11
0100
0000
0000
0000
,  // measure 12
0010
0000
0000
0000
,  // measure 13
1000
0000
0000
0000
,  // measure 14
0100
0000
0000
0000
,  // measure 15
0010
0000
0000
0000
,  // measure 16
0001
0000
0000
0000
,  // measure 17
0200
0000
0000
0000
,  // measure 18
0300
0000
0000
0000
,  // measure 19
0010
0000
0010
0000
,  // measure 20
0010
0000
0000
0000
,  // measure 21
1000
0000
1000
0000
,  // measure 22
1000
0000
0000
0000
,  // measure 23
0001
0000
0000
0000
,  // measure 24
1000
0000
0000
0000
,  // measure 25
0010
0000
0100
0000
,  // measure 26
0010
0000
0000
0000
,  // measure 27
0001
0000
1000
0000
,  // measure 28
0010
0000
0000
0000
,  // measure 29
0100
0000
0001
0000
,  // measure 30
0010
0000
0000
0000
,  // measure 31
0100
0000
1000
0000
,  // measure 32
0001
0000
0000
0000
,  // measure 33
1000
0000
0000
0001
,  // measure 34
1000
0000
0000
0000
,  // measure 35
0110
0000
0000
0000
,  // measure 36
0100
0000
0000
0000
,  // measure 37
0001
0000
0000
0000
,  // measure 38
1000
0000
0000
0000
,  // measure 39
0100
0000
0000
0000
,  // measure 40
1000
0000
0000
0000
,  // measure 41
0010
0000
0000
0000
,  // measure 42
0100
0000
0000
0000
,  // measure 43
0002
0000
0000
0000
,  // measure 44
0000
0000
0000
0003
,  // measure 45
0100
0000
0100
0000
,  // measure 46
0100
0000
0000
0000
,  // measure 47
0010
0000
0010
0000
,  // measure 48
0010
0000
0000
0000
,  // measure 49
1000
0000
1000
0000
,  // measure 50
1000
0000
0000
0000
,  // measure 51
0001
0000
0001
0000
,  // measure 52
0002
0000
0000
0003
,  // measure 53
0100
0000
0001
0000
,  // measure 54
0020
0000
0000
0030
,  // measure 55
0100
0000
1000
0000
,  // measure 56
0002
0000
0000
0003
,  // measure 57
0100
0000
0001
0000
,  // measure 58
2000
0000
0000
3000
,  // measure 59
0100
0000
1000
0000
,  // measure 60
0020
0000
0000
0030
,  // measure 61
0100
0000
0010
0000
,  // measure 62
1000
0001
1000
0000
,  // measure 63
0001
0000
0010
0000
,  // measure 64
0100
1000
0100
0000
,  // measure 65
1000
0000
0010
0000
,  // measure 66
0100
0001
0100
0000
,  // measure 67
0002
0000
0000
0003
,  // measure 68
2000
0000
0000
3000
,  // measure 69
0110
0000
0000
0000
;
