#TITLE:Be Alive;
#SUBTITLE:;
#ARTIST:Norma Sheffield;
#TITLETRANSLIT:;
#SUBTITLETRANSLIT:;
#ARTISTTRANSLIT:;
#GENRE:;
#CREDIT:SupremeX;
#BANNER:Be Alive-bn.png;
#BACKGROUND:Be Alive-bg.png;
#LYRICSPATH:;
#CDTITLE:cdtitle.png;
#MUSIC:Be Alive.ogg;
#OFFSET:-0.074072;
#SAMPLESTART:48.959999;
#SAMPLELENGTH:12.000000;
#SELECTABLE:YES;
#BPMS:0.000000=147.110001
;
#STOPS:
;
#BGCHANGES:;
#KEYSOUNDS:;
#ATTACKS:;

//---------------dance-single - ----------------
#NOTES:
     dance-single:
     :
     Hard:
     10:
     0.375616,0.445184,0.430663,0.135999,0.000000,232.000000,194.000000,38.000000,12.000000,72.000000,0.000000,0.375616,0.445184,0.430663,0.135999,0.000000,232.000000,194.000000,38.000000,12.000000,72.000000,0.000000:
0000
0000
0000
0000
,
0000
0000
0000
0000
,
0000
0000
0000
0000
,
0000
0000
0000
0000
,
0100
0000
0000
0101
0000
0000
0000
0000
,
0010
0000
0000
1010
0000
0000
0000
0000
,
0100
0000
0000
0001
0000
0001
0000
0000
,
1000
0000
0110
0110
,
0001
0000
1000
1000
0000
0100
1000
0000
,
1000
0010
0100
0100
0000
MMMM
0000
0000
,
0101
0000
0000
1001
0000
0000
0100
0000
,
0100
0000
1000
1000
0000
0001
0001
MMMM
,
1100
0000
0010
0100
0000
0010
0010
0000
,
0100
0000
0001
0001
0000
MMMM
0000
0000
,
0110
0000
0000
1100
0000
0000
0010
0001
,
0010
0000
0100
1000
0000
1100
0000
1001
,
0000
0010
0100
0010
0000
MMMM
1000
0100
,
1000
0100
0000
0100
0000
1010
0000
0101
,
0000
0000
0000
1010
0000
0000
0000
0100
,
1000
0100
0000
1000
0000
0001
0000
0110
,
0000
MMMM
1000
0000
0100
0000
1000
1000
,
0100
0000
1000
0001
0000
0100
0000
0101
,
0000
0000
2000
0000
3010
0010
0000
MMMM
,
0000
0000
0200
0000
0301
0001
0000
0000
,
2020
0000
0000
3030
0000
0000
0100
0010
,
1000
0010
0000
1001
0000
0110
0000
1001
,
0000
0000
MMMM
0000
MMMM
0000
0100
0010
,
1000
0001
1000
1000
0000
0001
0000
1001
,
0000
0110
0000
1001
0000
1000
0100
0000
,
1000
0000
0100
0100
0000
1001
0000
0000
,
0200
0000
0310
0010
0000
MMMM
0000
0000
,
0020
0000
0130
0100
0000
MMMM
0000
0000
,
0001
0000
1000
0100
0000
0100
0010
0000
,
0001
0110
1000
1010
,
0002
0000
0103
0100
0000
MMMM
0000
0000
,
0020
0000
1030
1000
0000
MMMM
0000
0000
,
0100
0000
0010
0100
0000
0100
0001
0000
,
1000
1010
0110
1001
,
0200
0000
0310
0010
0000
MMMM
0000
0000
,
2000
0000
3001
0001
0000
MMMM
0000
0000
,
0100
0000
0010
1000
0000
0010
0100
0000
,
0001
1100
0110
0011
,
2000
0000
3100
0100
0000
MMMM
0000
0000
,
0020
0000
0130
0100
0000
MMMM
0000
0000
,
0001
0000
1000
0100
0000
0010
0001
0000
,
0110
1000
1001
1001
,
0010
0000
0100
0010
0000
1000
0100
1000
,
1000
0000
0001
0100
0000
0010
1000
0001
,
0100
0000
0000
1010
MMMM
0000
0100
0100
,
0100
0000
0001
1000
0000
0010
0100
0000
,
0001
0000
1000
0100
0000
0100
0010
0000
,
0101
0000
1000
0100
0000
0100
1000
0001
,
0100
MMMM
0000
1001
0000
0000
0000
0000
;

//---------------dance-single - ----------------
#NOTES:
     dance-single:
     :
     Medium:
     8:
     0.318950,0.320235,0.067999,0.000000,0.000000,197.000000,191.000000,6.000000,0.000000,0.000000,0.000000,0.318950,0.320235,0.067999,0.000000,0.000000,197.000000,191.000000,6.000000,0.000000,0.000000,0.000000:
0000
0000
0000
0000
,
0000
0000
0000
0000
,
0000
0000
0000
0000
,
0000
0000
0000
0000
,
1000
0010
1000
0001
,
0100
0001
1000
0010
,
1000
0000
0000
0100
0000
0100
0000
0000
,
1000
0000
0101
1010
,
0001
0100
0001
1000
,
0001
1000
1000
0001
,
0100
0000
0000
0010
0000
0000
1000
0000
,
0001
0000
0000
0100
0000
0000
0001
0000
,
1000
0010
0100
0001
,
1000
0010
0100
0001
,
1000
0000
0000
1001
0000
0000
0010
0000
,
0100
0000
0000
0001
0000
0001
0000
1000
,
0000
0010
0100
0010
0000
0000
1000
0000
,
0001
1000
0010
0100
,
0100
0000
0000
1001
0000
0000
0000
0000
,
1000
0010
0100
0100
,
0001
1000
0010
1000
,
0001
0000
0100
0010
0000
1000
0000
1000
,
0000
0000
0001
0000
0100
0100
0000
0001
,
1000
0000
0010
0000
1000
1000
0000
0000
,
0001
0000
0000
1000
,
0100
1000
0000
0010
0000
0100
0000
0110
,
0000
0000
0000
0000
,
0001
0000
0000
1000
0000
0100
0000
0010
,
0000
0001
0000
1000
0000
0010
0100
0000
,
0100
0000
0001
1000
0000
1000
0000
0000
,
0001
0000
1000
0010
0000
0100
0100
0000
,
0001
0000
1000
0010
0000
1000
1000
0000
,
0001
0100
0010
0100
,
0001
1000
0001
0100
,
0001
0000
1000
0100
0000
1000
1000
0000
,
0001
0000
0100
0001
0000
0010
0010
0000
,
0100
0000
1000
0100
0000
0100
1000
0000
,
0001
0001
0100
0100
,
0010
0000
1000
0001
0000
1000
1000
0000
,
0001
0000
0100
0001
0000
0010
0010
0000
,
0100
0000
1000
0100
0000
0010
0001
0000
,
1000
0100
0010
0001
,
1000
0000
0100
1000
0000
0001
0001
0000
,
1000
0000
0100
1000
0000
0100
0100
0000
,
0010
0000
0001
0100
0000
0010
1000
0000
,
0001
1000
0100
1100
,
0010
0000
0000
0001
0000
0000
0010
0000
,
0100
0000
1000
0000
0100
0000
1000
0001
,
1000
0000
0000
0100
0000
0000
1000
0000
,
0001
0010
0100
1000
,
0010
0100
0010
1000
,
0001
0100
0001
1000
0000
0000
0000
0000
;

//---------------dance-single - ----------------
#NOTES:
     dance-single:
     :
     Easy:
     5:
     0.237998,0.294664,0.113332,0.000000,0.000000,147.000000,137.000000,10.000000,0.000000,0.000000,0.000000,0.237998,0.294664,0.113332,0.000000,0.000000,147.000000,137.000000,10.000000,0.000000,0.000000,0.000000:
0000
0000
0000
0000
,
0000
0000
0000
0000
,
0000
0000
0000
0000
,
0000
0000
0000
0000
,
0010
0000
0000
0010
0000
0000
0000
0000
,
1000
0000
0000
1000
0000
0000
0000
0000
,
0001
0000
0000
0001
0000
0000
0000
0000
,
0100
0000
0100
0100
,
0010
0000
0000
1000
0000
0000
0001
0000
,
1000
0001
1000
0010
,
0100
0000
0000
0100
0000
0000
0001
0000
,
1000
0000
0000
0001
0000
0000
0001
0000
,
1000
0010
0100
0010
,
1000
1000
0010
0100
,
0001
0000
0000
0001
0000
0000
0000
0000
,
1000
0000
0000
1000
0000
0010
0000
0010
,
0000
0100
0100
0001
,
1000
0001
1000
0001
,
1000
0000
0000
0010
0000
0000
0000
0000
,
0100
0000
0000
0001
0000
1000
0000
0001
,
0000
0000
0000
0000
,
1000
0000
0010
0100
0000
0010
0000
0100
,
0000
0001
1000
0000
,
0000
0010
0100
0000
,
0001
0000
0000
0000
,
1000
0000
0000
0010
0000
0010
0000
0010
,
0000
0000
0000
0100
,
0001
1000
0001
0100
,
0010
0010
0010
0000
,
1000
0000
0000
1000
0000
1000
0000
0000
,
0001
0000
0000
0101
0000
0000
0000
0000
,
0010
0000
0000
1010
0000
0000
0000
0000
,
1000
0000
0000
0010
0000
0000
0100
0000
,
0001
0100
0010
1000
,
0001
0000
0000
0101
0000
0000
0000
0000
,
0010
0000
0000
1010
0000
0000
0000
0000
,
1000
0000
0000
0010
0000
0000
0000
0000
,
0100
0100
0010
0010
,
1000
0000
0000
1001
0000
0000
0000
0000
,
0001
0000
0000
1001
0000
0000
0000
0000
,
1000
0010
1000
0001
,
0100
0001
1000
0010
,
0100
0000
0000
0110
0000
0000
0000
0000
,
0010
0000
0000
0110
0000
0000
0000
0000
,
0001
0000
0000
1000
0000
0000
0000
0000
,
0010
1000
0010
0010
,
0100
0000
0000
0100
0000
0000
0001
0000
,
1000
0001
1000
1000
,
1000
0000
0000
0010
0000
0000
0000
0000
,
0100
0000
0000
0101
0000
0000
0000
0000
,
0010
1000
0010
1000
,
0001
0001
1000
0010
,
1010
0000
0000
0000
;

//---------------dance-single - Copied from----------------
#NOTES:
     dance-single:
     Copied from:
     Beginner:
     2:
     0.076095,0.115599,0.022666,0.000000,0.000000,47.000000,45.000000,2.000000,0.000000,0.000000,0.000000,0.076095,0.115599,0.022666,0.000000,0.000000,47.000000,45.000000,2.000000,0.000000,0.000000,0.000000:
0000
0000
0000
0000
,
0000
0000
0000
0000
,
0000
0000
0000
0000
,
0000
0000
0000
0000
,
0001
0000
0000
0000
,
1000
0000
0000
0000
,
0001
0000
0000
0000
,
1000
0000
0000
0000
,
0010
0000
0000
0000
,
0010
0000
0000
0000
,
0100
0000
0000
0000
,
0100
0000
0000
0000
,
0001
0000
0000
0000
,
0001
0000
0000
0000
,
1000
0000
0000
0000
,
1000
0000
0000
0000
,
0000
0000
0000
0010
0000
0000
0000
0000
,
0000
0000
0000
0000
0000
0000
0000
0100
,
0000
0000
0000
0010
0000
0000
0000
0000
,
0000
0000
0000
0000
,
1000
0000
0000
0000
,
0000
0000
0000
0000
,
0001
0000
1000
0000
,
0000
0000
0010
0000
,
0000
0000
0000
0000
,
0000
0000
0000
0000
0000
0000
0000
1001
,
0000
0000
0000
0000
,
0000
0000
0000
0000
0000
0000
0000
1001
,
0000
0000
0000
0000
,
0010
0000
0000
0000
,
0100
0000
0000
0000
,
0001
0000
0000
0000
,
1000
0000
0000
0000
,
0010
0000
0000
0000
,
0100
0000
0000
0000
,
0001
0000
0000
0000
,
1000
0000
0000
0000
,
0010
0000
0000
0000
,
0100
0000
0000
0000
,
0100
0000
0000
0000
,
0001
0000
0000
0000
,
0001
0000
0000
0000
,
1000
0000
0000
0000
,
1000
0000
0000
0000
,
0010
0000
0000
0000
,
0010
0000
0100
0000
,
0001
0000
0000
0000
,
1000
0000
0000
0000
,
0010
0000
0000
0000
,
1000
0000
0000
0000
,
0001
0000
0000
0000
,
0100
0000
0000
0000
;
