#TITLE:Bad Boy;
#SUBTITLE:;
#ARTIST:Riton Kah-Lo;
#TITLETRANSLIT:;
#SUBTITLETRANSLIT:;
#ARTISTTRANSLIT:;
#CREDIT:SupremeX;
#BANNER:Bad Boy-bn.png;
#BACKGROUND:Bad Boy-bg.png;
#LYRICSPATH:;
#CDTITLE:cdtitle.png;
#MUSIC:Bad Boy.ogg;
#OFFSET:-0.169;
#SAMPLESTART:54.600;
#SAMPLELENGTH:12.000;
#SELECTABLE:YES;
#BPMS:0.000=121.960;
#STOPS:;
#BGCHANGES:;

//---------------dance-single - ----------------
#NOTES:
     dance-single:
     :
     Hard:
     10:
     0.405,0.427,0.213,0.280,0.022: // measure 1
0000
0000
0000
0000
,  // measure 2
0000
0000
0000
0000
,  // measure 3
0000
0000
0000
0000
,  // measure 4
0000
0000
0000
0000
,  // measure 5
1000
0010
0001
0100
,  // measure 6
1000
0010
0001
0100
,  // measure 7
1000
0010
0001
0100
,  // measure 8
1000
0010
0001
1000
,  // measure 9
0010
0100
0001
0100
0010
0000
1000
0000
,  // measure 10
0010
0100
0001
0100
0010
0000
1000
0000
,  // measure 11
0001
0010
0100
1000
1000
0000
0001
0001
,  // measure 12
0200
2300
3020
0032
,  // measure 13
1003
0000
1000
0000
0001
0100
0001
0000
,  // measure 14
1000
1000
1000
0000
0010
0100
0010
0000
,  // measure 15
1000
0000
1000
0000
0001
0100
0001
0000
,  // measure 16
1000
1000
1000
0000
0010
0100
0010
0000
,  // measure 17
1000
0000
1000
0000
0100
1000
0100
0000
,  // measure 18
0001
0000
0001
0000
0100
0010
0100
0000
,  // measure 19
0010
0000
0010
0000
1000
0001
1000
0000
,  // measure 20
0002
0203
2300
3002
,  // measure 21
0103
0000
1010
0000
0001
0100
0001
0000
,  // measure 22
1010
0000
0101
0000
1000
0010
1000
0000
,  // measure 23
0101
1010
0101
1010
,  // measure 24
0100
0001
0100
0010
1000
0001
1000
0000
,  // measure 25
0110
1001
0110
1001
,  // measure 26
0100
1000
0100
0000
0010
0001
0010
0000
,  // measure 27
1100
0011
1100
0011
,  // measure 28
2000
3020
0032
0203
,  // measure 29
1300
0000
0000
1000
0000
0000
1000
0000
0000
1000
0000
0000
0100
0000
0000
0000
,  // measure 30
0010
0000
0001
0001
0001
0000
1000
0100
,  // measure 31
2000
0000
3100
0000
0001
0000
0100
0200
,  // measure 32
0000
0320
0000
0030
1000
0000
1000
0000
,  // measure 33
0001
0000
0000
0001
0000
0000
0001
0000
0000
0001
0000
0000
0100
0000
0100
0000
,  // measure 34
0001
1000
0010
0100
0001
1000
0100
0100
,  // measure 35
0020
0000
0030
0000
0000
0001
0001
2000
,  // measure 36
0000
3100
1000
0100
0010
0001
1000
0001
,  // measure 37
1000
0010
0001
0100
,  // measure 38
1000
0010
0001
0100
,  // measure 39
2000
3020
0032
0203
,  // measure 40
2300
3020
0032
0203
,  // measure 41
1300
0100
1000
0100
1000
0000
0110
0000
,  // measure 42
0001
0010
0001
0010
0001
0000
0110
0000
,  // measure 43
1000
0100
0010
0100
1000
0000
1010
0000
,  // measure 44
0001
0100
0010
1000
0001
1000
0010
0100
,  // measure 45
0001
1000
0001
1001
;

//---------------dance-single - ----------------
#NOTES:
     dance-single:
     :
     Medium:
     7:
     0.287,0.326,0.168,0.034,0.000:
0000
0000
0000
0000
,
0000
0000
0000
0000
,
0000
0000
0000
0000
,
0000
0000
0000
0000
,
1000
0001
1000
0001
,
1000
0010
1000
0010
,
0100
0010
0100
0010
,
0100
0001
0100
0001
,
1000
1000
1000
1000
,
0010
0010
0010
0010
,
0100
0100
0100
0100
,
0002
0000
0000
0003
,
1000
0010
1000
1000
,
0001
0100
0010
0010
,
1000
0001
0100
0100
,
0010
1000
0001
1001
,
0010
0100
0100
0100
,
0010
1000
0001
0100
,
0010
1000
0001
0100
,
1001
0000
0110
0000
,
1000
1010
0001
0001
,
0000
0100
0010
0100
,
0001
1001
1010
1010
,
0001
0000
0100
0000
0010
0010
0010
0000
,
1000
0010
0100
0100
,
0001
1000
0010
0010
,
1000
0001
1000
0001
,
2002
0000
0000
3003
,
0010
0000
0100
0000
0010
1000
0010
0000
,
0100
0100
0100
0001
,
0001
1000
1000
0010
,
0100
0001
0100
0010
,
1000
0000
1000
0000
1000
0000
0001
0100
,
0001
0000
1000
0000
0010
0000
0100
0001
,
0100
0000
0010
0000
0010
0000
1000
0001
,
1000
0010
0100
0001
,
1000
1000
1001
0010
,
0100
0010
0110
0001
,
1000
0001
0101
0010
,
1000
0010
1010
0001
,
0100
0100
0110
0010
,
0010
0010
1010
0001
,
0001
0001
0101
0010
,
0010
0000
1000
0000
0001
0000
0100
0010
,
1000
1000
1000
1000
;

//---------------dance-single - ----------------
#NOTES:
     dance-single:
     :
     Easy:
     4:
     0.203,0.251,0.179,0.045,0.000:
0000
0000
0000
0000
,
0000
0000
0000
0000
,
0000
0000
0000
0000
,
0000
0000
0000
0000
,
1000
0000
1001
0000
,
0001
0000
1001
0000
,
0100
0000
0110
0000
,
0010
0000
0110
0000
,
1000
1000
1000
0000
,
0001
0001
0001
0000
,
1000
1000
1000
0000
,
0220
0000
0000
0330
,
0001
0000
1000
0000
,
0001
1000
0001
1000
,
0010
0000
0100
0000
,
0010
0100
0010
0100
,
0001
0000
1000
0000
,
0001
1000
0001
1000
,
0010
0000
0100
0000
,
2002
0000
0000
3003
,
0010
0100
0010
0010
,
0000
1000
0000
0001
,
1000
0001
1000
0001
,
0100
0010
0100
0010
,
1000
1000
0001
0001
,
0000
1000
0001
1000
,
0010
0010
0100
0100
,
1001
0000
0110
0000
,
0001
1000
0001
1000
,
0000
0000
0000
0000
,
0110
0000
0000
0000
,
1001
0000
0000
0000
,
0001
1000
0001
1000
,
0001
1000
0010
0100
,
1001
0000
0000
0100
,
0000
0010
0000
0000
0000
0000
0000
0000
,
1000
0000
1001
0000
,
0001
0000
1001
0000
,
1000
0000
1001
0000
,
0001
0000
1001
0000
,
0010
0100
0010
0000
,
0100
0010
0100
0000
,
0010
0100
0010
0000
,
1000
0001
1000
0001
,
1000
0000
0001
1001
;

//---------------dance-single - Copied from----------------
#NOTES:
     dance-single:
     Copied from:
     Beginner:
     2:
     0.064,0.074,0.000,0.000,0.000:
0000
0000
0000
0000
,
0000
0000
0000
0000
,
0000
0000
0000
0000
,
0000
0000
0000
0000
,
0000
0000
1000
0000
,
0000
0000
1000
0000
,
0000
0000
1000
0000
,
0000
0000
1000
0000
,
0000
0000
0010
0000
,
0000
0000
0010
0000
,
0000
0000
0010
0000
,
0000
0000
0000
0000
,
1000
0000
0000
0000
,
0001
0000
0000
0000
,
1000
0000
0000
0000
,
0001
0000
0000
0000
,
0100
0000
0000
0000
,
0010
0000
0000
0000
,
0100
0000
0000
0000
,
0010
0000
0000
0000
,
1000
0000
0000
0000
,
0001
0000
0000
0000
,
1000
0000
0000
0000
,
0001
0000
0000
0000
,
1000
0000
0000
0000
,
0010
0000
0000
0000
,
1000
0000
0000
0000
,
0010
0000
0000
0000
,
0100
0000
0000
0000
,
0100
0000
0000
0000
,
0001
0000
0000
0000
,
0001
0000
0000
0000
,
0100
0000
0000
0000
,
0100
0000
0000
0000
,
0001
0000
0000
0000
,
0001
0000
0000
0000
,
1000
0000
0000
0000
,
0010
0000
0000
0000
,
1000
0000
0000
0000
,
0010
0000
0000
0000
,
0100
0000
0000
0000
,
0001
0000
0000
0000
,
0100
0000
0000
0000
,
0001
0000
0000
0000
,
1000
0000
0000
0000
;
