#TITLE:Bad;
#SUBTITLE:(feat. Jessame);
#ARTIST:Lost Kings;
#TITLETRANSLIT:;
#SUBTITLETRANSLIT:;
#ARTISTTRANSLIT:;
#GENRE:;
#CREDIT:;
#BANNER:banner.png;
#BACKGROUND:Bad (feat. Jessame)-bg.png.png;
#LYRICSPATH:;
#CDTITLE:;
#MUSIC:Bad (feat. Jessame).ogg;
#OFFSET:-1.055258;
#SAMPLESTART:37.552467;
#SAMPLELENGTH:12.000000;
#SELECTABLE:YES;
#BPMS:0.000000=110.000000
;
#STOPS:
;
#BGCHANGES:;
#KEYSOUNDS:;
#ATTACKS:;

//---------------dance-single - ----------------
#NOTES:
     dance-single:
     :
     Beginner:
     3:
     0.099051,0.109839,0.000000,0.054919,0.000000,101.000000,101.000000,0.000000,8.000000,0.000000,0.000000,0.099051,0.109839,0.000000,0.054919,0.000000,101.000000,101.000000,0.000000,8.000000,0.000000,0.000000:
0000
0000
0000
0000
,
1000
0000
1000
0000
,
0100
0000
0100
0000
,
0010
0000
0010
0000
,
0001
0000
0001
0000
,
1000
0000
1000
0000
,
0010
0000
0010
0000
,
0100
0000
0100
0000
,
0001
0000
0001
0000
,
1000
0000
1000
0000
,
0100
0000
0000
0000
,
0010
0000
0010
0000
,
0001
0000
0000
0000
,
1000
0000
1000
0000
,
0010
0000
0010
0000
,
0100
0000
0100
0000
,
0001
0000
0000
0000
,
1000
0000
1000
0000
,
0100
0000
0100
0000
,
0010
0000
0010
0000
,
0001
0000
0001
0000
,
1000
0000
1000
0000
,
0010
0000
0010
0000
,
0100
0000
0100
0000
,
0100
0000
0100
0000
,
0001
0000
0001
0000
,
0010
0000
0000
0000
,
0100
0000
0100
0000
,
1000
0000
0000
0000
,
0010
0000
0010
0000
,
0100
0000
0000
0000
,
0001
0000
0001
0000
,
1000
0000
0000
0000
,
0200
0000
0000
0300
,
0020
0000
0000
0030
,
0002
0000
0000
0003
,
2000
0000
0000
3000
,
0020
0000
0000
0030
,
0200
0000
0000
0300
,
0002
0000
0000
0003
,
2000
0000
0000
3000
,
0100
0000
0100
0000
,
0100
0000
0000
0000
,
0010
0000
0010
0000
,
0010
0000
0000
0000
,
0001
0000
0001
0000
,
0001
0000
0000
0000
,
1000
0000
1000
0000
,
1000
0000
0000
0000
,
0010
0000
0010
0000
,
0100
0000
0100
0000
,
0001
0000
0001
0000
,
1000
0000
1000
0000
,
0100
0000
0100
0000
,
0010
0000
0010
0000
,
0001
0000
0001
0000
,
1000
0000
1000
0000
,
0010
0000
0000
0000
,
0010
0000
0000
0000
,
0100
0000
0000
0000
,
0100
0000
0000
0000
,
0001
0000
0000
0000
,
0001
0000
0000
0000
,
1000
0000
0000
0000
,
1000
0000
0000
0000
;

//---------------dance-single - ----------------
#NOTES:
     dance-single:
     :
     Easy:
     6:
     0.250079,0.267732,0.288327,0.096109,0.000000,255.000000,213.000000,42.000000,14.000000,0.000000,0.000000,0.250079,0.267732,0.288327,0.096109,0.000000,255.000000,213.000000,42.000000,14.000000,0.000000,0.000000:
0000
0000
0000
0000
,
1000
1000
0100
0000
,
0010
0010
0001
0000
,
1000
1000
0010
0000
,
0100
0100
0001
0000
,
1000
1000
0001
0000
,
0010
0010
0100
0000
,
1000
1000
0010
0000
,
0100
0100
0001
0000
,
1100
0000
0010
0001
,
0000
0001
0100
0000
,
0110
0000
0010
0100
,
0000
0100
0001
0000
,
0001
0010
1000
0100
,
0001
0100
1000
0000
,
1010
0000
1000
0001
,
0000
0001
0100
0000
,
0110
0110
1001
0000
,
0001
0010
0100
1000
,
0011
0011
1100
0000
,
1000
0010
0100
0001
,
1010
1010
0101
0000
,
0001
0010
0100
1000
,
0020
0230
0301
0020
,
0230
1300
0001
1000
,
1010
0101
1001
0000
,
0001
0010
0100
1000
,
0011
1100
1001
0000
,
1000
0100
0010
0001
,
0110
1001
0110
0000
,
0001
0100
0010
1000
,
0011
0101
1010
0000
,
1000
0100
0010
0001
,
0200
0010
0000
0310
,
1000
0100
0010
0001
,
2000
0001
0000
3001
,
0100
0010
1000
0001
,
0020
0100
0000
0130
,
1000
0010
0100
0001
,
2000
0100
3100
0020
,
0001
0031
0100
0010
,
1000
1000
0100
0000
,
0010
0001
0100
0010
,
0100
0100
0001
0000
,
0010
0001
0100
0010
,
1000
1000
0001
0000
,
0010
0100
1000
0010
,
0100
0100
0001
0000
,
0010
0001
0100
0010
,
1010
1100
1001
0000
,
0001
0010
0100
1000
,
0011
0101
1001
0000
,
0001
0100
0010
0000
,
1010
0101
1001
0000
,
0001
0010
0100
1000
,
0020
0100
0130
0002
,
1000
1003
0100
0010
,
0011
1100
1001
0000
,
1000
0010
0100
0000
,
0101
0110
1010
0000
,
0010
0100
0001
0000
,
0011
0110
1100
0000
,
0001
1000
0100
0000
,
0020
0001
0031
0200
,
0010
0310
2000
0000
,
3000
0000
0000
0000
;

//---------------dance-single - ----------------
#NOTES:
     dance-single:
     :
     Medium:
     8:
     0.352073,0.379287,0.288327,0.089244,0.000000,359.000000,317.000000,42.000000,13.000000,0.000000,0.000000,0.352073,0.379287,0.288327,0.089244,0.000000,359.000000,317.000000,42.000000,13.000000,0.000000,0.000000:
0000
0000
0000
0000
,
1000
1000
0001
0001
,
1000
1000
0001
0001
,
0100
0100
0010
0010
,
0100
0100
0010
0010
,
1000
1000
0100
0100
,
0010
0010
0001
0001
,
1000
1000
0010
0010
,
0100
0100
0001
0001
,
2000
0000
3000
0001
0010
0100
2000
0000
,
3000
0001
0010
0100
1000
0000
0001
0000
,
0002
0000
0003
1000
0010
0100
0002
0000
,
0003
1000
0010
0100
0001
0000
0001
0010
,
0100
0000
0100
0000
0100
0000
1000
0010
,
0100
0100
0100
0000
,
0020
0000
0030
1000
0001
0100
0020
0000
,
0030
1000
0001
0100
0010
0000
1000
0100
,
0011
1100
1001
0000
,
0001
0000
0100
0100
0010
0000
1000
0000
,
1010
0101
1001
0000
,
1000
0000
0010
0010
0100
0000
0001
0000
,
0011
1010
1001
0000
,
1000
0000
0010
0010
0100
0000
0001
0000
,
1000
0100
1000
0100
1000
0000
0001
0010
,
0001
0010
0001
0000
0100
0000
0010
0000
,
1010
0000
1100
0000
1001
0000
0001
0010
,
0000
0010
0001
0000
0100
0000
0010
0100
,
0101
0000
0011
0000
1100
0000
1000
0010
,
0000
0010
0100
0000
0010
1000
0001
0010
,
0011
0000
1100
0000
1001
0000
1000
0010
,
0000
0010
0100
0000
0010
0000
1000
0100
,
0110
0000
0011
0000
1001
0000
0001
0100
,
0000
0100
0010
0000
0010
1000
0100
0010
,
0002
0000
0100
0000
0000
1003
0010
0100
,
0001
0010
0100
0000
1000
0000
0010
0000
,
2000
0000
0001
0000
0000
3001
0010
0100
,
1000
0100
0010
0000
0001
0000
1000
0000
,
0020
0000
0100
0000
0000
0130
0010
1000
,
0100
0010
0001
0000
0100
0000
0020
0000
,
0130
0001
0010
0100
2000
0000
3100
1000
,
0010
0100
0002
0000
1000
0000
1003
0000
,
0011
0000
0110
0000
1100
0000
0001
1000
,
0000
1000
0010
0000
0100
0000
0010
1000
,
1001
0000
0011
0000
1001
0000
0001
0100
,
0000
0100
0010
0000
1000
0000
0100
1000
,
1010
0000
1100
0000
1001
0000
0001
0010
,
0000
0010
0100
0000
0010
0000
0001
1000
,
1010
0101
1001
0001
,
1000
0100
0010
0001
1000
0001
1000
0010
,
0110
1010
0101
0001
,
1000
0100
0010
0100
1000
1000
0001
0000
,
0110
0101
0110
0010
,
1000
0100
0010
0001
1000
0000
1000
0000
,
1010
0101
1001
0001
,
1000
0100
0010
0001
0100
0000
0100
0000
,
0010
0100
0001
0010
0100
0000
0010
0100
,
1000
0010
0100
0000
0001
0000
1000
0000
,
0100
0000
0010
0001
0000
0001
1000
0000
,
0010
0100
0010
1000
,
0001
0000
0010
0100
0000
0100
0010
0000
,
0001
1000
0001
1000
,
0010
0000
0100
0001
0000
0010
0100
0000
,
1000
0001
0100
0010
,
1000
0010
0100
0001
1000
0000
1000
0010
,
0100
0001
1000
0000
0000
0100
0100
0200
,
0300
0000
0000
0000
;

//---------------dance-single - ----------------
#NOTES:
     dance-single:
     :
     Hard:
     12:
     0.518792,0.513153,0.322652,0.219678,0.284894,529.000000,482.000000,47.000000,32.000000,0.000000,0.000000,0.518792,0.513153,0.322652,0.219678,0.284894,529.000000,482.000000,47.000000,32.000000,0.000000,0.000000:
// measure 0
0000
0000
0000
0000
,  // measure 1
1000
0000
0000
0100
0010
0000
0100
0000
1000
0000
1000
0000
0001
0000
0001
0000
,  // measure 2
1000
0000
0000
0010
0100
0000
0010
0000
1000
0000
1000
0000
0001
0000
0001
0000
,  // measure 3
1000
0000
0000
0010
0100
0000
0010
0000
0001
0000
0010
0000
0100
0000
0010
0000
,  // measure 4
1000
0000
0000
0100
0010
0000
0100
0000
0001
0100
0001
0100
0010
0000
0010
0000
,  // measure 5
0001
0000
0000
0100
0010
0000
0100
0000
0001
0000
0001
0000
1000
0000
1000
0000
,  // measure 6
0001
0000
0000
0010
0100
0000
0010
0000
0001
0000
0001
0000
1000
0000
1000
0000
,  // measure 7
0001
0000
0000
0100
0010
0000
0100
0000
1000
0000
0100
0000
0010
0000
0100
0000
,  // measure 8
0001
0000
0000
0010
1000
0000
0010
0000
0100
0010
0100
0010
0001
0000
0000
0000
,  // measure 9
0101
0000
0000
0000
1010
0000
1000
0100
0001
0000
0100
0000
2000
0000
0001
0000
,  // measure 10
3001
0000
0100
1000
0100
0000
0001
0000
2000
0000
0001
0000
3002
0000
1003
0000
,  // measure 11
1010
0000
0000
0000
0101
0000
0001
0010
1000
0000
0010
0000
0002
0000
1000
0000
,  // measure 12
1003
0000
0010
0001
0020
0000
1000
0000
1030
0000
0000
0000
0001
0000
0001
0000
,  // measure 13
1000
0100
0001
1000
0020
0001
0031
1000
,  // measure 14
0010
0001
1000
0200
0001
0301
1000
0000
,  // measure 15
0011
0000
0000
0000
1100
0000
1000
0100
0001
0000
0100
0000
2000
0000
0001
0000
,  // measure 16
3001
0000
0100
1000
0200
0000
0001
0000
0301
0010
0001
0010
0100
0000
0100
0000
,  // measure 17
1001
0000
0000
0000
1001
0000
0000
0001
0100
0001
0100
0000
0010
0000
0010
0000
,  // measure 18
1000
0000
0001
0010
1000
0000
0010
0000
0002
0000
1003
0000
0002
0000
1003
0000
,  // measure 19
0110
0000
0000
0000
0110
0000
0000
1000
0010
1000
0010
0000
0100
0000
0100
0000
,  // measure 20
0001
0000
1000
0100
0001
0000
0100
0000
1000
0000
0000
0000
0001
0000
1000
0000
,  // measure 21
1010
0000
0000
0000
0101
0000
0000
1000
0100
1000
0100
0000
0010
0000
0010
0000
,  // measure 22
0001
0000
0100
1000
0100
0000
0001
0000
2000
0000
3001
0000
2000
0000
3001
0000
,  // measure 23
1000
0010
0001
2000
0100
3100
0001
0010
,  // measure 24
1000
0000
0002
0000
0100
0000
0103
0000
1000
0001
1000
0001
0100
0000
0010
1000
,  // measure 25
0010
0000
0000
0000
0010
0000
0000
0100
0001
0100
0000
0000
0010
0000
1000
0000
,  // measure 26
0000
0100
0000
0000
0010
0000
0001
1000
0001
1000
0000
0000
0001
0000
0100
0010
,  // measure 27
0100
0000
0000
0000
0100
0000
0000
0001
1000
0001
0000
0000
0010
0000
0100
0000
,  // measure 28
0000
1000
0000
0000
0010
0000
0010
0100
0001
1000
0000
0000
1000
0000
0001
1000
,  // measure 29
0001
0000
0000
0000
0001
0000
0000
0010
0100
0010
0000
0000
0100
0000
1000
0000
,  // measure 30
0000
0010
0000
0000
0100
0000
0100
0001
0010
0001
0000
0000
0010
0000
0010
0100
,  // measure 31
1000
0000
0000
0000
1000
0000
0000
0010
0100
0010
0000
0000
0100
0000
0001
0000
,  // measure 32
0010
0000
0010
0000
0100
0000
0100
0000
1000
0001
1000
0001
0100
0000
0100
0000
,  // measure 33
0020
0000
0001
0000
0000
1030
0100
0001
,  // measure 34
0200
0000
0010
0000
0000
0301
0100
1000
,  // measure 35
0002
0000
0100
0000
0000
1003
0010
0100
,  // measure 36
0020
0000
0001
0000
0000
0130
0001
0010
,  // measure 37
0200
0000
0001
0000
0000
1300
0010
0100
,  // measure 38
0002
0000
0010
0000
0000
0103
0001
1000
,  // measure 39
0100
1000
0010
0200
0001
0301
0100
0001
,  // measure 40
0010
0000
0200
0000
1000
0000
1300
0000
0010
0000
0100
0000
0010
0000
1000
0100
,  // measure 41
1000
0000
0000
0000
1000
0000
0000
0100
0010
0001
0000
0000
0110
0000
0000
0000
,  // measure 42
0001
0000
0000
0000
0110
0000
0000
0000
0001
0000
0000
0000
0110
0000
0001
0100
,  // measure 43
0001
0000
0000
0000
0001
0000
0000
0100
0010
1000
0000
0000
0110
0000
0000
0000
,  // measure 44
1000
0000
0000
0000
0110
0000
0000
0000
1000
0000
0000
0000
1100
0000
0001
1000
,  // measure 45
0100
0000
0000
0000
0100
0000
0000
1000
0010
0100
0000
0000
0101
0000
0000
0000
,  // measure 46
0010
0000
0000
0000
0101
0000
0000
0000
0010
0000
0000
0000
0101
0000
0001
1000
,  // measure 47
0001
0000
0000
0000
0001
0000
0000
1000
0010
0100
0000
0000
1001
0000
0000
0000
,  // measure 48
0010
0000
0000
0000
1001
0000
0000
0000
0001
1000
0100
1000
0100
0000
0100
0000
,  // measure 49
0011
0000
0000
0000
0011
0000
0000
0001
0010
0100
1000
0000
0010
0000
0100
0000
,  // measure 50
1000
0000
0100
0001
0100
0000
0010
0000
2000
0000
3001
0000
2000
0000
3001
0000
,  // measure 51
1100
0000
0000
0000
1100
0000
0000
0001
0100
0010
1000
0000
0001
0000
0001
0000
,  // measure 52
1000
0000
0100
0001
0100
0000
0010
0000
0001
0000
0000
0000
1000
0000
0001
0000
,  // measure 53
0110
0000
0000
0000
0110
0000
0000
0001
0100
0010
1000
0000
0100
0000
0100
0000
,  // measure 54
0010
0000
0100
1000
0010
0000
0100
0000
0002
0000
1003
0000
0002
0000
1003
0000
,  // measure 55
0100
0001
0100
0020
0001
0031
0100
1000
,  // measure 56
0100
0020
1000
1030
0100
0010
0001
0001
,  // measure 57
0110
0000
0000
1100
0000
0000
0110
0000
0000
0000
0001
0000
0100
0000
0010
0000
,  // measure 58
1010
0000
0000
1001
0000
0000
1010
0000
0000
0000
1000
0000
0100
0000
0010
0000
,  // measure 59
0110
0000
0000
1100
0000
0000
0110
0000
0000
0000
0010
0000
0001
0000
0100
0000
,  // measure 60
0110
0000
0000
0101
0000
0000
0110
0000
0000
0000
0010
0000
1000
0000
0000
0000
,  // measure 61
1010
0000
0000
0101
0000
0000
1001
0000
0000
0000
0001
0000
0010
0000
0100
0000
,  // measure 62
1100
0000
0000
0011
0000
0000
1001
0000
0000
0000
0001
0000
0100
0000
0010
0000
,  // measure 63
1000
0100
0001
0200
1000
1300
0001
0100
,  // measure 64
1000
0200
0001
0301
0010
0100
0100
0020
,  // measure 65
0030
0000
0000
0000
;
