#VERSION:0.83;
#TITLE:Backyard Stars;
#SUBTITLE:;
#ARTIST:TAKU INOUE;
#TITLETRANSLIT:;
#SUBTITLETRANSLIT:;
#ARTISTTRANSLIT:;
#GENRE:;
#ORIGIN:;
#CREDIT:;
#BANNER:Backyard Stars.png;
#BACKGROUND:Backyard Stars-bg.png;
#PREVIEWVID:;
#JACKET:Backyard Stars-jacket.png;
#CDIMAGE:;
#DISCIMAGE:;
#LYRICSPATH:;
#CDTITLE:;
#MUSIC:Backyard Stars.ogg;
#OFFSET:-0.132705;
#SAMPLESTART:28.532591;
#SAMPLELENGTH:10.971426;
#SELECTABLE:YES;
#BPMS:0.000=175.000;
#STOPS:;
#DELAYS:;
#WARPS:;
#TIMESIGNATURES:0.000=4=4;
#TICKCOUNTS:0.000=4;
#COMBOS:0.000=1;
#SPEEDS:0.000=1.000=0.000=0;
#SCROLLS:0.000=1.000;
#FAKES:;
#LABELS:0.000=Song Start;
#BGCHANGES:1.000=Backyard Stars.avi=1.000=0=0=1=StretchNormal====,
99999=-nosongbg-=1.000=0=0=0 // don't automatically add -songbackground-
;
#KEYSOUNDS:;
#ATTACKS:
;

//---------------dance-single - ----------------
#NOTEDATA:;
#CHARTNAME:;
#STEPSTYPE:dance-single;
#DESCRIPTION:;
#CHARTSTYLE:;
#DIFFICULTY:Challenge;
#METER:18;
#RADARVALUES:0.722984,1.231927,0.183124,0.158153,1.315165,608.000000,586.000000,22.000000,19.000000,0.000000,0.000000,0.000000,0.000000,0.000000,0.722984,1.231927,0.183124,0.158153,1.315165,608.000000,586.000000,22.000000,19.000000,0.000000,0.000000,0.000000,0.000000,0.000000;
#CREDIT:Daniel Van Eden;
#NOTES:
// measure 0
0000
0000
0000
0000
,  // measure 1
0000
0000
0000
0000
,  // measure 2
0000
0000
0000
0000
,  // measure 3
0000
0000
0000
0000
,  // measure 4
0000
0000
0000
0000
,  // measure 5
0000
0000
0000
0000
,  // measure 6
0000
0000
0000
0000
,  // measure 7
0000
0000
0000
0000
,  // measure 8
0000
0000
0000
0000
,  // measure 9
0000
0000
0000
0000
,  // measure 10
0000
0000
0000
0000
,  // measure 11
0000
0000
0000
0000
,  // measure 12
0010
0000
0000
0010
0000
0000
0010
0000
0000
0000
0000
0000
1001
0000
0000
0001
,  // measure 13
1000
0000
0100
0000
0000
0100
1000
0000
0010
0000
0100
0001
0100
0000
0001
0010
,  // measure 14
0100
0000
0000
0100
1000
0000
0001
0000
0000
0001
0010
0000
0100
0000
0000
0010
,  // measure 15
0100
0000
1000
0000
0000
0001
1000
0000
0010
0000
0000
0010
0100
0000
0001
0000
,  // measure 16
2000
0000
0000
0000
,  // measure 17
3001
0010
0001
0100
0010
1000
0001
0100
0001
1000
0100
0010
,  // measure 18
0001
0010
0100
1000
0001
0100
0001
1000
0100
1000
0010
0001
,  // measure 19
0010
1000
0001
0010
0100
1000
0001
0000
0000
0000
0000
0000
,  // measure 20
2000
0000
0000
0010
0000
0000
3010
0000
0110
0000
0000
0000
0001
0100
0010
1000
,  // measure 21
0100
0000
0000
0000
0010
0000
0000
0000
0100
0000
0000
0000
1000
0000
0000
0100
0000
0000
0010
0000
0000
0001
0000
0000
0100
0000
0000
0000
0000
0000
0001
0000
0000
0010
0000
0000
0100
0000
0000
0000
1000
0000
0000
0000
0100
0000
0000
0000
,  // measure 22
0010
0000
0000
0001
0000
0000
1000
0000
0000
0010
0000
0000
0100
0000
0000
0000
0001
0000
0000
0000
0100
0000
0000
0000
0010
0000
0000
0000
1000
0000
0000
0000
0010
0000
0000
0000
0100
0000
0000
0001
0000
0000
1000
0000
0000
0100
0000
0000
,  // measure 23
0010
0000
0000
0000
0001
0000
0000
0000
0010
0000
0000
0000
0100
0000
0000
0000
1000
0000
0000
0000
0100
0000
0000
0000
0010
0000
0000
0000
0000
0000
0001
0000
0000
1000
0000
0000
0001
0000
0000
0000
0100
0000
0000
0000
0010
0000
0000
0000
,  // measure 24
1000
0000
0000
0000
0001
0000
0000
0000
0010
0000
0000
0000
0001
0000
0000
0000
1000
0000
0000
0000
0100
0000
0000
0000
0010
0000
0000
0001
0000
0000
0100
0000
0000
0010
0000
0000
1000
0000
0000
0100
0000
0000
0010
0000
0000
0001
0000
0000
,  // measure 25
1000
0000
0000
0000
0100
0000
0000
0000
1000
0000
0000
0000
0001
0000
0000
0100
0000
0000
0010
0000
0000
1000
0000
0000
0010
0000
0000
0000
0000
0000
0100
0000
0000
0001
0000
0000
1000
0000
0000
0000
0100
0000
0000
0000
0010
0000
0000
0000
,  // measure 26
0001
0100
1000
0100
0001
1000
0010
1000
0001
1000
0100
0001
,  // measure 27
0100
0000
0000
0000
1000
0000
0000
0000
0100
0000
0000
0000
0010
0000
0000
0000
0001
0000
0000
0000
0100
0000
0000
0000
0010
0000
0000
0000
0000
0000
0000
0000
0000
1010
0000
0000
0000
0000
0000
0000
0000
0000
1001
0000
0000
0000
0000
0000
,  // measure 28
0002
0000
0000
0100
0000
0000
0103
0000
0110
0000
0000
0000
1000
0010
0100
0001
,  // measure 29
0010
0000
0000
0000
0100
0000
0000
0000
0010
0000
0000
0000
0001
0000
0000
0010
0000
0000
0100
0000
0000
1000
0000
0000
0100
0000
0000
0000
0000
0000
0010
0000
0000
0001
0000
0000
1000
0000
0000
0000
0010
0000
0000
0000
0100
0000
0000
0000
,  // measure 30
0010
0000
0000
1000
0000
0000
0001
0000
0000
0010
0000
0000
0100
0000
0000
0000
1000
0000
0000
0000
0001
0000
0000
0000
0010
0000
0000
0000
0001
0000
0000
0000
1000
0000
0000
0000
0100
0000
0000
1000
0000
0000
0010
0000
0000
0100
0000
0000
,  // measure 31
0001
0000
0000
0000
1000
0000
0000
0000
0010
0000
0000
0000
0100
0000
0000
0000
0001
0000
0000
0000
0010
0000
0000
0000
0100
0000
0000
0000
0000
0000
0000
0000
0000
1000
0000
0000
0100
0000
0000
1000
0000
0000
0001
0000
0000
0000
0000
0000
,  // measure 32
0102
0000
0000
0000
1003
0000
0000
0000
2100
0000
0000
0000
3100
0010
0001
1000
,  // measure 33
0100
0000
0000
0000
0010
0000
0000
0000
0100
0000
0000
0000
1000
0000
0000
0001
0000
0000
0100
0000
0000
0010
0000
0000
1000
0000
0000
0000
0000
0000
0001
0000
0000
1000
0000
0000
0001
0000
0000
0000
0010
0000
0000
0000
0100
0000
0000
0000
,  // measure 34
1000
0100
0001
1000
0010
0001
0200
0000
0000
0301
0100
1000
,  // measure 35
0001
0010
1000
0001
0010
1000
0010
0001
0100
0010
1000
0100
,  // measure 36
0020
0000
0000
0000
,  // measure 37
0000
0000
0000
0000
,  // measure 38
0030
0000
0000
0000
,  // measure 39
0000
0000
0000
0000
,  // measure 40
0001
0010
0100
1000
0000
0000
0000
0000
0010
1000
0001
0100
,  // measure 41
0000
0000
0001
0100
0010
1000
0000
0000
0100
1000
0001
0010
,  // measure 42
0000
0000
0001
0010
0100
1000
0000
0000
0001
0100
0010
1000
,  // measure 43
0000
0000
0010
1000
0001
0100
0001
0000
0100
0010
0100
0001
,  // measure 44
1000
0100
0010
0001
0000
0000
0000
0000
0010
0001
1000
0100
,  // measure 45
0000
0000
1000
0010
0100
0001
0000
0000
0100
0001
1000
0010
,  // measure 46
0000
0000
1000
0100
0010
0001
0000
0000
0100
0001
0010
1000
,  // measure 47
0010
0001
0100
0010
1000
0001
0000
1000
0001
0100
0010
1000
,  // measure 48
0100
0000
0000
0100
0000
0000
0100
0000
0000
0000
0000
0000
0110
0000
0000
0010
,  // measure 49
0001
0000
1000
0000
0000
1000
0010
0000
0100
0000
0001
0100
0001
0000
0100
0010
,  // measure 50
1000
0000
0000
1000
0001
0000
0010
0000
0000
0010
0001
0000
1000
0000
0000
1000
,  // measure 51
0100
0000
0010
0000
0000
0100
0010
0000
0001
0000
0000
1000
0001
0000
0010
0000
,  // measure 52
0220
0000
0000
0000
0300
0000
0000
0000
0032
0000
0000
0000
1003
0010
1000
0010
,  // measure 53
1000
0000
0000
0100
0000
0000
0010
0000
0000
0001
0000
0000
1000
0000
0000
0000
0010
0000
0000
0000
0100
0000
0000
0000
0010
0000
0000
0000
1000
0000
0000
0000
0001
0000
0000
0000
0100
0000
0000
0000
0010
0000
0000
0000
0100
0000
0000
0000
,  // measure 54
0001
0010
0100
1000
0010
1000
0001
0100
0001
1000
0010
0001
,  // measure 55
0010
1000
0100
0010
0001
0010
0100
0000
0000
0000
0000
0000
,  // measure 56
2000
0000
0000
0000
0000
0000
3001
0000
0000
0001
1000
0010
,  // measure 57
0010
0001
0100
0100
1000
0010
0100
0001
0010
0100
0001
0100
,  // measure 58
1000
0000
0000
0000
0010
0000
0000
0000
0100
0000
0000
0000
1000
0000
0000
0000
0100
0000
0000
0000
0001
0000
0000
0000
0010
0000
0000
0000
0000
0000
0000
0000
0000
0000
0000
0000
0100
0000
0000
1000
0000
0000
0010
0000
0000
0100
0000
0000
,  // measure 59
0001
0000
0000
0000
1000
0000
0000
0000
0001
0000
0000
0000
0010
0000
0000
0001
0000
0000
0100
0000
0000
0010
0000
0000
1000
0000
0000
0000
0000
0000
0010
0000
0000
0100
0000
0000
0001
0000
0000
0000
1000
0000
0000
0000
0100
0000
0000
0000
,  // measure 60
1000
0000
0000
0000
0001
0000
0000
0000
0100
0000
0000
0000
0010
0000
0000
0000
1000
0000
0000
0000
0100
0000
0000
0000
0010
0000
0000
0001
0000
0000
0010
0000
0000
0100
0000
0000
1000
0000
0000
0001
0000
0000
1000
0000
0000
0010
0000
0000
,  // measure 61
0100
0000
0000
0000
0001
0000
0000
0000
0100
0000
0000
0000
0010
0000
0000
1000
0000
0000
0010
0000
0000
0100
0000
0000
0001
0000
0000
1000
0000
0000
0001
0000
0000
0010
0000
0000
0100
0000
0000
0000
1000
0000
0000
0000
0100
0000
0000
0000
,  // measure 62
0010
0001
0100
1000
0100
0001
1000
0010
0100
0010
1000
0100
,  // measure 63
0001
0000
0000
0000
0100
0000
0000
0000
1000
0000
0000
0000
0100
0000
0000
0000
0010
0000
0000
0000
0001
0000
0000
0000
1000
0000
0000
0000
0000
0000
0000
0000
0000
0011
0000
0000
0000
0000
0000
0000
0000
0000
1100
0000
0000
0000
0000
0000
,  // measure 64
0001
0000
0000
1010
0000
0000
0101
0000
2001
0000
0000
0000
3001
0100
0010
1000
,  // measure 65
0001
0000
0000
0000
0100
0000
0000
0000
0001
0000
0000
0000
1000
0000
0000
0100
0000
0000
0010
0000
0000
0001
0000
0000
0100
0000
0000
0000
0000
0000
0001
0000
0000
1000
0000
0000
0010
0000
0000
0000
0100
0000
0000
0000
0001
0000
0000
0000
,  // measure 66
1000
0000
0000
0010
0000
0000
0100
0000
0000
0010
0000
0000
1000
0000
0000
0001
0000
0000
0010
0000
0000
0100
0000
0000
0010
0000
0100
0000
1000
0000
0100
0000
0010
0000
0001
0000
1000
0000
0000
0010
0000
0000
1000
0000
0100
0000
0010
0000
,  // measure 67
0100
0000
0010
0000
0001
0000
1000
0000
0000
0100
0000
0000
0010
0000
0100
0000
0010
0000
0001
0000
1000
0000
0100
0000
0010
0000
0000
0000
0000
0000
0000
0000
0000
1100
0000
0000
0000
0000
0000
0000
0000
0000
1010
0000
0000
0000
0000
0000
,  // measure 68
0011
0000
0000
0000
0000
0000
0000
0000
0000
0110
0000
0000
0000
0000
0000
0000
0000
0000
1100
0000
0000
0000
0000
0000
0101
0000
0000
0000
0000
0000
0000
0000
0000
0000
0000
0000
1001
0000
0000
0000
0000
0000
1000
0000
0010
0000
1000
0000
,  // measure 69
0010
0000
0000
0100
0001
0100
0001
0000
0000
1000
0100
1000
0100
0000
0000
0010
0001
0010
0001
0000
0000
0100
0010
1000
,  // measure 70
0001
0100
1000
0001
0010
1000
0200
0000
0000
1300
0010
0001
,  // measure 71
1000
0100
0001
1000
0100
0001
0100
1000
0010
0100
0001
0010
,  // measure 72
0200
0000
0010
0000
,  // measure 73
0000
0000
0010
0000
,  // measure 74
0000
0000
0010
0000
,  // measure 75
0000
0000
0020
0000
,  // measure 76
0300
0000
0100
0000
,  // measure 77
0000
0000
0130
0000
,  // measure 78
2000
0000
3200
0000
,  // measure 79
0320
0000
0032
0003
,  // measure 80
1001
0000
0000
0000
;

//---------------dance-single - ----------------
#NOTEDATA:;
#CHARTNAME:;
#STEPSTYPE:dance-single;
#DESCRIPTION:;
#CHARTSTYLE:;
#DIFFICULTY:Hard;
#METER:16;
#RADARVALUES:0.598127,0.910211,0.116534,0.266363,0.878164,503.000000,489.000000,14.000000,32.000000,0.000000,0.000000,0.000000,0.000000,0.000000,0.598127,0.910211,0.116534,0.266363,0.878164,503.000000,489.000000,14.000000,32.000000,0.000000,0.000000,0.000000,0.000000,0.000000;
#CREDIT:Daniel Van Eden;
#NOTES:
0000
0000
0000
0000
,
0000
0000
0000
0000
,
0000
0000
0000
0000
,
0000
0000
0000
0000
,
0000
0000
0000
0000
,
0000
0000
0000
0000
,
0000
0000
0000
0000
,
0000
0000
0000
0000
,
0000
0000
0000
0000
,
0000
0000
0000
0000
,
0000
0000
0000
0000
,
0000
0000
0000
0000
,
1000
0000
0000
1000
0000
0000
1000
0000
0000
0000
0000
0000
0101
0000
0000
0001
,
1000
0000
0000
0000
0010
0000
0000
0010
1000
0000
0000
0001
0010
0000
0000
0100
,
1000
0000
0000
1000
0001
0000
0100
0000
0000
0100
0001
0000
0010
0000
0000
0010
,
0100
0000
1000
0000
0000
1000
0100
0000
0010
0000
0001
1000
0001
0000
0100
0000
,
0020
0000
0000
0000
,
0000
0000
0000
1030
0100
1000
0100
0010
0100
0010
0001
1000
,
0001
0100
0010
0100
0010
1000
0001
1000
0100
0010
0001
1000
,
0001
0010
0100
1000
0010
0100
0002
0000
0000
0000
0000
0000
,
0013
0000
0000
0010
0000
0000
0010
0000
0100
0000
0000
0000
1010
0000
1000
0010
,
1000
0000
0000
0000
0000
0000
0010
0000
0000
0000
0000
0000
0100
0000
0000
0000
0000
0000
0001
0000
0000
0010
0000
0000
0001
0000
0000
0000
0000
0000
0010
0000
0000
0000
0000
0000
0100
0000
0000
0000
0010
0000
0000
0000
0001
0000
0000
0000
,
1000
0001
1000
0000
0010
0000
0001
0000
0010
0000
1000
0000
0100
0000
0010
0001
,
1000
0000
0000
0000
0000
0000
0010
0000
0000
0000
0000
0000
0100
0000
0000
0000
0001
0000
0000
0000
1000
0000
0000
0000
0100
0000
0000
0000
0000
0000
0010
0000
0000
0100
0000
0000
0010
0000
0000
0000
0000
0000
0001
0000
0000
0000
0000
0000
,
1000
0000
0010
0000
1000
0000
0001
0000
0100
0000
0001
0000
0010
0000
0000
1000
0000
0000
0010
0000
0000
0001
0000
0000
,
0100
0000
0010
0000
1000
0100
1000
0000
0010
0000
0100
0001
0100
0000
0010
0000
,
1000
0100
1000
0100
0010
0001
0010
0100
1000
0010
0100
0001
,
0100
0000
0000
0000
0001
0000
0000
0000
1000
0000
0000
0000
0010
0000
0000
0000
0100
0000
0000
0000
0010
0000
0000
0000
1000
0000
0000
0000
0000
0000
0000
0000
0000
0001
0000
0000
0000
0000
0000
0000
0000
0000
1000
0000
0000
0000
0000
0000
,
0010
0000
0000
0010
0000
0000
0010
0000
1000
0000
0000
0000
1100
0000
0010
0001
,
0010
0000
0000
0000
0000
0000
0001
0000
0000
0000
0000
0000
0100
0000
0000
0000
0000
0000
0010
0000
0000
1000
0000
0000
0010
0000
0000
0000
0000
0000
1000
0000
0000
0000
0000
0000
0001
0000
0000
0000
0100
0000
0000
0000
0010
0000
0000
0000
,
1000
0001
1000
0000
0001
0000
1000
0000
0100
0000
0001
0000
0100
0000
1000
0000
,
0010
0000
0000
0000
1000
0000
0000
0000
0100
0000
0000
0000
0010
0000
0000
0000
0001
0000
0000
0000
0010
0000
0000
0000
0100
0000
0000
0000
0000
0000
0000
0000
0000
0010
0000
0000
0000
0000
0000
0010
0000
0000
0001
0000
0000
0000
0000
0000
,
0101
0000
0000
0000
2100
0000
0000
0000
3020
0000
0000
0000
1030
0001
0100
0000
,
0010
0000
0000
0000
0000
0000
0100
0000
0000
0000
0000
0000
0001
0000
0000
1000
0000
0000
0100
0000
0000
0000
0000
0000
0010
0000
0000
0000
0000
0000
0001
0000
0000
1000
0000
0000
0001
0000
0000
0000
0010
0000
0000
0000
0100
0000
0000
0000
,
1000
0100
0010
0100
0010
0001
0200
0000
0000
0301
0010
0100
,
0010
0100
1000
0010
0100
0001
1000
0010
0100
0001
0010
0100
,
2000
0000
0000
0000
,
0000
0000
0000
0000
,
3000
0000
0000
0000
,
0000
0000
0000
0000
,
1000
0100
0010
0002
0000
0003
0000
0000
0001
2000
0000
3000
,
0000
0000
1000
0002
0000
0003
0000
0000
0001
0200
0000
0300
,
0000
0000
0100
2000
0000
3000
0000
0000
1000
0200
0000
0300
,
0000
0000
0100
0002
0000
0003
0000
0000
0001
0010
0000
0100
,
1000
0100
0010
0001
0000
0000
0000
0000
0001
1000
0000
0000
,
0000
0000
1000
0010
0000
0000
0000
0000
0010
0001
0000
0000
,
0000
0000
0001
0010
0000
0000
0000
0000
0010
1000
0000
0001
,
0010
0100
1000
0100
0010
0001
2000
0000
0000
0000
0000
0000
,
3001
0000
0000
0001
0000
0000
0001
0000
0000
0000
0000
0000
1010
0000
0000
1000
,
0001
0000
0000
0000
0100
0000
0000
0100
0001
0000
0000
1000
0100
0000
0000
0010
,
0001
0000
0000
0001
1000
0000
0010
0000
0000
0010
1000
0000
0100
0000
0000
0100
,
0010
0000
0001
0000
0000
0001
0010
0000
0100
0000
1000
0001
1000
0000
0010
0000
,
0200
0000
0000
0000
,
0000
0000
0000
0301
1000
0001
1000
0001
0010
0001
0010
0100
,
1000
0100
1000
0010
1000
0010
0100
0001
0100
0010
1000
0001
,
0010
0100
1000
0100
0010
0001
1000
0000
0000
0000
0000
0000
,
0012
0000
0000
0000
0000
0000
1003
0000
0000
0010
1000
0001
,
0010
0001
1000
0100
0010
0001
1000
0001
0100
0001
1000
0100
,
0010
0000
0000
0000
0100
0000
0000
0000
1000
0000
0000
0000
0001
0000
0000
0000
0010
0000
0000
0000
0100
0000
0000
0000
1000
0000
0000
0000
0000
0000
0000
0000
0000
0000
0000
0000
0001
0000
0000
1000
0000
0000
0001
0000
0000
1000
0000
0000
,
0001
0000
0010
0000
0001
0000
1000
0100
0010
0000
0001
0010
0100
0000
1000
0000
,
0010
0000
0100
0000
0010
0000
1000
0000
0100
0000
0010
0000
0001
0000
0000
0010
0000
0000
0001
0000
0000
1000
0000
0000
,
0010
0000
1000
0000
0001
0010
0100
1000
0001
1000
0100
0010
0001
0000
1000
0000
,
0010
1000
0100
0010
0100
1000
0001
0100
0001
0010
0001
0100
,
0010
0000
0000
0000
0100
0000
0000
0000
0001
0000
0000
0000
1000
0000
0000
0000
0100
0000
0000
0000
0010
0000
0000
0000
0100
0000
0000
0000
0000
0000
0000
0000
0000
1000
0000
0000
0000
0000
0000
0000
0000
0000
0001
0000
0000
0000
0000
0000
,
1000
0000
0000
0000
0000
0000
0000
0000
0000
0010
0000
0000
0000
0000
0000
0000
0000
0000
1000
0000
0000
0000
0000
0000
0002
0000
0000
0000
0000
0000
0000
0000
0000
0000
0000
0000
0013
0000
0000
0000
0100
0000
0000
0000
1000
0000
0000
0000
,
0001
0000
0000
0000
0010
0000
0000
0000
0100
0000
0000
0000
0010
0000
0000
0000
0000
0000
0001
0000
0000
1000
0000
0000
0001
0000
0000
0000
0000
0000
1000
0000
0000
0010
0000
0000
1000
0000
0000
0000
0000
0000
0001
0000
0000
0000
0000
0000
,
0100
0000
0001
0000
1000
0000
0010
0000
1000
0100
1000
0001
0010
0000
0001
0100
,
0001
1000
0010
0000
1000
0100
0010
0001
1000
0000
0000
0101
0000
0000
1100
0000
,
0110
0000
0000
1100
0000
0000
1010
0000
0201
0000
0000
0000
0310
0000
1000
0001
,
0100
0000
0010
1000
0100
0000
0010
0001
1000
0000
0001
1000
0100
0000
0010
0001
,
1000
0100
0010
0100
0010
0001
2000
0000
0000
3001
0010
0100
,
0010
0100
1000
0010
0100
0001
0100
0010
1000
0100
0010
0001
,
2000
0000
0010
0000
,
3002
0000
0023
0000
,
0230
0000
1000
0000
,
0320
0000
0032
0000
,
2003
0000
0001
0000
,
3020
0000
0230
0000
,
0302
0000
0010
0000
,
2003
0000
3010
0000
,
2002
0000
0000
0000
,
3003
0000
0000
0000
;

//---------------dance-single - ----------------
#NOTEDATA:;
#CHARTNAME:;
#STEPSTYPE:dance-single;
#DESCRIPTION:;
#CHARTSTYLE:;
#DIFFICULTY:Medium;
#METER:12;
#RADARVALUES:0.425704,0.640519,0.074914,0.099886,0.170639,358.000000,349.000000,9.000000,12.000000,0.000000,0.000000,0.000000,0.000000,0.000000,0.425704,0.640519,0.074914,0.099886,0.170639,358.000000,349.000000,9.000000,12.000000,0.000000,0.000000,0.000000,0.000000,0.000000;
#CREDIT:Daniel Van Eden;
#NOTES:
0000
0000
0000
0000
,
0000
0000
0000
0000
,
0000
0000
0000
0000
,
0000
0000
0000
0000
,
0000
0000
0000
0000
,
0000
0000
0000
0000
,
0000
0000
0000
0000
,
0000
0000
0000
0000
,
0000
0000
0000
0000
,
0000
0000
0000
0000
,
0000
0000
0000
0000
,
0000
0000
0000
0000
,
1000
0000
0000
0001
0000
0000
1000
0000
0000
0000
0000
0000
0101
0000
0000
0000
,
0000
0001
0000
0000
0010
0000
0000
0010
,
0100
0000
0000
0100
0000
0000
1000
0000
,
0000
1000
0000
0000
0010
0000
1000
0010
,
0200
0000
0000
0001
0000
0000
0301
0000
,
0001
0010
0001
1000
0001
1000
0001
1000
,
0010
1000
0010
0100
0001
1000
0100
0001
,
0100
1000
0010
0100
0002
0000
0000
0000
,
0013
0000
0000
0010
0000
0000
0010
0000
0100
0000
0000
0000
1000
0000
0100
0000
,
0010
0001
1000
0010
0100
0010
1000
0001
,
0100
0001
1000
0010
0001
0010
1000
0001
,
0010
0100
0010
0001
1000
0010
1000
0100
,
0010
0001
1000
0100
0001
0100
1000
0010
,
0100
0001
0010
0100
0010
0001
1000
0001
,
0100
0010
1000
0100
0001
0100
1000
0010
,
1000
0000
0001
0000
0100
0000
0001
0000
0010
0000
0000
0100
0000
0000
1000
0000
,
0001
0000
0000
0001
0000
0000
0001
0000
1000
0000
0000
0000
0001
0000
0100
0000
,
0010
1000
0001
0010
0100
0010
0001
1000
,
0100
1000
0001
0010
1000
0010
0001
1000
,
0010
0000
0100
0000
0010
0000
1000
0000
0001
0000
0000
0100
0000
0000
0001
0000
,
0010
0000
0110
0000
1001
0000
1000
0010
,
0100
0010
0001
1000
0100
0001
0010
0100
,
1000
0000
1000
0001
0000
0001
0100
0000
0000
0001
0000
0001
,
1000
0000
1000
0100
0000
0010
0100
0000
0010
0001
0000
1000
,
0002
0000
0000
0000
,
0000
0000
0000
0000
,
0003
0000
0000
0000
,
0000
0000
0000
0000
,
2000
0010
0000
0001
,
0000
0001
0000
0100
,
0000
0100
0000
3010
,
0000
0010
0000
0100
,
0002
0010
0000
1000
,
0000
1000
0000
0100
,
0000
0100
0000
0013
,
0100
1000
0100
0010
,
0001
0000
0000
1000
0000
0000
0001
0000
0000
0000
0000
0000
1010
0000
0000
0000
,
0000
1000
0000
0000
0001
0000
0010
0001
,
0010
0000
0000
0010
0000
0000
0100
0000
,
0000
0100
0000
0000
1000
0000
0010
1000
,
0020
0000
0000
1000
0000
0000
1030
0000
,
0001
0100
0001
0100
0010
0100
0010
1000
,
0010
1000
0001
0010
0001
1000
0100
0001
,
0100
1000
0010
0100
0001
0000
0000
0000
,
2100
0000
0000
0000
0000
0000
3010
0000
0000
1001
0000
0001
,
1000
0000
1000
0100
0000
0100
0010
0000
0010
0001
0000
0001
,
1000
0000
0001
0000
1000
0000
0001
0000
1000
0000
0100
0000
0010
0000
0000
0000
0000
0000
0100
0000
0000
0010
0000
0000
,
0001
1000
0001
0010
0100
1000
0010
1000
,
0001
0100
0001
0010
1000
0010
0001
1000
,
0100
0010
0100
1000
0010
0100
0001
0010
,
0001
0100
0001
0100
1000
0100
0010
1000
,
0100
0000
0010
0000
0001
0000
1000
0000
0001
0000
0000
0010
0000
0000
0001
0000
,
1000
0000
0000
0010
0000
0000
1000
0000
0100
0000
0000
0000
0011
0000
0001
0000
,
1000
0100
0010
0100
1000
0100
0010
0001
,
1000
0010
0100
0010
0001
0010
1000
0001
,
0010
0000
1000
0000
0001
0000
0100
0000
1000
0000
0000
0100
0000
0000
0010
0000
,
0100
0000
0000
0000
0000
0000
0000
0000
0000
0010
0000
0000
0000
0000
0000
0000
0000
0000
0001
0000
0000
0000
0000
0000
1000
0000
0000
0000
0000
0000
0000
0000
0000
0000
0000
0000
1100
0000
0000
0000
0000
0000
0000
0000
1000
0000
0000
0000
,
0100
0000
0100
0001
0000
0001
0100
0000
0100
1000
0000
1000
,
0001
0000
0010
0001
0010
0100
1000
0000
0000
0010
0000
0010
,
1000
0000
1000
0001
0000
0001
0100
0001
0100
0010
1000
0100
,
0020
0000
0100
0000
,
0000
0000
0130
0000
,
0200
0000
0010
0000
,
0000
0000
0320
0000
,
0001
0000
0100
0000
,
0000
0000
1000
0000
,
0000
0000
0100
0000
,
0000
0000
0130
0000
,
2002
0000
0000
0000
,
3003
0000
0000
0000
;

//---------------dance-single - ----------------
#NOTEDATA:;
#CHARTNAME:;
#STEPSTYPE:dance-single;
#DESCRIPTION:;
#CHARTSTYLE:;
#DIFFICULTY:Easy;
#METER:9;
#RADARVALUES:0.274686,0.399544,0.116534,0.316306,0.020810,231.000000,217.000000,14.000000,38.000000,0.000000,0.000000,0.000000,0.000000,0.000000,0.274686,0.399544,0.116534,0.316306,0.020810,231.000000,217.000000,14.000000,38.000000,0.000000,0.000000,0.000000,0.000000,0.000000;
#CREDIT:Daniel Van Eden;
#NOTES:
0000
0000
0000
0000
,
0000
0000
0000
0000
,
0000
0000
0000
0000
,
0000
0000
0000
0000
,
0000
0000
0000
0000
,
0000
0000
0000
0000
,
0000
0000
0000
0000
,
0000
0000
0000
0000
,
0000
0000
0000
0000
,
0000
0000
0000
0000
,
0000
0000
0000
0000
,
0000
0000
0000
0000
,
0010
0000
0000
0010
0000
0000
0110
0000
,
0000
0100
0000
0000
0001
0000
0000
0000
,
1000
0000
0000
1000
0000
0000
0001
0000
,
0000
0001
0000
0000
0010
0000
0000
0000
,
0200
0000
0010
0000
,
0310
0001
0010
0100
,
0010
0001
1000
0010
,
0100
0001
1000
0000
,
0100
0000
0000
0100
0000
0000
1001
0000
,
1000
0001
0010
0001
,
1000
0000
0000
1000
0010
0000
1000
0000
,
0100
0000
0010
0000
0001
0000
1000
0001
,
1000
0000
0000
0001
0010
0000
0001
0000
,
0100
0010
1000
0100
,
0010
0000
0000
0010
0001
0000
1000
0000
,
0001
0000
0000
0000
0010
0000
0000
0000
0001
0000
0000
1000
0000
0000
0001
0000
,
0010
0000
0000
0010
0000
0000
0110
0000
,
0100
1000
0001
1000
,
0010
0000
0000
0010
0100
0000
0001
0000
,
1000
0000
0001
0000
0100
0000
0010
1000
,
0010
0100
0001
1001
,
1000
0010
1000
0100
,
0010
0010
0001
0110
,
0100
1000
0100
0010
,
2002
0000
0000
0000
,
0000
0000
0000
0000
,
3003
0000
0000
0000
,
0000
0000
0000
0000
,
2000
0000
3020
0000
,
0230
0000
0320
0000
,
2030
0000
3002
0000
,
0023
0000
0031
1000
,
0002
0000
0023
0000
,
0230
0000
0320
0000
,
0032
0000
2003
0000
,
3010
0100
0001
1000
,
0100
0000
0000
0100
0000
0000
0011
0000
,
0000
0001
0000
0000
1000
0000
0001
0000
,
0100
0000
0000
0010
0000
0000
1000
0000
,
0000
0010
0000
0000
1000
0000
0001
0000
,
2000
0000
0000
0000
,
3100
0010
0100
0010
,
0001
1000
0001
0100
,
0010
1000
0002
0000
,
0013
0000
0110
2001
,
3020
0230
0302
0023
,
0230
2300
3001
0101
,
0100
0000
0010
0100
0001
0000
1000
0000
,
0001
0001
0010
0100
,
1000
0010
0100
0010
,
1000
0000
1000
0000
0010
0100
0010
0000
,
1000
0000
0000
0000
0001
0000
0000
0000
0100
0000
0000
0001
0000
0000
1000
0000
,
0001
0000
0000
1000
0000
0000
0001
0000
0010
0000
0000
0000
0110
0000
0000
0000
,
0100
0000
1000
0000
0010
0000
0100
0010
,
0100
0200
0302
0023
,
2030
0000
0000
0000
3100
0000
0000
0000
0001
0000
0000
0010
0000
0000
0100
0000
,
0010
0000
0000
0100
0000
0000
1000
0000
0001
0000
0000
0000
1020
0000
0000
0000
,
0230
0320
0230
0320
,
1030
0001
1000
0000
0110
0000
0001
1000
,
0001
0010
0100
1000
,
0002
0000
1000
0000
,
0000
0000
1003
0000
,
2000
0000
0001
0000
,
0000
0000
3001
0000
,
0002
0000
1000
0000
,
0000
0000
1003
0000
,
2000
0000
0001
0000
,
0000
0000
3010
0000
,
0110
0000
0000
0000
;

//---------------dance-single - ----------------
#NOTEDATA:;
#CHARTNAME:;
#STEPSTYPE:dance-single;
#DESCRIPTION:;
#CHARTSTYLE:;
#DIFFICULTY:Beginner;
#METER:5;
#RADARVALUES:0.168855,0.366249,0.091562,0.000000,0.000000,142.000000,131.000000,11.000000,0.000000,0.000000,0.000000,0.000000,0.000000,0.000000,0.168855,0.366249,0.091562,0.000000,0.000000,142.000000,131.000000,11.000000,0.000000,0.000000,0.000000,0.000000,0.000000,0.000000;
#CREDIT:Daniel Van Eden;
#NOTES:
0000
0000
0000
0000
,
0000
0000
0000
0000
,
0000
0000
0000
0000
,
0000
0000
0000
0000
,
0000
0000
0000
0000
,
0000
0000
0000
0000
,
0000
0000
0000
0000
,
0000
0000
0000
0000
,
0000
0000
0000
0000
,
0000
0000
0000
0000
,
0000
0000
0000
0000
,
0000
0000
0000
0000
,
0010
0000
0000
1001
,
0000
0000
0001
0000
,
1000
0000
0000
0100
,
0000
0000
0010
0000
,
0001
0000
0000
0001
,
0000
0000
1000
0000
,
0010
0000
1000
0000
,
0100
0100
0100
0000
,
0000
0000
0100
1001
,
0000
0000
0001
0000
,
1000
0000
0010
0100
,
0000
0000
0010
0000
,
1000
0000
0001
0010
,
0000
0000
0001
0000
,
0100
0000
0010
0100
,
0000
0000
0010
0010
,
0010
0000
0100
1001
,
0000
0000
0010
0000
,
0001
0000
1000
0001
,
0000
0000
1000
0100
,
0100
0000
0010
1001
,
0000
0000
1000
0000
,
0010
0010
0010
0000
,
0100
0100
0100
0010
,
0010
0000
0000
0000
,
0000
0000
0000
0000
,
0000
0000
0000
0000
,
0000
0000
0000
0000
,
1000
0000
0000
1000
,
0000
0000
0001
0000
,
0010
0000
0000
0100
,
0000
0000
0010
0000
,
0001
0000
0000
0001
,
0000
0000
1000
0000
,
0010
0000
0000
0100
,
0000
0000
0010
0000
,
1000
0000
0000
1001
,
0000
0000
0001
0000
,
0010
0000
0000
0100
,
0000
0000
0010
0000
,
0001
0000
0000
1000
,
0000
0000
0010
0000
,
1000
0000
0100
0000
,
0010
0010
0010
0000
,
0100
0000
0010
0100
,
0000
0000
0010
0000
,
0001
0000
0010
1001
,
0000
0000
0000
1000
0001
0000
0000
0000
,
0010
0010
0001
1000
,
0000
0000
0010
0000
,
0100
0100
0010
0100
,
0000
0000
0000
0100
0001
0000
0001
0000
,
1000
1000
0010
1001
,
0000
0000
0010
0000
,
1000
0000
0000
0001
,
1000
1000
0110
0000
,
0010
0000
0100
1001
,
0001
1000
0001
1000
,
0001
0000
0110
1001
,
0000
1000
0100
0010
,
0001
0000
1000
0000
,
0000
0000
0001
0000
,
0000
0000
0010
0000
,
0000
0000
0100
0000
,
0000
0000
1000
0000
,
0000
0000
0010
0000
,
0000
0000
0100
0000
,
0000
0000
0100
0000
,
0001
0000
0000
0000
;
