#TITLE:BRAVER;
#SUBTITLE:;
#ARTIST:ZAQ;
#TITLETRANSLIT:;
#SUBTITLETRANSLIT:;
#ARTISTTRANSLIT:;
#GENRE:;
#CREDIT:;
#BANNER:;
#BACKGROUND:;
#LYRICSPATH:;
#CDTITLE:;
#MUSIC:BRAVER.ogg;
#OFFSET:-0.384000;
#SAMPLESTART:43.290001;
#SAMPLELENGTH:12.000000;
#LASTBEATHINT:445.998657;
#SELECTABLE:YES;
#BPMS:0.000000=188.000000
;
#STOPS:262.000000=0.319000,
395.000000=0.957000
;
#BGCHANGES:;
#KEYSOUNDS:;
#ATTACKS:;

//---------------dance-single - ----------------
#NOTES:
     dance-single:
     :
     Easy:
     8:
     0.338860,0.371921,0.075850,0.234444,0.000000,344.000000,333.000000,11.000000,34.000000,2.000000,0.000000,0.338860,0.371921,0.075850,0.234444,0.000000,344.000000,333.000000,11.000000,34.000000,2.000000,0.000000:
0000
0000
0000
0000
,
0000
0000
0000
0000
,
0000
0000
0000
0000
,
0000
0000
0000
0000
,
1000
0100
0100
1000
,
0010
0000
0000
0100
0000
0000
0010
0000
,
1000
0100
0001
0100
,
0010
0000
0000
0001
0000
0000
0100
0000
,
0001
0100
0100
0001
,
0010
0000
0000
0100
0000
0000
0010
0000
,
0002
0000
0100
0000
,
1003
0100
1000
0001
,
0020
0000
0001
0000
,
0001
0000
0130
1000
,
0001
0010
0100
1000
,
0002
0100
2003
0100
,
3002
0100
2003
3100
,
0010
0001
0002
0003
,
1000
0010
0100
0001
,
2000
0100
3002
0100
,
2003
0001
3010
0100
,
0001
0010
0001
0100
,
0001
0001
1000
0000
,
1000
1000
0010
0000
,
0100
0100
0010
1000
,
0001
0000
0011
1010
,
1000
1000
0001
0000
,
0001
0001
0100
0000
,
0020
0000
1000
0000
,
0130
0001
1000
0010
,
2000
0000
0100
0000
,
0100
0000
0100
3001
,
0002
0000
0000
0010
0000
0000
0013
0000
,
2200
0000
0300
3001
,
0010
0001
0100
0001
,
0010
0100
1000
1000
,
0100
0100
1000
1000
,
0010
1000
0001
0100
,
0010
1000
0100
1000
,
0010
0100
0001
0001
,
2000
0000
0010
0000
,
3001
0100
1000
0100
,
0010
1000
0100
1000
,
0001
0001
0100
0000
,
0001
1000
0100
1000
,
0010
0001
0010
0000
,
0010
1000
0001
0010
,
0100
1000
0001
0100
,
0002
0000
0203
0000
,
2300
0000
3020
0000
,
0031
0010
1000
0010
,
0001
0100
1000
0100
,
0001
0010
0100
1000
,
0010
0100
0001
0010
,
0001
0001
0100
0100
,
1000
1000
0010
0010
,
0001
0010
0100
1000
,
0001
0010
0100
1000
,
0002
0000
0000
0000
,
0100
0100
0100
0100
,
2003
0000
0000
0000
,
0010
0010
0010
0010
,
3200
0000
0000
0000
,
0001
0001
0001
0001
,
2300
0000
0000
3002
0000
0000
0023
0000
,
0000
0000
M030
0100
,
0100
0000
1000
0000
0000
1000
0000
0000
,
1000
0001
0001
0100
,
0100
0000
0001
0000
0000
0001
0000
0000
,
0001
0010
0010
0100
,
0100
0000
1000
0000
0000
1000
0000
0000
,
1000
0010
0010
0100
,
0000
0001
0000
0000
0000
0020
0000
0000
,
0000
0000
0000
0230
,
0000
0000
1300
0100
,
1000
0010
1000
0100
,
0010
0001
0001
0010
,
0010
0001
0001
0100
,
0001
1000
0010
0100
,
0001
0010
0001
0100
,
0010
1000
1000
0002
,
0000
0100
0000
1003
,
0010
0001
0010
0100
,
0001
0010
0001
1000
,
1000
0010
0000
1000
,
0001
0010
0001
0100
,
1000
0100
0000
0010
,
1000
0001
0010
0100
,
1000
0001
0100
2000
,
0000
3200
0000
0302
,
0000
0023
0000
0130
,
0100
1000
0000
0100
,
0100
0001
0000
0100
,
0100
0010
0000
0010
,
0010
0100
0000
0010
,
0010
0001
0000
0010
,
0010
1000
0000
0010
,
0000
0001
0000
0000
0100
0000
0000
1000
,
0000
0100
0002
10M3
,
1100
0000
1001
0000
,
0001
0001
0100
0000
,
0101
0000
1001
0000
,
1000
1000
0010
0000
,
1010
0000
1001
0000
,
1000
0001
0010
0000
,
0011
0000
0000
0010
0000
0000
0100
0000
,
0000
1000
0000
0000
0001
0000
0001
0000
,
0000
0000
0000
0000
0000
0000
0000
1001
;

//---------------dance-single - ----------------
#NOTES:
     dance-single:
     :
     Medium:
     12:
     0.613692,0.644721,0.082745,0.475783,0.000000,623.000000,611.000000,12.000000,69.000000,2.000000,0.000000,0.613692,0.644721,0.082745,0.475783,0.000000,623.000000,611.000000,12.000000,69.000000,2.000000,0.000000:
0000
0000
0000
0000
,
0000
0000
0000
0000
,
0000
0000
0000
0000
,
0000
0000
0000
0000
,
0001
0100
0001
0000
1000
0100
1000
0000
,
0010
1000
0010
1000
0000
1000
0010
0100
,
0001
0010
0001
0000
1000
0010
1000
0000
,
0001
0100
0001
0010
0000
0100
0010
0100
,
1000
0100
1000
0000
0001
0100
0001
0000
,
0010
0001
0010
0001
0000
0010
0100
1000
,
0001
0100
1000
0000
1000
0100
0001
0000
,
1000
0100
0001
0100
1000
0001
0100
0000
,
2010
0000
0100
0000
,
0100
0000
0000
0000
3100
0010
0100
0000
,
1000
0100
1000
0000
0100
0010
0100
0010
,
0001
0100
0001
0100
0010
1000
0010
1000
,
0000
0100
0000
0100
0000
0010
0100
0020
,
0000
0000
0031
0100
0001
0100
0000
0000
,
0001
0010
0001
0000
0100
0010
0100
0010
,
1000
0100
1000
0100
0010
0001
0010
0001
,
0000
0001
0100
1000
0001
0010
1000
0200
,
0000
0320
0000
0230
0000
2300
0000
0000
,
3001
0010
0001
0010
0002
0100
0000
2003
,
0000
3010
1000
0100
1000
0020
0000
0230
,
0000
0301
1000
0100
1000
0020
0000
0230
,
0000
0301
1000
0000
1100
0000
0101
0000
,
1000
0010
1000
0010
2000
0100
0000
3002
,
0000
0013
0001
0100
0001
0010
0000
0020
,
0000
0000
0000
0130
0010
0001
0100
0010
,
1000
0100
1000
0100
0010
0001
0010
0001
,
0000
0100
0010
0000
0100
0010
0000
0100
,
0000
0100
0000
0001
0000
0001
0000
0010
,
0100
1000
0010
0100
0001
0010
0100
1000
,
0010
0100
0010
0100
0010
1000
0001
0010
,
0001
0010
1000
0010
0001
0100
1000
0100
,
0001
0010
0100
1000
0000
1000
0100
0010
,
0001
0001
0100
0100
0001
0001
1000
0100
,
0010
0000
0010
0000
0001
0200
0000
0000
,
0310
1000
0010
0000
0100
0001
0100
0020
,
0000
2030
0000
3200
0000
0302
0000
0203
,
0000
0310
0001
0100
1000
0100
0001
1000
,
0000
0100
1000
0100
1000
0001
0100
0010
,
1000
0100
0001
0100
1000
0010
0001
0010
,
1000
0100
0010
0001
0000
0000
0001
0100
,
0001
0001
1000
1000
0100
0100
1000
1000
,
0010
1000
0001
0010
0000
0000
0000
0100
,
0020
0032
2003
3020
,
2030
3002
0203
0320
,
1030
0100
2100
0000
,
3002
0000
0023
0000
,
0031
0100
0001
0100
1000
0100
1000
0100
,
0001
0010
0001
0010
1000
0010
1000
0010
,
0001
0010
1000
0010
0001
0100
1000
0100
,
0001
0010
0100
1000
0010
0100
0001
0000
,
1000
0100
1000
0100
0001
0100
0001
0100
,
1000
0010
1000
0010
0001
0010
0001
0010
,
1000
0010
0100
0001
0010
0100
1000
0100
,
0010
0001
0100
0010
1000
0001
1000
0000
,
0200
0000
0000
0320
0000
0000
0000
0031
,
0000
0001
0010
0100
1000
0100
2000
0000
,
3020
0000
0000
0230
0000
0000
0000
0301
,
0000
0001
0100
0010
1000
0100
0010
0000
,
0002
0000
0000
2003
0000
0000
0000
3010
,
0000
0010
1000
0100
0010
0001
1000
0000
,
0200
0000
0000
2300
0000
0000
0002
0000
,
0000
0000
0000
0000
30M3
0000
0001
0100
,
0001
0010
0001
0100
0001
0010
0000
0010
,
0100
1000
0001
0010
0100
0000
1000
0100
,
1000
0010
1000
0100
1000
0010
0000
0001
,
0010
0100
0001
0100
0010
0000
1000
0001
,
0010
1000
0010
0001
1000
0100
0000
0010
,
0001
1000
0010
1000
0001
0000
0100
0000
,
0100
0001
0000
0000
0001
0010
0000
0010
,
0100
1000
0001
0100
0010
2000
0000
0000
,
0000
0000
0000
3001
0100
0001
1000
0010
,
0001
0010
1000
0100
0001
0100
1000
0010
,
0100
0001
0000
0001
0100
0010
1000
1000
,
0100
0100
1000
1000
0001
0100
0010
0000
,
0010
0000
1000
0200
0000
0000
0310
0001
,
0010
0000
0100
1000
0100
0020
0000
0032
,
0000
0203
0000
2300
0000
3200
0000
0310
,
1000
0100
0001
0100
1000
0001
0000
0100
,
0001
0100
0001
1000
0100
0010
0001
0100
,
1000
0100
0001
0010
1000
0010
0001
0100
,
0010
1000
0000
0000
1000
0100
1000
1000
,
0001
0001
0100
0100
0001
0001
0010
0001
,
1000
0010
0000
0000
0000
0100
0020
0000
,
2030
3002
0023
0032
,
2003
3200
0320
0031
,
0100
0102
0000
2003
,
0000
0000
3020
0000
0000
0000
1030
0100
,
1000
0100
0010
0000
0001
0100
0000
0100
,
0000
0101
0000
0102
0000
0013
0001
0100
,
0001
0100
0010
0000
1000
0100
0000
0100
,
0000
1100
0000
0100
0010
0000
0001
0010
,
0001
0010
0100
0000
1000
0010
0000
0010
,
0000
0110
0000
1001
0000
1000
0100
1000
,
0100
0001
0100
0001
0100
0010
0100
0010
,
0001
1000
0020
0000
0130
0000
2M02
3003
,
1000
0000
0100
0000
1000
0001
0000
0100
,
0000
0100
0000
0010
0000
0020
0000
0000
,
0130
0001
0000
0100
0001
0000
1000
0100
,
0000
0100
0000
0010
0000
0020
0000
0000
,
0130
1000
0100
0010
0001
0000
0001
0100
,
0000
0100
0000
0010
0000
0000
1001
0000
,
1000
0100
1000
0001
0100
0001
0010
0001
,
0010
0100
1000
0100
0020
0000
0230
0000
,
0310
0100
1000
0001
0100
0010
0100
0002
,
0000
0000
0000
0000
,
0000
0000
0000
0000
,
0003
0000
0000
0000
;

//---------------dance-single - ----------------
#NOTES:
     dance-single:
     :
     Hard:
     13:
     0.711212,0.948119,0.834345,0.448202,0.210310,722.000000,601.000000,121.000000,65.000000,2.000000,0.000000,0.711212,0.948119,0.834345,0.448202,0.210310,722.000000,601.000000,121.000000,65.000000,2.000000,0.000000:
// measure 0
0000
0000
0000
0000
,  // measure 1
0000
0000
0000
0000
,  // measure 2
0000
0000
0000
0000
,  // measure 3
0000
0000
0000
0000
,  // measure 4
2100
3001
0012
1003
,  // measure 5
1020
0000
0000
0130
0000
0010
0000
1000
,  // measure 6
1200
0301
0120
0031
,  // measure 7
0011
0000
0000
0000
0000
0000
1001
0000
0000
0000
1000
0000
0001
1000
0001
1000
,  // measure 8
0002
0103
2010
3001
,  // measure 9
0021
0000
0000
0130
0000
0010
0000
0001
,  // measure 10
0201
1300
1020
0130
,  // measure 11
0001
0000
0100
0000
0000
0000
0100
0000
0010
1000
0001
0000
0100
0001
1000
0000
,  // measure 12
0020
0000
0100
0000
,  // measure 13
0100
0000
0000
0000
0000
0000
0000
0000
0130
0001
1000
0000
0100
1000
0001
0000
,  // measure 14
0200
0000
0310
0000
1000
0010
0000
0101
,  // measure 15
0000
1100
0000
0011
0000
1100
0000
0102
,  // measure 16
0000
1000
0000
1000
0000
1003
0100
0020
,  // measure 17
0000
0000
1030
0010
0001
0100
0000
0000
,  // measure 18
0020
0000
0130
0000
0001
0010
0000
1100
,  // measure 19
0000
0101
0000
1010
0000
0101
0000
1100
,  // measure 20
0000
0000
1000
0000
0100
0000
0010
0001
0010
0001
0100
0000
0010
0000
1000
0000
,  // measure 21
1010
0000
1010
0000
0000
0000
0011
0000
0000
0000
0001
1000
0001
0000
0000
0000
,  // measure 22
0100
0001
0010
1000
0010
0100
0000
1002
,  // measure 23
0000
1003
0100
0001
0100
0010
0000
2001
,  // measure 24
0000
3010
0001
0010
0100
0010
0000
1000
,  // measure 25
0000
0100
1000
0000
0101
0000
1010
0000
,  // measure 26
0010
1000
0100
0001
0100
0010
0000
1001
,  // measure 27
0000
0001
0100
1000
0100
0010
0000
1200
,  // measure 28
0000
0000
0000
0000
0000
0000
1300
0001
0010
0001
0010
0000
0001
0000
0100
0000
,  // measure 29
1000
0000
0100
0000
0000
0000
0100
0000
0010
1000
0010
0000
0100
0001
0100
0000
,  // measure 30
0000
0110
0110
0000
1010
1010
0000
1100
,  // measure 31
0000
0101
0000
0011
0000
0110
0000
0100
,  // measure 32
1000
0000
0100
1000
0100
0000
0010
0000
0001
0010
0001
0000
0100
0000
0010
0100
,  // measure 33
0020
0000
0000
0000
0000
1030
0010
0100
,  // measure 34
0011
0000
1010
0000
0101
0000
2100
3001
,  // measure 35
0000
0010
1000
0010
0000
0000
0001
0100
,  // measure 36
0001
0001
1000
1000
0010
1000
0100
0010
,  // measure 37
1010
0000
1010
0000
0010
0002
0000
0003
,  // measure 38
0011
0000
1100
0000
0101
0000
1000
0020
,  // measure 39
0000
0032
0000
2003
0000
3200
0000
0302
,  // measure 40
0000
0000
0010
0000
1003
0100
1000
0001
,  // measure 41
0000
0000
0010
0001
0010
0001
0010
0001
0010
0000
0100
0000
1000
0000
0001
0000
,  // measure 42
1010
0000
0011
0000
1100
0000
0201
0310
,  // measure 43
0000
0001
0010
2000
0000
0000
0000
3100
,  // measure 44
1000
1000
0001
0001
0100
0001
0010
0100
,  // measure 45
0001
0000
0100
0000
1000
0000
0020
0000
0000
0000
0000
0000
0000
0000
1030
0001
,  // measure 46
0010
1100
0101
1010
,  // measure 47
0101
1100
0110
0011
,  // measure 48
1001
0000
0100
0100
1100
0000
0011
0000
,  // measure 49
0001
0000
0010
0100
0010
0100
0010
0100
0010
0000
0001
1000
0001
1000
0001
1000
,  // measure 50
0001
0000
1000
0000
0010
1000
0010
0000
0100
0000
0001
0000
0010
0001
0010
0000
,  // measure 51
0100
0000
1000
0000
0001
0100
0010
0000
0100
0000
0101
0000
0101
0000
0000
0000
,  // measure 52
1000
0000
0001
0000
0010
0001
0010
0000
0100
0000
1000
0000
0010
1000
0010
0000
,  // measure 53
1000
0100
0001
0100
1000
0001
0010
0010
,  // measure 54
0001
0000
1000
0000
0100
0010
0100
0000
1000
0000
0001
0000
0100
0010
0100
0000
,  // measure 55
0001
0000
0010
0000
1000
0010
0100
0000
0010
0000
0001
0000
1001
0000
0000
0000
,  // measure 56
0001
1000
0010
0000
0010
0000
1000
0001
0010
0000
0001
1000
0010
0000
0100
0000
,  // measure 57
0010
0000
1000
0000
0001
0000
0010
0000
0100
0000
1000
0000
0001
1000
0001
1000
,  // measure 58
0002
0000
0000
0000
0000
0000
0000
0013
,  // measure 59
0000
0010
0100
1000
0001
1000
0020
0000
,  // measure 60
0000
0000
0000
0000
0000
0000
0000
0130
,  // measure 61
0000
0000
0010
0000
1000
0000
0001
0000
1000
0100
1000
0000
0001
0010
0001
0000
,  // measure 62
2000
0000
0000
0000
0000
0000
0000
3100
,  // measure 63
0000
0100
0010
0001
1000
0001
0200
0000
,  // measure 64
1000
0000
0000
0001
0000
0000
0020
0000
,  // measure 65
0000
0000
0000
0000
M330
0000
0100
0100
,  // measure 66
0100
0001
0001
0001
0001
0010
0000
1000
,  // measure 67
0010
0001
1000
0001
1000
0000
0100
0100
,  // measure 68
0100
1000
1000
1000
1000
0010
0000
0001
,  // measure 69
0010
0000
1000
0000
0100
1000
0100
0000
0010
0001
0010
0000
0001
0000
0001
0000
,  // measure 70
0001
1000
1000
1000
1000
0010
0000
0100
,  // measure 71
1000
0100
0001
0010
1000
0010
0200
0000
,  // measure 72
0300
2200
0000
0000
3300
2020
0000
0000
,  // measure 73
0000
0000
0000
3030
,  // measure 74
0000
0000
0000
0001
0100
0001
1010
0000
,  // measure 75
0011
0000
1100
0000
0102
1003
0000
0010
,  // measure 76
0001
0010
0000
0000
1000
0100
1000
1000
,  // measure 77
0001
0001
0010
0001
0100
0010
0011
0000
,  // measure 78
0011
0000
0010
2000
0000
3000
1010
0000
,  // measure 79
0101
0000
1100
0000
0001
0020
0000
2030
,  // measure 80
0000
3002
0000
0203
0000
2300
0000
0000
,  // measure 81
0010
0000
0000
0000
3001
0000
0100
0000
0001
0000
1000
0000
0000
0000
0010
1000
,  // measure 82
0010
1000
0010
1000
0010
0000
0100
0000
0001
0000
1000
0000
0011
0000
0000
0000
,  // measure 83
1010
0000
0101
0000
1200
0310
0000
1000
,  // measure 84
0010
0002
0000
0000
0000
0103
0001
0001
,  // measure 85
1000
1000
0100
1000
0010
0100
1000
0100
,  // measure 86
0001
0000
0020
0000
0000
0000
0000
0000
0000
0000
0031
1000
0010
0000
0000
0000
,  // measure 87
1010
0011
1100
0011
,  // measure 88
1010
1001
0101
0110
,  // measure 89
0010
0000
0010
0000
1010
0000
0000
0000
0101
0000
0000
0000
0001
0000
1000
0001
,  // measure 90
1000
0001
1000
0001
1000
0000
0100
0010
0100
0010
0100
0010
0001
0000
0010
0000
,  // measure 91
0001
0010
0100
0000
0000
1100
0000
1100
,  // measure 92
0000
1001
0000
2002
0000
3003
1000
0010
,  // measure 93
1000
0010
0100
0000
0000
0101
0000
0101
,  // measure 94
0000
0110
0000
0120
0000
0000
1030
0001
,  // measure 95
1000
0001
0010
0000
0000
0011
0000
0011
,  // measure 96
0000
1010
0000
1010
0000
1000
1100
0000
,  // measure 97
0000
0101
0000
0000
0011
0000
0000
1010
,  // measure 98
0000
0000
2000
0000
3001
0000
0M22
0033
,  // measure 99
0001
0100
0001
0001
1000
0100
0000
1100
,  // measure 100
0000
0110
0000
0101
0000
0210
0000
0000
,  // measure 101
1300
0000
0001
0000
0000
0000
1000
0100
0010
0000
0001
0000
0000
0000
0101
0000
,  // measure 102
0000
0000
1001
0000
0000
0000
1100
0000
0100
0010
0100
0010
0100
0010
0100
0000
,  // measure 103
1000
0000
0100
0000
0010
0000
0001
1000
0020
0000
0000
0000
0030
0000
0110
0000
,  // measure 104
0000
1100
0000
0101
0000
0001
1000
0000
,  // measure 105
2200
0000
3300
0202
0000
0303
0022
0000
,  // measure 106
0033
0000
1010
0000
1000
0010
1000
0000
0001
0010
0001
0000
0100
0010
0100
0000
,  // measure 107
0000
0000
0000
0000
0000
0000
0000
2002
,  // measure 108
0000
0000
0000
0000
,  // measure 109
0000
0000
0000
0000
,  // measure 110
3003
0000
0000
0000
;
