#TITLE:Aurora;
#SUBTITLE:;
#ARTIST:Sander van Dien;
#TITLETRANSLIT:;
#SUBTITLETRANSLIT:;
#ARTISTTRANSLIT:;
#GENRE:;
#CREDIT:;
#BANNER:Aurora.png;
#BACKGROUND:Aurora-bg.png;
#LYRICSPATH:;
#CDTITLE:cdtitle.png;
#MUSIC:Aurora.ogg;
#OFFSET:-0.020000;
#SAMPLESTART:18.201818;
#SAMPLELENGTH:14.545454;
#SELECTABLE:YES;
#DISPLAYBPM:66.000000:132.000000;
#BPMS:0.000000=66.000000
,20.000000=132.000000
,90.000000=198.000000
,92.000000=132.000000
,98.000000=198.000000
,100.000000=132.000000
,132.000000=66.000000
;
#STOPS:90.000000=0.150000,
91.000000=0.150000,
98.000000=0.040000,
98.250000=0.040000,
98.500000=0.040000,
98.750000=0.040000,
99.000000=0.040000,
99.250000=0.040000,
99.500000=0.040000,
99.750000=0.040000
;
#BGCHANGES:;
#KEYSOUNDS:;
#ATTACKS:;

//---------------dance-single - ----------------
#NOTES:
     dance-single:
     :
     Hard:
     8:
     0.377787,0.425785,0.032120,1.156304,0.251603,247.000000,244.000000,3.000000,108.000000,8.000000,0.000000,0.377787,0.425785,0.032120,1.156304,0.251603,247.000000,244.000000,3.000000,108.000000,8.000000,0.000000:
// measure 0
0000
0000
0000
0000
,  // measure 1
0000
0000
0000
0000
,  // measure 2
2000
3200
0320
0230
2300
3020
0000
0230
0000
0300
0002
0000
0023
0000
0230
0000
,  // measure 3
2300
3020
2030
3200
2300
3002
0003
2000
0000
3000
0200
0000
0320
0000
0032
0000
,  // measure 4
0003
0000
0000
0000
4000
0000
0000
0000
0000
0000
0000
0000
0000
0000
0000
3000
,  // measure 5
1001
0100
0010
0001
0100
0002
0000
2003
,  // measure 6
0000
3000
0002
0000
0203
0000
2300
0000
,  // measure 7
3100
0010
1000
0100
0010
0200
0000
2300
,  // measure 8
0000
3000
0002
0000
0023
0000
2030
0000
,  // measure 9
3010
0001
0100
0001
0010
0200
0000
2300
,  // measure 10
0000
3000
0020
0000
2030
0000
3200
0000
,  // measure 11
1300
0010
0001
0010
0100
0002
0000
2003
,  // measure 12
0000
3000
0200
0000
0320
0000
0032
0000
,  // measure 13
1003
0000
0100
0000
1000
0000
0010
0100
0010
0000
1000
0000
0001
0000
1000
0010
,  // measure 14
1000
0000
0100
0000
0010
0000
0001
1000
0001
0000
0100
0000
0010
0000
1000
0100
,  // measure 15
1000
0000
0010
0000
0100
0000
0001
0010
0001
0000
1000
0000
0010
0000
0100
0001
,  // measure 16
0100
0000
0010
0000
1000
0000
0100
0010
0100
0000
1000
0000
0010
0000
1000
0001
,  // measure 17
1000
0000
0010
0000
0100
0000
0001
0010
0001
0000
0100
0000
0001
0000
0010
0100
,  // measure 18
0010
0000
0001
0000
0100
0000
0010
1000
0010
0000
0100
0000
0001
0000
1000
0000
,  // measure 19
0002
0023
2030
3002
0203
2300
0000
3002
,  // measure 20
0000
0003
0200
0000
0320
0000
2030
0000
,  // measure 21
3001
0100
0010
1000
0100
2000
0000
3002
,  // measure 22
0000
0000
0003
0000
2000
0000
0000
3000
1100
0000
0000
0000
1001
0000
0000
0000
,  // measure 23
0100
0010
0001
0100
0010
0200
0000
0302
,  // measure 24
0000
0003
2000
0000
3040
0000
0430
0000
,  // measure 25
0310
1000
0100
1000
0010
0200
0000
0302
,  // measure 26
0000
0003
0020
0000
0032
0000
0203
0000
,  // measure 27
0301
0010
1000
0010
0100
2000
0000
3002
,  // measure 28
0000
0003
0200
0000
0320
0000
2030
0000
,  // measure 29
3001
0000
0100
0000
0010
0000
1000
0001
0010
0100
0000
0100
0000
0000
0020
0000
,  // measure 30
0031
0000
0100
0000
1000
0000
0100
0001
1000
0100
0000
0100
0000
0000
0000
0000
,  // measure 31
1000
0000
0010
0000
0100
0000
0001
1000
0100
0010
0000
0010
0000
0000
0200
0000
,  // measure 32
1300
0000
0010
0000
0001
0000
0010
1000
0001
0010
0000
0010
0000
0000
0000
0000
,  // measure 33
2000
3200
0320
0230
2300
3020
0000
0230
0000
0300
0002
0000
0023
0000
0230
0000
,  // measure 34
2300
3020
2030
3200
2300
3002
0003
2000
0000
3000
0200
0000
0320
0000
0032
0000
,  // measure 35
2003
3200
0302
2003
3020
0032
0003
0200
0000
0300
0020
0000
0230
0000
0302
0000
,  // measure 36
2003
3020
0032
2003
3200
0302
0003
2000
0000
3000
0002
0000
0203
0000
0320
0000
,  // measure 37
M030
00M0
0M00
000M
M000
00M0
0M00
000M
;

//---------------dance-single - ----------------
#NOTES:
     dance-single:
     :
     Medium:
     5:
     0.307430,0.336720,0.021413,0.567446,0.000000,201.000000,199.000000,2.000000,53.000000,0.000000,0.000000,0.307430,0.336720,0.021413,0.567446,0.000000,201.000000,199.000000,2.000000,53.000000,0.000000,0.000000:
// measure 0
0000
0000
0000
0000
,  // measure 1
0000
0000
0000
0000
,  // measure 2
0002
0103
0002
0013
0002
1000
1000
1003
,  // measure 3
2000
3010
2000
3100
2000
0001
0001
0002
,  // measure 4
3003
0000
0004
0000
0000
0000
0000
0003
,  // measure 5
1000
0100
1000
0000
0001
0100
0001
0000
,  // measure 6
2000
3020
0230
0302
,  // measure 7
1003
0100
0010
0000
0010
0100
1000
0000
,  // measure 8
0002
0203
0320
2030
,  // measure 9
3001
0010
0001
0000
1000
0010
1000
0000
,  // measure 10
0002
0203
0320
2030
,  // measure 11
3001
0010
0100
0000
0100
0010
0001
0000
,  // measure 12
2000
3020
0230
0302
,  // measure 13
1003
0100
0000
0100
1000
0001
0000
0001
,  // measure 14
0100
0010
0000
0010
0100
0001
0000
0001
,  // measure 15
1000
0010
0000
0010
1000
0001
0000
0001
,  // measure 16
0010
0100
0000
0100
0010
0001
0000
1000
,  // measure 17
0010
0100
0000
0001
0010
0100
0000
1000
,  // measure 18
0100
0010
0000
0001
0100
0010
1000
0001
,  // measure 19
0010
0001
0100
0001
0010
0200
0000
2000
,  // measure 20
3300
0002
0203
0320
,  // measure 21
1030
0100
0010
0000
0100
0010
0001
0000
,  // measure 22
2000
0000
3002
0003
0110
0000
1001
0000
,  // measure 23
0001
0010
0100
0000
0010
0100
1000
0000
,  // measure 24
0002
0000
2003
0000
3400
0000
0000
0300
,  // measure 25
0010
0001
0100
0000
0010
1000
0100
0000
,  // measure 26
2000
3010
0002
0013
,  // measure 27
0100
1000
0010
0000
0100
0001
0010
0000
,  // measure 28
0002
0103
2000
3100
,  // measure 29
1000
0100
0010
0001
0200
0000
0310
0000
,  // measure 30
1000
0010
0100
0001
0020
0000
0130
0000
,  // measure 31
1000
0100
1000
0010
2000
0000
3100
0000
,  // measure 32
0010
0001
0100
0001
0020
0000
0031
0000
,  // measure 33
2000
3100
2000
3010
2000
0001
0001
3001
,  // measure 34
0002
0013
0002
0103
0002
1000
1000
1003
,  // measure 35
2000
3010
0002
0013
2000
0001
0001
3001
,  // measure 36
0002
0103
2000
3100
0002
1000
1000
2000
,  // measure 37
3003
0000
0000
0000
;

//---------------dance-single - ----------------
#NOTES:
     dance-single:
     :
     Easy:
     3:
     0.203424,0.236079,0.085652,0.289076,0.000000,133.000000,125.000000,8.000000,27.000000,0.000000,0.000000,0.203424,0.236079,0.085652,0.289076,0.000000,133.000000,125.000000,8.000000,27.000000,0.000000,0.000000:
// measure 0
0000
0000
0000
0000
,  // measure 1
0000
0000
0000
0000
,  // measure 2
2000
3002
0203
0300
,  // measure 3
0002
2003
3200
0300
,  // measure 4
0000
0000
0000
0000
,  // measure 5
0001
0001
1000
1000
,  // measure 6
0001
0001
0101
0101
,  // measure 7
0001
0001
0010
0010
,  // measure 8
0001
0001
0011
0011
,  // measure 9
1000
0100
0010
0001
,  // measure 10
0010
0100
1000
1001
,  // measure 11
1000
0010
0100
0001
,  // measure 12
0100
0010
1000
1001
,  // measure 13
1000
0100
1000
0010
,  // measure 14
1000
0100
1000
0010
,  // measure 15
1000
0100
0001
0100
,  // measure 16
1000
0100
0001
0100
,  // measure 17
1000
0010
0100
0010
,  // measure 18
1000
0100
0010
0100
,  // measure 19
2000
0000
3002
0000
,  // measure 20
0203
0000
0320
0000
,  // measure 21
1030
0010
0001
0010
,  // measure 22
1000
0001
0101
0101
,  // measure 23
1000
0100
0001
0100
,  // measure 24
1000
0100
0020
0000
,  // measure 25
0031
0010
0100
0010
,  // measure 26
0001
1000
0001
1000
,  // measure 27
0001
0100
0010
0100
,  // measure 28
0001
1000
0001
1000
,  // measure 29
0001
0001
0001
0000
0200
0000
0300
0000
,  // measure 30
0010
0010
0010
0000
2000
0000
3000
0000
,  // measure 31
0100
0100
0100
0000
0020
0000
0030
0000
,  // measure 32
0001
0001
0001
0000
2000
0000
3000
0000
,  // measure 33
0002
2003
3200
0300
,  // measure 34
2000
3002
0203
0300
,  // measure 35
0002
0023
0230
0300
,  // measure 36
0200
0320
0032
0003
;
