#VERSION:0.83;
#TITLE:Apology For Non-Symmetry;
#SUBTITLE:;
#ARTIST:Chronic Future;
#TITLETRANSLIT:;
#SUBTITLETRANSLIT:;
#ARTISTTRANSLIT:;
#GENRE:;
#ORIGIN:;
#CREDIT:;
#BANNER:Apology For Non-Symmetry.png;
#BACKGROUND:Apology For Non-Symmetry-bg.png;
#PREVIEWVID:;
#JACKET:Apology For Non-Symmetry-jacket.png;
#CDIMAGE:;
#DISCIMAGE:;
#LYRICSPATH:;
#CDTITLE:;
#MUSIC:Apology For Non-Symmetry.ogg;
#OFFSET:-1.120000;
#SAMPLESTART:26.888538;
#SAMPLELENGTH:12.578199;
#SELECTABLE:YES;
#BPMS:0.000=150.280;
#STOPS:152.500=0.399,
154.500=0.399;
#DELAYS:;
#WARPS:;
#TIMESIGNATURES:0.000=4=4;
#TICKCOUNTS:0.000=4;
#COMBOS:0.000=1;
#SPEEDS:0.000=1.000=0.000=0;
#SCROLLS:0.000=1.000;
#FAKES:;
#LABELS:0.000=Song Start;
#BGCHANGES:;
#KEYSOUNDS:;
#ATTACKS:
;

//---------------dance-single - ----------------
#NOTEDATA:;
#CHARTNAME:;
#STEPSTYPE:dance-single;
#DESCRIPTION:;
#CHARTSTYLE:;
#DIFFICULTY:Hard;
#METER:12;
#RADARVALUES:0.559040,0.603453,0.148794,0.089276,0.089276,263.000000,253.000000,10.000000,6.000000,0.000000,0.000000,0.000000,0.000000,0.000000,0.559040,0.603453,0.148794,0.089276,0.089276,263.000000,253.000000,10.000000,6.000000,0.000000,0.000000,0.000000,0.000000,0.000000;
#CREDIT:;
#NOTES:
// measure 0
0000
0000
0000
0000
,  // measure 1
0000
0000
0000
0000
,  // measure 2
0000
0000
0000
0000
,  // measure 3
0000
0000
0000
0000
,  // measure 4
0001
0100
0001
0100
0001
0100
0100
0010
,  // measure 5
0100
0001
0010
0100
1000
0010
0100
0001
,  // measure 6
0010
0100
0010
0100
1000
0100
1000
0100
,  // measure 7
1000
0000
0001
0000
1000
0000
0001
0000
1000
0000
0001
1000
0001
1000
0010
0100
,  // measure 8
0001
1000
0100
0010
0001
0100
0010
0100
,  // measure 9
0001
0000
0010
0000
0100
0000
1000
0000
0001
0100
0010
0000
0100
0000
0001
0000
,  // measure 10
0010
0000
0001
0010
0100
1000
0010
0100
,  // measure 11
1000
0000
0100
0000
0010
0000
1000
0000
0001
0000
1000
0100
0010
0000
0100
0000
,  // measure 12
1000
0000
0010
0100
0001
0010
1000
0010
,  // measure 13
0001
0000
0100
0000
1000
0000
0100
0010
1000
0000
0001
0000
0100
0000
0001
0000
,  // measure 14
1000
0001
0010
0100
1000
0010
1000
0100
,  // measure 15
0100
0000
0001
0000
0100
0000
0100
0000
1000
0000
0001
1000
0001
1000
0010
0100
,  // measure 16
0001
1000
0010
0100
0001
0010
0100
1000
,  // measure 17
0001
0100
0010
0001
1000
0100
0001
0010
,  // measure 18
0100
1000
0001
0100
1000
0001
1000
0100
,  // measure 19
0001
1001
0011
0110
,  // measure 20
0011
0000
0010
0001
0100
0110
0000
0101
,  // measure 21
0000
0100
0001
0010
1000
0000
0010
0000
,  // measure 22
0100
0000
0100
1000
0010
0110
0000
1010
,  // measure 23
0000
0000
1000
0000
0001
0000
0000
0000
0001
0000
1000
0001
1000
0001
0100
0010
,  // measure 24
2000
0001
3001
0000
0020
0100
0130
0000
,  // measure 25
0010
0001
0100
1000
0100
0001
0010
0100
,  // measure 26
0000
0100
1000
0010
1000
0100
0001
0100
,  // measure 27
1000
0010
0100
0001
1000
0100
0010
0000
,  // measure 28
0002
1000
1003
0000
0020
0100
0130
0000
,  // measure 29
0010
1000
0100
0000
0010
0000
0100
1000
,  // measure 30
0010
0000
0100
0000
0110
0000
0100
0001
,  // measure 31
0000
1000
0001
0010
0100
0000
1000
0000
,  // measure 32
0001
0200
1000
0000
1300
0200
0001
0000
,  // measure 33
0310
0000
0100
0000
0001
0001
0010
0000
,  // measure 34
0011
0010
0001
0100
0001
0010
1000
0010
,  // measure 35
0001
0100
0010
1000
0001
0010
0100
0000
,  // measure 36
1000
0100
1000
0100
0010
0001
0010
0001
,  // measure 37
1000
0010
1000
0010
0100
0001
0010
0100
,  // measure 38
1000
1000
0000
0000
0001
0001
0000
0000
;

//---------------dance-single - ----------------
#NOTEDATA:;
#CHARTNAME:;
#STEPSTYPE:dance-single;
#DESCRIPTION:;
#CHARTSTYLE:;
#DIFFICULTY:Medium;
#METER:9;
#RADARVALUES:0.420875,0.459774,0.193432,0.148794,0.000000,198.000000,185.000000,13.000000,10.000000,0.000000,0.000000,0.000000,0.000000,0.000000,0.420875,0.459774,0.193432,0.148794,0.000000,198.000000,185.000000,13.000000,10.000000,0.000000,0.000000,0.000000,0.000000,0.000000;
#CREDIT:;
#NOTES:
// measure 0
0000
0000
0000
0000
,  // measure 1
0000
0000
0000
0000
,  // measure 2
0000
0000
0000
0000
,  // measure 3
0000
0000
0000
0000
,  // measure 4
0001
0000
0001
0000
0001
0001
0000
0100
,  // measure 5
0000
0010
0000
1000
1000
0000
1000
0001
,  // measure 6
2000
0000
3002
0000
,  // measure 7
2003
0000
3002
0000
1003
0001
1000
0001
,  // measure 8
1000
0000
0001
0000
1000
0010
1000
0000
,  // measure 9
0001
0000
1000
0000
0001
0010
0001
0010
,  // measure 10
0100
0000
1000
0001
1000
0000
1000
0010
,  // measure 11
1000
0000
1000
0001
1000
0000
1000
0100
,  // measure 12
0010
0000
0010
0001
1000
0001
1000
0000
,  // measure 13
0010
0100
0010
0000
0010
1000
0001
1000
,  // measure 14
0001
0000
1000
0001
0010
0100
0000
0010
,  // measure 15
0100
0000
0010
0100
0000
0010
0100
1000
,  // measure 16
0001
0000
1000
0010
0100
0000
0100
0010
,  // measure 17
0000
0110
0000
1010
0000
1001
0000
1100
,  // measure 18
0000
1000
0100
0010
0001
0000
0001
0100
,  // measure 19
0010
0110
0101
1001
,  // measure 20
0011
0000
0010
0100
1000
0001
0000
1001
,  // measure 21
0000
0001
0010
0001
1000
0000
1001
0000
,  // measure 22
1010
0000
0010
0100
0001
1000
0000
1001
,  // measure 23
0000
1000
0100
0000
0100
0010
0001
1000
,  // measure 24
0002
0010
2003
0010
,  // measure 25
3001
1000
0000
1010
0000
1000
0001
1000
,  // measure 26
0000
1000
0001
0000
1000
0100
0010
0000
,  // measure 27
0001
0010
0001
0000
0001
0100
0010
0000
,  // measure 28
0200
0001
0320
0001
,  // measure 29
0130
0010
0100
0000
0001
0000
0010
0100
,  // measure 30
0010
0000
0100
0000
0010
0000
0010
0001
,  // measure 31
0000
0001
1000
0001
1000
0000
1000
0000
,  // measure 32
0001
0200
0010
0000
0301
0020
0100
0000
,  // measure 33
0031
0000
0001
0000
0100
0010
0100
0000
,  // measure 34
0001
1000
0001
0000
1000
0100
0010
0000
,  // measure 35
0001
0010
0001
0000
0001
0100
0010
0000
,  // measure 36
0100
0100
0001
0001
,  // measure 37
0010
0010
0100
1000
,  // measure 38
0001
1000
0000
0000
0001
1000
0000
0000
;

//---------------dance-single - ----------------
#NOTEDATA:;
#CHARTNAME:;
#STEPSTYPE:dance-single;
#DESCRIPTION:;
#CHARTSTYLE:;
#DIFFICULTY:Easy;
#METER:5;
#RADARVALUES:0.261452,0.287358,0.029759,0.223191,0.000000,123.000000,121.000000,2.000000,15.000000,0.000000,0.000000,0.000000,0.000000,0.000000,0.261452,0.287358,0.029759,0.223191,0.000000,123.000000,121.000000,2.000000,15.000000,0.000000,0.000000,0.000000,0.000000,0.000000;
#CREDIT:;
#NOTES:
0000
0000
0000
0000
,
0000
0000
0000
0000
,
0000
0000
0000
0000
,
0000
0000
0000
0000
,
0100
0000
0010
0000
0100
0000
0000
0100
,
0000
0001
0000
2000
0000
0000
3001
0000
,
0020
0000
0230
0000
,
0320
0230
0320
0230
,
1300
0000
0100
0000
,
0010
0100
0010
0100
,
0010
0000
0001
0000
,
1000
0001
1000
0001
,
1000
0000
0010
0000
,
0100
0010
0100
0010
,
0100
0001
0001
1000
,
0100
0010
0100
1000
,
0001
0100
1000
0100
,
0001
0010
0100
1000
,
0001
0001
1000
1000
,
0010
0010
0100
0100
,
0001
0000
0010
0000
0100
0000
0000
0110
,
0000
1000
0001
1000
,
0001
0000
0100
0000
0010
0000
0000
0110
,
0000
1000
0001
1000
,
0002
0000
2003
0000
,
3001
0100
1000
0100
,
0001
1000
0100
0001
,
0010
1000
0001
1000
,
0002
0000
2003
0000
,
3010
0010
1000
0001
,
1000
1000
0100
0010
,
0001
0010
0100
1000
,
0002
0000
2003
0000
,
3010
0000
0200
0000
,
0302
1003
0100
0001
,
0010
1000
0001
1000
,
0100
0010
0100
0010
,
0001
1000
0001
1000
,
0001
1000
0000
0000
0001
1000
0000
0000
;

//---------------dance-single - ----------------
#NOTEDATA:;
#CHARTNAME:;
#STEPSTYPE:dance-single;
#DESCRIPTION:;
#CHARTSTYLE:;
#DIFFICULTY:Beginner;
#METER:2;
#RADARVALUES:0.153045,0.200500,0.029759,0.178553,0.000000,72.000000,70.000000,2.000000,12.000000,0.000000,0.000000,0.000000,0.000000,0.000000,0.153045,0.200500,0.029759,0.178553,0.000000,72.000000,70.000000,2.000000,12.000000,0.000000,0.000000,0.000000,0.000000,0.000000;
#CREDIT:;
#NOTES:
0000
0000
0000
0000
,
0000
0000
0000
0000
,
0000
0000
0000
0000
,
0000
0000
0000
0000
,
0010
0000
0010
0000
,
1000
1000
2000
3000
,
0001
0000
1000
0000
,
0001
0000
1000
1000
,
1000
0000
0000
0000
,
1000
0000
1000
0000
,
1000
0000
0000
0000
,
0001
0000
0001
0000
,
0001
0000
0000
0000
,
0100
0000
0100
0000
,
0100
0000
0010
0000
,
0100
0000
0010
0000
,
0010
0000
1000
0000
,
1000
1000
1000
1000
,
1000
0000
0001
0000
,
0010
0000
0100
0000
,
1000
0000
0001
0000
,
0000
0000
0001
0000
,
0100
0000
0020
0000
,
0000
0000
0030
0000
,
0200
0300
0200
0300
,
0100
0000
0001
0000
,
1000
0000
0001
0000
,
0010
0000
0100
0100
,
0200
0300
0200
0300
,
0100
0000
1000
0000
,
0010
0000
0010
0000
,
1000
0000
1000
0000
,
0002
0003
0002
0003
,
0010
0000
0200
0300
,
0200
0300
1000
0000
,
0010
0000
0100
0100
,
0200
0300
0200
0300
,
0001
0000
1000
0000
,
1001
0000
1001
0000
;
