#TITLE:青空のラプソディ;
#SUBTITLE:;
#ARTIST:fhána;
#TITLETRANSLIT:Aozora no Rhapsody;
#SUBTITLETRANSLIT:;
#ARTISTTRANSLIT:;
#GENRE:;
#CREDIT:;
#BANNER:Aozora no Rhapsody.png;
#BACKGROUND:Aozora no Rhapsody-bg.png;
#LYRICSPATH:;
#CDTITLE:;
#MUSIC:Aozora no Rhapsody.ogg;
#OFFSET:1.330000;
#SAMPLESTART:66.212143;
#SAMPLELENGTH:14.222221;
#LASTBEATHINT:263.992493;
#SELECTABLE:YES;
#BPMS:0.000000=135.000000
;
#STOPS:
;
#BGCHANGES:;
#KEYSOUNDS:;
#ATTACKS:;

//---------------dance-single - ----------------
#NOTES:
     dance-single:
     :
     Easy:
     7:
     0.329466,0.367162,0.170204,0.212755,0.000000,271.000000,251.000000,20.000000,25.000000,0.000000,0.000000,0.329466,0.367162,0.170204,0.212755,0.000000,271.000000,251.000000,20.000000,25.000000,0.000000,0.000000:
0000
0000
0000
0000
,
0000
0000
0000
0000
,
0000
0000
0000
0000
,
0000
0000
0000
0000
,
0000
0000
0000
0000
0000
0000
0010
0001
,
0010
0100
1000
1000
,
0010
0100
0000
0000
0010
0000
1010
0000
,
0010
0100
0001
0001
,
1000
1000
1000
1000
,
0010
0010
0010
0010
,
1000
0000
1000
0000
0100
0010
0000
0010
,
0001
0000
0001
0000
0100
0001
0010
0000
,
0001
0000
0001
0000
0100
0010
0000
0010
,
1000
0100
1000
0000
0001
0100
0001
0000
,
0010
0000
0010
0000
0001
0100
0000
0100
,
0010
0000
1000
0000
0100
1000
0010
0000
,
0100
0000
0100
0000
0001
0010
0000
0010
,
0001
1000
0100
1000
,
0001
0000
0010
0000
0001
0000
1000
1000
,
0100
0020
0032
2003
,
3010
0100
0000
0002
0000
0000
1000
0000
,
1003
0200
2300
3002
,
0013
0000
0100
2000
0000
0000
0010
0000
,
3010
0000
0100
0000
0001
0100
0001
0000
,
2000
0000
0000
3200
0000
0000
0310
0000
,
0001
1000
1000
0001
,
0020
0100
0100
0230
,
2300
0001
0001
0001
,
3010
0010
0010
1001
,
0001
0100
0000
0100
0000
0100
0000
0100
,
0010
1000
0000
1000
0000
1000
0000
1000
,
0100
0010
0000
0010
0000
0010
0000
0010
,
0001
1000
0000
1000
0000
0001
0000
0001
,
1000
0100
0000
0100
0000
0010
0000
0010
,
0002
0023
0230
2300
,
3100
0000
0000
0100
0000
0000
0100
0000
,
1000
0000
0000
1000
0000
0000
1000
0000
,
0001
0000
0000
0001
0000
0000
0001
0000
,
0011
0000
0000
2002
0000
0000
3003
0000
,
1000
0010
0001
0100
,
1000
0010
0001
0011
,
0001
0010
1000
0100
,
0001
0010
1000
1010
,
1000
0100
0001
0100
,
0010
0100
1001
0110
,
0010
0010
1000
0001
,
0010
1000
0001
0100
,
1000
0010
0001
0100
,
1000
0010
0001
0210
,
0301
0010
1000
0100
,
0001
0010
0100
1001
,
1000
1000
0010
0001
,
0010
0100
0001
0001
,
1000
0100
0000
0100
0000
0010
0000
0010
,
0001
0100
0000
0100
0000
0010
0000
0010
,
1000
0010
0000
0100
0000
0001
1000
0000
,
0011
0011
0001
0100
,
0010
0100
0100
1001
,
1010
1010
1000
0100
,
0010
0100
0001
0110
,
1100
1100
1000
0010
,
0100
0010
1000
1001
,
0020
0001
0001
0032
,
0203
0010
0010
0301
,
0000
2002
0000
0000
,
0000
0000
0000
0000
,
0000
0000
0000
3003
0000
0000
0000
0000
;

//---------------dance-single - ----------------
#NOTES:
     dance-single:
     :
     Hard:
     15:
     0.787802,0.819054,0.570184,0.331898,0.795704,648.000000,581.000000,67.000000,39.000000,0.000000,0.000000,0.787802,0.819054,0.570184,0.331898,0.795704,648.000000,581.000000,67.000000,39.000000,0.000000,0.000000:
0000
0000
0000
0000
,
0000
0000
0000
0000
,
0000
0000
0000
0000
,
0000
0000
0000
0000
,
0000
0000
0000
0000
0000
0000
0001
1000
,
0011
0000
0000
0000
0101
0000
0000
0000
0001
0000
0100
0000
0001
0000
1000
0010
,
0000
0000
0101
0000
0000
0000
0000
0000
0011
0000
0000
0000
0001
1000
0000
0000
,
1010
0000
0000
0000
1100
0000
0000
0000
1000
0000
0100
0000
0010
0001
1000
0010
,
0100
0001
0000
0100
0001
0000
0100
0001
0000
0100
0001
0000
0101
0000
1001
0000
,
1000
0100
0010
1000
0010
0100
1000
0100
0010
1000
0010
0100
1000
0000
1002
0000
,
0013
0000
0001
0000
1000
0010
0100
0001
0000
0001
0020
0000
0100
0000
0031
1000
,
0010
0000
0010
0000
1000
0010
0000
0101
0000
0011
0000
2001
0000
0000
3010
0000
,
0010
0000
1000
0000
0001
0010
0100
1000
0000
0010
2000
0000
0100
0000
3001
0010
,
0001
0000
1000
0100
0000
1100
0000
1010
0000
0010
0100
0000
0010
1000
0001
0100
,
0001
0000
1000
0000
0001
0100
0010
1000
0000
1000
0200
0000
0010
0000
1300
0001
,
0010
0000
0010
0000
0001
0010
0000
1100
0000
1010
0000
1002
0000
0000
0103
0000
,
0010
1000
0010
0000
0100
0010
1000
0001
0000
0010
0001
0000
1000
0000
0100
1000
,
0001
0000
0010
0001
0000
0011
0000
1001
0000
1000
0010
0000
0110
0000
0010
0000
,
1000
0000
0100
1000
0000
1010
0000
1001
0000
0001
0100
0000
0110
0000
1001
0000
,
0001
0000
0100
0000
0010
0001
0000
0020
0000
0000
1030
0000
0100
0000
1000
0000
,
0010
0000
0100
0001
1000
0000
0001
0000
0000
0100
0002
0000
0010
0000
0000
0000
,
1003
0000
0010
0000
0100
1000
0000
0200
0000
0000
0310
0000
0001
0000
0010
0000
,
1000
0000
0001
0010
0000
0010
0100
0000
0000
0100
1000
0100
0010
0100
0010
0001
,
0100
0000
0010
0000
0100
0001
0000
0200
0000
0000
0310
0000
1000
0000
0100
0000
,
1000
0000
0100
0001
0000
0100
2000
0000
0000
0000
3001
0000
0100
0001
0010
0000
,
0001
0000
0100
0001
1000
0000
0100
1000
0001
0000
0100
0000
0010
0100
0010
0100
,
0010
1000
0000
0010
1000
0000
0010
1000
0000
0010
1000
0000
1010
0000
1001
0000
,
0001
0010
0000
0001
0010
0000
0001
0010
0000
0001
0010
0000
0011
0000
0110
0000
,
0100
1000
0001
0100
0001
1000
0100
1000
0001
0100
0001
1000
0010
0000
0110
0000
,
1000
0000
0010
0100
0001
0000
0001
1000
0100
1000
0001
0010
0000
0010
0001
0100
,
0001
0000
1000
0100
1000
0000
1000
0001
0100
0001
1000
0010
0000
0010
1000
0100
,
1000
1100
0010
0011
0100
0101
1000
1010
,
0020
0000
0000
1030
0100
1000
0001
0010
0000
0100
0010
0000
0100
1000
0001
0100
,
0001
0000
0002
0000
0103
0020
0000
0130
0001
0000
1000
0000
0100
0000
0001
0000
,
0100
0000
1000
0002
0020
0000
0033
0000
2200
0000
0300
0000
3001
0000
1000
0000
,
0001
0000
0100
0010
0000
0001
0010
0000
1000
0000
1000
0100
1000
0000
1100
0000
,
1000
0000
0100
0010
0000
1000
0010
0000
0001
0000
0001
0100
0001
0000
0101
0000
,
0001
0000
0010
1000
0000
0010
0001
0000
0010
1000
0000
0010
0001
0000
0100
0000
,
0010
0000
0001
0010
0000
1000
0010
0000
0100
0001
1000
0100
1000
0001
0010
0000
,
0001
0000
0100
0001
1000
0000
1020
0000
1030
0000
0010
1000
0100
0000
0021
0000
,
0130
0000
0010
0001
0100
0000
0201
0000
0301
0100
0010
1000
0001
0000
0001
1000
,
0100
0000
0100
1000
0001
0000
0021
0000
0031
0000
0001
1000
0010
0000
2010
0000
,
3020
0000
0001
0100
0100
0000
1030
0010
,
1000
0000
0100
1000
0001
0000
0201
0000
0301
0000
1000
0100
1000
0000
2100
0000
,
3100
0000
1000
0010
0100
0000
0110
0000
1001
0000
0000
0000
0001
0000
0100
0001
,
0010
0000
0001
0010
0001
0000
1002
0000
1003
0000
0010
1000
0010
0000
0210
0000
,
0310
0000
0010
1000
0000
1000
0001
0000
0001
0010
0000
0010
0100
0000
1001
0000
,
1000
0000
0100
0010
0001
0000
0201
0000
0301
0000
0010
0100
1000
0000
1200
0000
,
1300
0000
0001
0100
0010
0000
1010
0000
1001
0000
0000
0001
0010
0000
0001
0100
,
0010
0000
1000
0010
0100
0000
0120
0000
0130
0000
0001
0010
0001
0000
0021
0000
,
0230
0000
0000
0000
0001
0000
0001
0000
0310
0001
0010
0001
1000
0100
1000
0100
,
0010
0000
0001
1000
0010
0000
0100
0000
0010
0000
1000
0001
0100
0000
0001
0000
,
0010
0000
0100
1000
0001
0000
0100
0000
0102
0000
0000
0000
1000
0000
0000
0000
,
1003
0000
0010
0000
1000
0100
1000
0100
0000
0010
0001
0000
1001
0000
0011
0000
,
0001
0000
0010
0000
0001
0100
0001
0100
0000
0010
1000
0000
1001
0000
1020
0000
,
0130
0000
0010
0000
1000
0010
1000
0010
0000
0100
0001
0000
0011
0000
1100
0000
,
1001
0000
0000
0000
0101
0000
0000
0000
0011
0000
0100
0000
1000
0000
0001
0010
,
0000
0000
0100
0000
0110
0000
0000
0000
1100
0000
0000
0000
0001
0100
0001
0100
,
0001
0000
0010
0000
1000
0000
0010
0001
0000
0001
1000
0000
0100
0000
0100
0010
,
0001
0000
0100
0000
1000
0000
0100
0010
0000
1000
0001
1000
0010
0100
0001
0000
,
1000
0000
0010
0000
0001
0000
0010
1000
0000
1000
0001
0000
0100
0000
0100
0010
,
1000
0000
0100
0000
0001
0000
0100
0010
0000
0001
0100
0000
0001
0000
1000
0001
,
0020
0000
0001
0000
0100
0000
0032
0000
1000
0000
0100
0000
1003
0000
1000
0010
,
0100
0000
0000
0000
0000
0000
0001
0000
0000
0000
0000
0000
1000
0000
0000
0000
0000
0000
0100
0000
0000
1000
0000
0000
0001
0000
0000
0000
0100
0000
0001
0000
0000
0000
1000
0000
0010
0000
0000
0000
1000
0000
0100
0000
0000
0000
0010
0000
,
0000
0220
0000
0000
,
0000
0000
0000
0000
,
0000
0000
0000
0330
0000
0000
0000
0000
;

//---------------dance-single - ----------------
#NOTES:
     dance-single:
     :
     Medium:
     12:
     0.588420,0.593108,0.221265,0.280837,0.425510,484.000000,458.000000,26.000000,33.000000,0.000000,0.000000,0.588420,0.593108,0.221265,0.280837,0.425510,484.000000,458.000000,26.000000,33.000000,0.000000,0.000000:
0000
0000
0000
0000
,
0000
0000
0000
0000
,
0000
0000
0000
0000
,
0000
0000
0000
0000
,
0000
0000
0000
0000
0000
0000
1000
1000
,
0001
0000
0000
0000
0101
0000
0000
0000
0001
0000
0100
0000
0001
0000
1000
0010
,
0000
0000
1010
0000
0000
0000
0000
0000
0011
0000
0000
0000
0010
0001
0000
0000
,
1000
0000
1100
0000
1000
0100
0010
0001
,
1000
0000
0000
1000
0000
0000
1000
0000
0000
1000
0000
0000
1000
0000
0010
0000
,
0100
0001
0000
0100
0001
0000
0100
0001
0000
0100
0001
0000
1000
0000
0100
0000
,
1000
0000
0010
0000
0100
0000
0001
0010
0000
0001
1000
0000
0100
0000
0100
1000
,
0010
0000
0010
0000
1000
0010
0000
0001
0000
0010
0000
2000
0000
0000
3100
0000
,
0010
0000
0001
0000
0100
0000
0010
0001
0000
0010
0100
0000
0001
0000
1000
0100
,
0010
0000
0100
1000
0000
0001
0000
0100
0000
1000
0100
0000
0010
0000
1000
0000
,
0001
0000
0100
0000
0010
1000
0010
0100
0000
0001
1000
0000
0001
0000
0010
0001
,
0100
0000
0100
0000
0001
0100
0000
1000
0000
0100
0000
0002
0000
0000
0013
0000
,
0100
0000
1000
0000
0010
0100
0001
1000
0000
0100
0010
0000
0001
0000
1000
0001
,
0100
0000
0010
0001
0000
0010
0000
1000
0000
0001
0100
0000
0001
0000
1000
0000
,
0100
0000
0010
1000
0000
0010
0000
0002
0000
0000
1003
0000
0010
0000
0100
0000
,
0001
0000
0010
0000
0001
0010
0000
0200
0000
0000
1300
0000
0100
0000
1000
0000
,
0010
0200
0000
2000
0000
3000
0301
0000
,
1000
0000
0100
0000
1000
0100
0000
0020
0000
0000
0031
0000
0010
0000
0001
0000
,
0100
0000
0001
0010
0000
0200
0002
0000
0000
0000
0003
0000
1300
0000
0000
0000
,
0001
0000
0100
0000
0010
0001
0000
0020
0000
0000
1030
0000
0100
0000
0010
0000
,
1000
0000
0000
0010
0000
0000
0120
0000
0000
0000
0031
0000
1000
0000
0010
0000
,
1000
0000
0100
1000
0100
0000
0010
0100
0010
0000
0001
0010
0001
0000
1000
0000
,
0010
0000
0000
0010
0000
0000
0010
0000
0000
0010
0000
0000
0010
0000
1000
0000
,
0100
0000
0000
0100
0000
0000
0100
0000
0000
0100
0000
0000
0100
0000
0010
0000
,
0001
1000
0000
0001
1000
0000
0001
1000
0000
0001
1000
0000
0100
0000
0010
0000
,
0001
0100
0001
0010
1000
0010
0001
1000
,
1000
0010
1000
0100
0001
0100
0010
0001
,
0100
0100
0001
0001
1000
1000
0100
0100
,
0010
0100
0100
1000
0010
0010
0100
1001
,
0001
0010
1000
0010
0001
0100
0010
1000
,
0100
1000
2020
3030
0202
0000
0303
0001
,
1000
0000
0100
1000
0000
0100
2000
0000
0000
0000
3010
0000
0100
0000
0100
0000
,
0001
0000
0100
0001
0000
0100
0002
0000
0000
0000
0013
0000
0001
0000
1000
0000
,
1010
0000
0000
1010
0000
0000
0011
0000
0000
0011
0000
0000
1001
0000
1000
0000
,
0010
0000
0001
0010
0000
0100
0002
0000
0000
0000
1000
0000
1000
0000
0023
0000
,
0130
0000
0000
1000
0001
0000
0010
0000
0001
0000
0000
1000
0001
0000
0100
0000
,
0010
0000
0000
0001
0010
0000
0100
0000
0002
0000
0000
0000
1000
0000
1003
0100
,
0010
0000
0000
0001
1000
0000
0100
0000
1000
0000
0000
0001
1000
0000
0010
0000
,
0200
0000
0001
0001
0320
0000
2030
0100
,
3001
0000
0000
0100
1000
0000
0100
0000
0001
0000
0000
0010
1000
0000
0010
0000
,
0001
0000
0000
0100
0010
0000
1000
0000
0001
0000
0000
0000
1000
0000
1000
0100
,
0010
0000
0000
0001
0100
0000
0010
0000
0100
0000
0000
0001
1000
0000
0100
0000
,
0110
0000
0000
0011
0000
0000
1001
0000
0000
1010
0000
0000
0110
0000
0010
0000
,
0100
0000
0000
0100
0001
0000
0010
0000
1000
0000
0000
0100
0001
0000
0010
0000
,
1000
0000
0000
0010
0001
0000
0100
0000
2000
0000
0000
0000
3100
0000
0100
0001
,
0010
0000
0000
0001
0100
0000
1000
0000
0010
0000
0000
0001
0100
0000
1000
0000
,
0002
0000
0000
0000
0013
0000
0020
0000
2030
0000
0000
0000
0100
0000
3001
0100
,
0010
0000
0000
1000
0010
0000
0100
0000
0010
0000
0100
0001
0100
0000
0001
0000
,
0010
0000
0010
0100
0000
0000
1000
0000
0002
0000
0000
0000
1000
0000
0000
0000
,
1003
0000
0100
0000
0010
0001
0010
0001
0000
0000
0100
0000
0001
0000
1000
0000
,
0001
0000
0010
0000
0100
1000
0100
1000
0000
0000
0010
0000
1000
0000
0001
0000
,
0100
0000
0010
0000
0010
1000
0001
0010
0000
0000
0100
0000
0010
0000
0100
0000
,
1000
1100
0101
0011
,
1010
0000
1100
0000
0101
0000
0001
0001
,
1000
0000
0100
0000
0010
0000
0100
0000
0001
0000
0100
0000
0010
0000
0001
0010
,
0001
0100
0010
0100
1000
0100
0120
0000
,
1030
0100
1000
0001
0010
0001
1000
0010
,
1000
0001
0100
0001
1000
0100
0010
0100
,
0020
0001
0100
0001
0230
1000
0010
1000
,
0310
0001
1000
0010
0100
0001
1000
0100
,
0000
0220
0000
0000
,
0000
0000
0000
0000
,
0000
0000
0000
0330
0000
0000
0000
0000
;

//---------------dance-single - ----------------
#NOTES:
     dance-single:
     :
     Beginner:
     3:
     0.162910,0.246051,0.017020,0.093612,0.000000,134.000000,132.000000,2.000000,11.000000,0.000000,0.000000,0.162910,0.246051,0.017020,0.093612,0.000000,134.000000,132.000000,2.000000,11.000000,0.000000,0.000000:
0000
0000
0000
0000
,
0000
0000
0000
0000
,
0000
0000
0000
0000
,
0000
0000
0000
0000
,
0000
0000
0000
0010
,
1000
0000
1000
0000
,
0010
0100
0000
0100
,
0001
0000
0001
0000
,
2000
0000
0000
3000
,
0002
0000
0000
0003
,
0010
0000
0100
0000
,
0010
0000
0001
0000
,
0010
0000
0100
0000
,
1000
1000
1000
0000
,
0010
0000
0100
0000
,
0010
0000
1000
0000
,
0100
0000
0010
0000
,
0001
0001
0001
0000
,
1000
1000
1000
1000
,
0000
0010
0000
0010
,
0100
0000
0100
0000
,
0000
0001
0000
0001
,
1000
0000
1000
0000
,
0000
0100
0000
0100
,
0010
0000
0010
0000
,
0000
0001
0001
0001
,
2000
0000
0000
3000
,
0020
0000
0000
0030
,
0200
0000
0000
0300
,
0001
0001
0001
0001
,
1000
1000
1000
1000
,
0100
0100
0100
0100
,
0010
0010
0020
0030
,
0001
0000
1000
0000
,
0100
0010
0001
0000
,
1000
0000
1000
0000
,
0001
0000
0001
0000
,
0200
0000
0000
0300
,
0010
0010
0010
0000
,
1000
0000
0010
0000
,
0001
0000
0100
0000
,
1000
0000
0100
0000
,
0001
0000
0010
0000
,
1000
0000
0001
0000
,
0001
0000
1000
0000
,
0010
0000
0100
0000
,
0220
0000
0030
0000
,
0301
0000
0010
0000
,
1000
0000
0100
0000
,
0001
0000
0100
0000
,
1000
0000
0010
0000
,
0001
0000
0001
0000
,
0010
0000
0100
0000
,
1000
1000
1000
1000
,
0001
0001
0001
0001
,
0010
0010
0010
0010
,
0100
0000
0100
0000
,
1000
0000
0001
0000
,
0100
0000
0100
0000
,
0001
0000
1000
0000
,
0010
0000
0010
0000
,
1000
0000
0001
0000
,
0020
0000
0000
0030
,
0200
0000
0000
0300
,
0000
1001
0000
0000
;

//---------------dance-double - ----------------
#NOTES:
     dance-double:
     :
     Challenge:
     14:
     0.699052,0.819054,0.229776,0.255306,0.676561,575.000000,548.000000,27.000000,30.000000,0.000000,0.000000,0.699052,0.819054,0.229776,0.255306,0.676561,575.000000,548.000000,27.000000,30.000000,0.000000,0.000000:
// measure 0
00000000
00000000
00000000
00000000
,  // measure 1
00000000
00000000
00000000
00000000
,  // measure 2
00000000
00000000
00000000
00000000
,  // measure 3
00000000
00000000
00000000
00000000
,  // measure 4
00000000
00000000
00000000
00000000
00000000
00000000
00000001
00000001
,  // measure 5
00000011
00000000
00000000
00000000
00001100
00000000
00000000
00000000
00000010
00000000
00001000
00000000
00000100
00000000
00010000
00000010
,  // measure 6
00000000
00000000
00000110
00000000
00000000
00000000
00000000
00000000
00001010
00000000
00000000
00000000
00000100
00010000
00000000
00000000
,  // measure 7
00110000
00000000
00000000
00000000
11000000
00000000
00000000
00000000
00100000
00000000
10000000
00000000
00100000
01000000
00010000
10000000
,  // measure 8
01000000
00100000
00000000
01000000
00100000
00000000
01000000
00100000
00000000
01000000
00100000
00000000
00010000
00000000
00001000
00000000
,  // measure 9
00000100
00000010
00000000
00000100
00000010
00000000
00000100
00000010
00000000
00000100
00000010
00000000
00000001
00000000
00001000
00000000
,  // measure 10
00000010
00000000
00000001
00000000
00000010
00000000
00001000
00000100
00000000
00001000
00000010
00000000
00010000
00000000
00001000
01000000
,  // measure 11
00100000
00000000
00100000
00000000
00010000
00100000
00000000
10000000
00000000
01000000
00000000
00010000
00000000
01000000
00100000
00000000
,  // measure 12
00100000
00000000
10000000
00000000
00100000
00000000
00010000
01000000
00000000
00100000
01000000
00000000
00001000
00000000
00010000
00000010
,  // measure 13
00000100
00000000
00000100
00001000
00000000
00000100
00000000
00000001
00000000
00000010
00000100
00000000
00000010
00000001
00001000
00000000
,  // measure 14
00000100
00000000
00000001
00000000
00000100
00000010
00000001
00001000
00000000
00000010
00001000
00000000
00000100
00000000
00010000
00001000
,  // measure 15
00100000
00000000
00100000
00000000
00010000
00100000
00000000
10000000
00000000
00010000
00000000
01000000
00000000
00100000
00010000
00000000
,  // measure 16
01000000
00100000
01000000
00000000
00010000
10000000
00100000
01000000
00000000
00001000
00010000
00000000
00000100
00000000
00001000
00000010
,  // measure 17
00001000
00000000
00000100
00000010
00000000
00000001
00000000
00000100
00000000
00000010
00001000
00000000
00010000
00000000
01000000
00000000
,  // measure 18
00001000
00000000
00010000
00100000
00000000
10000000
00000000
02000000
00000000
00000000
03100000
00000000
00010000
01000000
00001000
00000000
,  // measure 19
01000000
00000000
00100000
00000000
00010000
00001000
00000000
00200000
00000000
00000000
01300000
00000000
10000000
00000000
00010000
00000000
,  // measure 20
00100000
00002000
00000000
02000000
00000000
03000000
00023000
00000000
,  // measure 21
00030100
00000000
00000010
00000000
00001000
00010000
00000000
00000020
00000000
00000000
00000130
00000000
00000001
00000000
00000010
00000000
,  // measure 22
00000001
00000000
00000001
00000100
00000000
00000100
00002000
00000000
00000000
00013000
00000100
00000000
00000010
00000001
00000100
00000000
,  // measure 23
00000001
00000000
00000010
00000000
00001000
00000001
00000000
00000200
00000000
00000000
00010300
00000000
00001000
00000000
01000000
00000000
,  // measure 24
00020000
00000000
00000000
00032000
00000000
00000000
00203000
00000000
00000000
00000000
10300000
00000000
01000000
10000000
00100000
00000000
,  // measure 25
01000000
00000000
00010000
00200000
00010000
00000000
00301000
00020000
00001000
00000000
00030010
00002000
00000010
00000000
00003001
00000000
,  // measure 26
00000100
00000010
00000000
00000100
00000010
00000000
00000100
00000010
00000000
00000100
00000010
00000000
00010000
00000000
00001000
00000000
,  // measure 27
01000000
00100000
00000000
01000000
00100000
00000000
01000000
00100000
00000000
01000000
00100000
00000000
10000000
00000000
00010000
00000000
,  // measure 28
00100000
00010000
00100000
00001000
00010000
00001000
01000000
00010000
01000000
00001000
00010000
00000100
00000010
00000000
00000011
00000000
,  // measure 29
00000001
00000000
00000100
00000001
00000010
00000000
00000010
00000001
00000100
00000001
00001000
00000010
00000000
00010000
00001000
01000000
,  // measure 30
00100000
00000000
00100000
10000000
01000000
00000000
01000000
10000000
00100000
10000000
00010000
01000000
00000000
00001000
00010000
00000010
,  // measure 31
00000100
00000101
00000001
00000011
00000010
00000110
00000100
00002100
,  // measure 32
00003020
00000000
00000000
00010030
00000100
00010000
00001000
00100000
00000000
00000000
11000000
00000000
00000000
10000000
00100000
00000000
,  // measure 33
10000000
00000000
00200000
00000000
10300000
02000000
00000000
13000000
00010000
00000000
00100000
00000000
01000000
00000000
00010000
00000000
,  // measure 34
00001000
00000100
00000120
00000000
00002030
00000000
00000000
00003100
,  // measure 35
00010000
00000000
00000100
00001000
00000000
00000100
00010000
00000000
00000010
00000000
00001000
00000000
00000100
00010000
00001000
00000000
,  // measure 36
00001000
00000000
01000000
00010000
00000000
01000000
00001000
00000000
00100000
00000000
01000000
00000000
10000000
00010000
00100000
00000000
,  // measure 37
00100000
00000000
00001000
00010000
00000000
00000010
00010000
00000000
00001000
01000000
00000000
00001000
00010000
00000000
00000100
00000000
,  // measure 38
00000010
00000000
00000001
00000100
00000000
00000010
00001000
00000000
00000100
00000010
00001000
00000001
00000100
00001000
00000010
00000000
,  // measure 39
00000100
00000000
00000001
00000010
00001000
00000000
00010000
00000000
01000000
00000000
10000000
00100000
00010000
00000000
00001000
00000000
,  // measure 40
00000100
00000000
00000001
00000010
00001000
00000000
00010000
00000000
00200000
00000000
00000000
00000000
01300000
00000000
00010000
00100000
,  // measure 41
10000000
00000000
00100000
00010000
01000000
00000000
00001000
00000000
00010000
00000000
00000010
00001000
00000100
00000000
00000001
00000000
,  // measure 42
00000200
00000000
00000000
00000000
00000010
00000000
00000010
00000000
00001300
00000000
00000010
00001000
00000001
00000000
00000010
00000000
,  // measure 43
00000100
00000000
00001000
00000001
00000100
00000000
00001000
00000000
00010000
00000000
01000000
10000000
00010000
00000000
00100000
00000000
,  // measure 44
10000000
00000000
00100000
00001000
00010000
00000000
00000010
00000000
00000210
00000000
00000000
00000000
00000301
00000000
00000100
00000001
,  // measure 45
00000010
00000000
00001000
00000010
00000001
00000000
00001000
00000000
00000010
00000000
00010000
00001000
01000000
00000000
00010000
00000000
,  // measure 46
00100000
00000000
00001000
00010000
00000000
00100000
01000000
00000000
00001000
00010000
00000000
01000000
00100000
00000000
00010000
00000000
,  // measure 47
10000000
00000000
00100000
00010000
00001000
00000000
00000010
00000000
00000001
00000000
00000100
00001000
00010000
00000000
01000000
00000000
,  // measure 48
10000000
00000000
00100000
00010000
00001000
00000000
00000010
00000000
00000200
00000000
00000000
00000000
00000310
00000000
00000001
00000100
,  // measure 49
00001000
00000000
00000100
00000010
00001000
00000000
00000100
00000000
00010000
00000000
01000000
00100000
00010000
00000000
10000000
00000000
,  // measure 50
00200000
00000000
00000000
00000000
01000000
00000000
01000000
00000000
10300000
00000000
01000000
00010000
10000000
00000000
00100000
00010000
,  // measure 51
01000000
00000000
00010000
10000000
00100000
00000000
00010000
00000000
00001000
00000000
00000010
00000001
00001000
00000000
00000100
00000000
,  // measure 52
00000001
00000000
00000100
00010000
00001000
00000000
01000000
00000000
01200000
00000000
00000000
00000000
20300000
00000000
00000000
00000000
,  // measure 53
31000000
00000000
00100000
00000000
00001000
00010000
00001000
00010000
00000000
00000100
00010000
00000000
00000010
00000000
00000100
00000000
,  // measure 54
00000100
00000000
00000010
00000000
00010000
00001000
00010000
00001000
00000000
01000000
00100000
00000000
00010000
00000000
00001000
00000000
,  // measure 55
01000000
00000000
00000100
00000000
00010000
00001000
00010000
00002000
00000000
00000000
00013000
00000000
00100000
00000000
10000000
00000000
,  // measure 56
01000000
01100000
00110000
00011000
,  // measure 57
00001100
00000000
00000000
00000000
00000110
00000000
00000000
00000000
00000011
00000000
00000000
00000000
00000001
00000100
00000001
00000100
,  // measure 58
00000001
00000000
00000010
00000000
00001000
00000000
00000010
00000000
00000001
00000000
00000100
00000000
00001000
00000000
00010000
00100000
,  // measure 59
10000000
00000000
01000000
00000000
00010000
00000000
01000000
00000000
10000000
00000000
00100000
00000000
00010000
00001000
00010000
00001000
,  // measure 60
00010000
00000000
00100000
00000000
10000000
00000000
00100000
00000000
00010000
00000000
00001000
00000000
00000100
00000000
00000001
00000010
,  // measure 61
00001000
00000010
00000001
00000100
00000010
00010000
00001000
01000000
,  // measure 62
00100000
00000000
10100000
00000000
10000000
00000000
11000000
00000000
01000000
00000000
01100000
00000000
00100000
00000000
00001000
00010000
,  // measure 63
00000100
00000000
00000000
00001100
00000000
00000000
00001000
00000000
00000000
00001010
00000000
00000000
00000010
00000000
00000100
00000001
00000000
00000010
00000100
00000000
00010000
00001000
00000000
00100000
,  // measure 64
00000000
02200000
00000000
00000000
,  // measure 65
00000000
00000000
00000000
00000000
,  // measure 66
00000000
00000000
00000000
03300000
00000000
00000000
00000000
00000000
;
