#VERSION:0.83;
#TITLE:Angelfalse;
#SUBTITLE:;
#ARTIST:Sakuzyo;
#TITLETRANSLIT:;
#SUBTITLETRANSLIT:;
#ARTISTTRANSLIT:;
#GENRE:;
#ORIGIN:;
#CREDIT:;
#BANNER:angelfalse.png;
#BACKGROUND:angelfalse-bg.png;
#PREVIEWVID:;
#JACKET:angelfalse-jacket.png;
#CDIMAGE:;
#DISCIMAGE:;
#LYRICSPATH:;
#CDTITLE:cdtitle.png;
#MUSIC:Angelfalse.ogg;
#OFFSET:0.000000;
#SAMPLESTART:93.988991;
#SAMPLELENGTH:16.300575;
#SELECTABLE:YES;
#BPMS:0.000=173.000;
#STOPS:;
#DELAYS:;
#WARPS:155.000=16.000;
#TIMESIGNATURES:0.000=4=4;
#TICKCOUNTS:0.000=4;
#COMBOS:0.000=1;
#SPEEDS:0.000=1.000=0.000=0;
#SCROLLS:0.000=1.000,
56.000=0.750,
104.000=0.000,
108.500=1.000,
110.000=0.000,
115.000=1.000,
116.000=0.000,
120.500=1.000,
122.000=0.000,
124.000=0.250,
124.500=0.500,
125.000=0.750,
125.500=1.000;
#FAKES:;
#LABELS:0.000=Song Start;
#BGCHANGES:;
#KEYSOUNDS:;
#ATTACKS:
;

//---------------dance-single - MEGAtive----------------
#NOTEDATA:;
#CHARTNAME:;
#STEPSTYPE:dance-single;
#DESCRIPTION:MEGAtive;
#CHARTSTYLE:;
#DIFFICULTY:Beginner;
#METER:5;
#RADARVALUES:0.218758,0.447185,0.295904,0.162747,0.000000,207.000000,167.000000,40.000000,22.000000,0.000000,0.000000,0.000000,0.000000,0.000000,0.218758,0.447185,0.295904,0.162747,0.000000,207.000000,167.000000,40.000000,22.000000,0.000000,0.000000,0.000000,0.000000,0.000000;
#CREDIT:;
#OFFSET:0.000000;
#BPMS:0.000000=173.000000
;
#STOPS:;
#DELAYS:;
#WARPS:;
#TIMESIGNATURES:0.000000=4=4
;
#TICKCOUNTS:0.000000=4
;
#COMBOS:0.000000=1
;
#SPEEDS:0.000000=1.000000=0.000000=0
;
#SCROLLS:0.000000=1.000000
,104.000000=0.500000
,124.000000=0.600000
,124.500000=0.700000
,125.000000=0.800000
,125.500000=0.900000
,126.000000=1.000000
,205.000000=0.750000
,266.000000=0.800000
,266.500000=0.850000
,267.000000=0.900000
,267.500000=0.950000
,268.000000=1.000000
,313.000000=0.500000
,318.000000=1.000000
;
#FAKES:;
#LABELS:0.000000=Song Start
;
#NOTES:
0000
0000
0000
0000
,
0000
0000
0000
0000
,
0000
0000
0000
0000
,
0000
0000
0000
0000
,
0000
0000
0000
0000
,
0000
0000
0000
0000
,
0000
0000
0000
0000
,
0000
0000
0000
0000
,
1001
0000
0000
1000
,
0000
0000
0100
0000
,
0000
0010
0000
0000
,
0001
0000
0000
0100
,
0000
0000
0010
0000
,
0000
1000
0000
0000
,
0002
0000
0000
0023
,
0000
0000
0230
0000
,
0000
2300
0000
0000
,
3020
0000
0000
2030
,
0000
0000
3002
0000
,
0000
0023
0000
0000
,
0031
0000
0000
1000
,
0000
0000
0010
0000
,
0000
0100
0000
0000
,
0001
0000
0000
1000
,
0000
0000
0100
0000
,
0000
0010
0000
0000
,
1001
0000
0000
0000
,
0000
0000
1001
0000
,
0000
0000
0000
0000
,
1001
0000
0000
0000
,
0000
0000
1001
0000
,
0000
0000
0000
0000
,
0000
1001
0001
0001
,
0010
0000
0110
1001
,
1000
1000
0010
0000
,
0100
0001
1001
1000
,
1000
0100
0000
0110
,
1001
0001
0001
0100
,
0000
0010
1000
0000
,
0001
0011
0000
1000
,
0010
0010
1000
1100
,
0000
0001
0100
0100
,
0001
1000
1010
0000
,
0001
0010
0010
0001
,
0101
0000
1000
0100
,
0100
1000
1002
0000
,
0000
0023
0000
0000
,
0230
0000
0000
1000
,
1000
2300
0000
0000
,
3020
0000
0000
0230
,
0000
0000
0302
0000
,
0003
1001
0000
0000
,
0010
0000
0000
0100
,
0000
0000
0010
0000
,
0000
0001
0000
0000
,
1000
0000
0000
0010
,
0000
0000
1000
0000
,
0000
0001
0000
0000
,
0010
0000
0000
0100
,
0000
0000
1000
0000
,
0000
0020
0000
0000
,
0000
0000
0000
0230
,
0000
0000
0302
0000
,
0000
1003
0000
0000
,
0000
0000
0000
0000
,
0000
0000
0000
0000
,
0000
0000
0000
0000
,
0000
0000
0000
0001
,
0001
0000
0010
0010
,
0000
0100
0100
0000
,
1000
1000
0000
0001
,
0001
0000
0100
0100
,
0000
0010
0010
0000
,
1000
1000
0100
1000
,
1000
0000
0010
0010
,
0000
0100
0100
0000
,
0001
0001
0000
1000
,
1000
0000
0100
0100
,
0000
2002
0000
0000
,
0000
0000
3003
0001
,
0110
0000
1000
0001
,
0001
1000
0110
0000
,
0001
1000
1000
0100
,
1000
0011
0000
0001
,
1000
1000
0001
0110
,
0000
0001
1000
1000
,
0100
0011
0011
0000
,
1001
1001
0000
1010
,
1010
0000
0110
0110
,
0000
0000
1001
1001
,
0000
0011
0011
0000
,
0101
0101
0000
1100
,
1100
0000
0110
2002
,
3003
0000
0000
0000
;

//---------------dance-single - MEGAtive----------------
#NOTEDATA:;
#CHARTNAME:;
#STEPSTYPE:dance-single;
#DESCRIPTION:MEGAtive;
#CHARTSTYLE:;
#DIFFICULTY:Easy;
#METER:8;
#RADARVALUES:0.359312,0.551861,0.310699,0.251518,0.000000,340.000000,298.000000,42.000000,34.000000,0.000000,0.000000,0.000000,0.000000,1.000000,0.359312,0.551861,0.310699,0.251518,0.000000,340.000000,298.000000,42.000000,34.000000,0.000000,0.000000,0.000000,0.000000,1.000000;
#CREDIT:;
#OFFSET:0.000000;
#BPMS:0.000000=173.000000
;
#STOPS:;
#DELAYS:;
#WARPS:155.000000=1.000000
;
#TIMESIGNATURES:0.000000=4=4
;
#TICKCOUNTS:0.000000=4
;
#COMBOS:0.000000=1
;
#SPEEDS:0.000000=1.000000=0.000000=0
;
#SCROLLS:0.000000=1.000000
,56.000000=0.750000
,104.000000=0.000000
,108.000000=1.000000
,110.000000=0.000000
,114.000000=1.000000
,116.000000=0.000000
,120.000000=1.000000
,122.000000=0.000000
,124.000000=0.250000
,124.500000=0.500000
,125.000000=0.750000
,125.500000=1.000000
,206.000000=0.500000
,254.000000=0.000000
,268.000000=0.500000
,270.000000=1.000000
,314.000000=0.500000
,317.000000=0.000000
,319.000000=1.000000
,372.000000=0.000000
;
#FAKES:;
#LABELS:0.000000=Song Start
;
#NOTES:
0000
0000
0000
0000
,
0000
0000
0000
0000
,
0000
0000
0000
0000
,
0000
0000
0000
0000
,
0000
0000
0000
0000
,
0000
0000
0000
0000
,
0000
0000
0000
0000
,
0000
0000
0000
0000
,
1001
0000
0000
0011
,
0000
0000
1010
0000
,
0000
1100
0000
0000
,
0101
0000
0000
1100
,
0000
0000
1010
0000
,
0000
0101
0000
0000
,
1002
0000
0000
0023
,
0000
0000
0230
0000
,
0000
2300
0000
0000
,
3002
0000
0000
0203
,
0000
0000
0320
0000
,
0000
2030
0000
3000
,
1001
0000
0000
0011
,
0000
0000
1100
0000
,
0000
1010
0000
0000
,
0101
0000
0000
1100
,
0000
0000
1001
0000
,
0000
0110
0000
0000
,
1001
0000
0000
0000
,
0000
0000
1001
0000
,
0000
0000
0000
0000
,
1001
0000
0000
0000
,
0000
0000
1001
0000
,
0000
0000
0000
0000
,
0000
0000
1001
0000
0001
0010
0001
0000
,
1000
0010
1000
0000
0100
0010
0100
0000
,
1000
0001
1000
0000
0010
0100
0010
0000
,
1000
0001
1000
0001
1000
0000
0001
0100
,
0001
0000
1000
0100
1000
0000
0010
0100
,
0010
0000
1000
0001
1000
0000
0100
0010
,
0100
0010
0001
1000
0001
1000
0001
0000
,
0000
0000
1000
0100
1000
0010
0100
0000
,
0001
0010
0001
0100
0010
0000
1000
0100
,
0010
0100
1000
0000
0001
0100
0010
0100
,
0001
0000
0110
0000
0001
0010
0001
0100
,
0010
0000
1000
0100
1000
0010
0100
0000
,
0001
0010
0100
0010
0001
0000
1000
0010
,
0100
0010
1000
0000
0110
0000
2001
0000
,
0010
0010
3002
0010
,
0010
0000
2003
0000
0100
0000
0100
3000
,
1001
0110
2001
0100
,
0100
3002
0100
0100
,
2003
0010
0010
0002
,
0000
3003
2200
0000
,
0300
0002
0000
3000
,
0200
0000
0003
0020
,
0000
0300
2000
0000
,
0030
0200
0000
3000
,
0020
0000
0300
0002
,
0000
0030
2000
0000
,
0003
0002
0000
3000
,
0200
0000
0003
0020
,
0000
0300
2000
0000
,
0000
0000
0000
0030
,
0002
0000
0000
0000
0000
0000
0000
0000
0000
0000
0000
0000
0000
0000
0000
0000
0000
0000
0000
0000
0000
0000
0000
0000
0000
0000
0000
0000
0000
0000
0000
0000
0000
0000
0000
0000
0000
0000
0000
0000
0000
0000
0000
0000
0000
0000
0000
0000
0000
0000
0000
0000
0000
0000
0000
0000
0000
0000
0000
0000
0000
0000
0000
0000
0000
0000
0000
0000
0000
0000
0000
0000
0000
0000
0000
0000
0000
0000
0000
0000
0000
0000
0000
0000
0000
0000
0000
0000
0000
0000
0000
0000
0000
0000
0000
0000
0000
0000
3000
0000
0000
0000
0000
0000
0000
0000
0000
0000
0000
0000
0000
0000
0000
0000
0000
0000
0000
0000
0000
0000
0000
0000
0000
0000
0000
0000
0000
0000
0000
0000
0000
0000
0000
0000
0000
0000
0000
0000
0000
0000
0000
0000
0000
0000
0020
0000
0000
0000
0000
0000
0000
0000
0000
0000
0000
0000
0000
0000
0000
0000
0000
0000
0000
0000
0000
0000
0000
0000
0000
0000
0000
0000
0000
0000
0000
0000
0000
0000
0000
0000
0000
0000
0000
0000
0000
0000
0000
0000
0000
0000
0000
0000
,
0000
0000
0033
0000
,
0000
0000
0000
0000
,
0000
0000
0000
0000
,
0000
0000
0000
0000
,
0000
0000
0000
0000
,
0011
0001
0000
1010
0000
0010
1000
0100
,
0010
0000
0010
0100
1000
0000
0001
0000
,
0100
0010
1000
0010
0100
0000
0001
0000
,
1100
1000
0000
0101
0000
0100
0001
0010
,
0100
0000
0100
1000
0010
0100
0001
0000
,
0000
0001
0100
0010
1000
0000
0001
0000
,
1100
1000
0000
0101
0000
0100
0001
0010
,
0100
0000
0100
0010
0001
0000
1000
0000
,
0010
0100
0001
0100
0010
0000
1000
0000
,
1010
0011
1010
1001
,
0010
0100
0010
0001
2000
0000
0000
0000
,
0000
0000
0000
3000
,
0001
1000
0010
0100
0001
0000
1000
0100
,
0010
0001
1000
0000
0001
1000
0010
0100
,
0001
0000
1000
0100
0010
0001
1000
0001
,
1000
0000
0001
1000
0100
0010
0001
0000
,
1000
0010
0100
0001
1000
0000
0001
1000
,
0100
0010
0001
0000
1000
0010
0100
0001
,
1000
0001
1000
0000
0001
0010
0100
0010
,
0001
1000
0001
0100
0010
0100
0001
0000
,
1000
0100
0010
0100
1000
0001
1000
0010
,
0100
0010
1000
0000
1001
0000
0001
0010
,
0100
0010
0001
1000
0001
0100
0010
0100
,
0001
0000
1000
0100
0010
0100
1000
0001
,
1000
0010
0100
0010
1000
0000
0110
0000
,
2002
3003
0000
0000
;

//---------------dance-single - MEGAtive----------------
#NOTEDATA:;
#CHARTNAME:;
#STEPSTYPE:dance-single;
#DESCRIPTION:MEGAtive;
#CHARTSTYLE:;
#DIFFICULTY:Medium;
#METER:12;
#RADARVALUES:0.438572,0.645810,0.310699,0.325494,0.000000,415.000000,373.000000,42.000000,44.000000,0.000000,0.000000,0.000000,0.000000,14.000000,0.438572,0.645810,0.310699,0.325494,0.000000,415.000000,373.000000,42.000000,44.000000,0.000000,0.000000,0.000000,0.000000,14.000000;
#CREDIT:;
#OFFSET:0.000000;
#BPMS:0.000000=173.000000
,220.000000=43.250000
,221.000000=173.000000
;
#STOPS:;
#DELAYS:;
#WARPS:155.000000=16.000000
,220.000000=0.750000
;
#TIMESIGNATURES:0.000000=4=4
;
#TICKCOUNTS:0.000000=4
;
#COMBOS:0.000000=1
;
#SPEEDS:0.000000=1.000000=0.000000=0
;
#SCROLLS:0.000000=1.000000
,56.000000=0.500000
,104.000000=0.000000
,108.500000=1.000000
,110.000000=0.000000
,115.000000=1.000000
,116.000000=0.000000
,120.500000=1.000000
,122.000000=0.000000
,124.000000=0.250000
,124.500000=0.500000
,125.000000=0.750000
,125.500000=1.000000
,218.000000=0.500000
,220.000000=1.000000
,221.000000=0.750000
,245.000000=0.500000
,269.000000=0.000000
,284.000000=0.250000
,285.000000=0.500000
,286.000000=0.750000
,287.000000=1.000000
,329.000000=0.750000
,332.000000=0.600000
,332.250000=0.500000
,332.500000=0.400000
,332.750000=0.300000
,333.000000=0.200000
,333.250000=0.100000
,333.500000=0.000000
,334.000000=1.000000
,387.000000=0.000000
;
#FAKES:;
#LABELS:0.000000=Song Start
;
#NOTES:
0000
0000
0000
0000
,
0000
0000
0000
0000
,
0000
0000
0000
0000
,
0000
0000
0000
0000
,
0000
0000
0000
0000
,
0000
0000
0000
0000
,
0000
0000
0000
0000
,
0000
0000
0000
0000
,
1001
0010
0100
1100
,
1000
0010
0110
0100
,
0001
0011
0010
0100
,
1100
1000
0001
0101
,
0100
0010
1010
1000
,
0100
0110
0010
0001
,
2001
0000
0000
3020
,
0000
0000
0230
0000
,
0000
0302
0000
0000
,
2003
0000
0000
3200
,
0000
0000
0320
0000
,
0000
0000
0032
0000
0000
0000
0000
0003
,
1001
0000
0000
1100
,
0000
0000
0101
0000
,
0000
0011
0000
0000
,
0110
0000
0000
1100
,
0000
0000
1010
0000
,
0000
0011
0000
0000
,
1001
0000
0000
0000
,
0000
0000
0000
1000
1001
0000
0000
0000
,
0000
0000
0000
0000
,
1001
0000
0000
0000
,
0000
0000
0000
0001
2002
0000
0000
0000
,
0000
0000
3003
0000
,
0000
0000
1001
0000
0001
0100
0010
1000
,
0001
0010
0001
0000
1000
0001
1000
0000
,
0001
0010
0100
1000
0001
0100
0101
0000
,
1100
0000
1010
0000
1001
0000
1000
0010
,
0100
0001
1000
0100
1000
0000
0001
1000
,
0001
0000
1000
0100
0010
0001
1000
0010
,
1010
0011
0101
1001
,
M000
00M0
0M00
00M0
000M
00M0
M000
0M00
,
00M0
0M00
000M
0M00
0000
0000
0000
0000
,
0000
0000
0000
0000
,
0000
0000
0000
1001
,
1000
0010
0100
0010
0001
0010
1000
0100
,
0010
0100
0001
0100
1000
0010
0100
0010
,
0001
0010
1000
0100
0010
0001
0101
0000
,
1010
0000
0001
0010
0100
0010
1000
0010
,
0001
0100
0010
0100
1000
0100
0001
0010
,
0100
0010
1000
0010
0001
0100
0010
1000
,
1001
0000
0110
0000
1001
0000
0001
0010
,
1000
0010
0001
0000
1000
0010
0001
0010
,
1000
0000
0001
0010
0100
1000
1010
0000
,
1100
0000
1001
0000
1000
0010
0001
0010
,
1000
0000
0001
0010
1000
0010
0001
0000
,
1000
0010
0100
0001
2000
0000
0000
0000
,
3000
0002
0023
0230
,
2300
3020
0230
0302
,
0023
0230
2300
3020
,
0230
0302
0023
0230
,
2300
3020
0230
0000
,
0000
0000
0302
2003
,
3200
0320
0000
0000
,
0032
0000
0000
2003
,
0000
0000
3020
0000
,
0000
0230
0000
0000
,
0000
0000
0000
0302
,
0000
0000
2000
0000
,
0000
3003
0000
0000
,
0000
0000
0000
0000
,
0000
0000
0000
0000
,
0000
0000
0000
0000
,
0000
0000
0000
0000
0000
0000
0001
0010
,
0100
0010
0001
1000
0001
0100
0010
0100
,
0001
1000
0100
0010
0001
0000
0001
0010
,
0100
1000
0010
0100
0001
0000
1000
0100
,
0010
0100
1000
0001
1000
0010
0100
0010
,
1000
0001
0010
0100
1000
0000
0000
1000
,
0100
0010
0001
0000
0110
0000
0001
0100
,
0010
0100
0001
1000
0001
0010
0100
0010
,
0001
1000
0010
0100
0001
0000
0001
0100
,
0010
1000
0100
0010
0001
0000
1000
0010
,
1000
0100
1000
0010
0100
0010
1000
0100
,
0010
0001
2000
0000
0000
0000
0000
0000
,
0000
0000
0000
0000
3000
0000
0001
1000
,
0100
0010
0100
1000
0001
0100
0010
0100
,
0010
1000
0001
1000
0100
0010
0100
1000
,
0001
0100
0010
0100
0010
1000
0002
0000
,
1003
0001
0010
0100
0010
0001
1000
0010
,
0100
0010
0100
0001
1000
0001
0010
0100
,
0010
0001
1000
0010
0100
0010
0100
0001
,
2000
0000
3001
0010
0001
0100
0010
1000
,
0001
0010
0001
1000
0010
1000
0001
0010
,
0001
0100
0010
1000
0001
0010
0001
1000
,
0010
0000
1001
0000
1000
0100
1000
0010
,
0100
0001
1000
0100
1000
0001
0100
0001
,
1000
0100
1000
0010
0100
0001
1000
0100
,
1000
0001
0100
0001
1010
0000
2002
0000
,
3003
0000
0000
0000
;

//---------------dance-single - MEGAtive----------------
#NOTEDATA:;
#CHARTNAME:;
#STEPSTYPE:dance-single;
#DESCRIPTION:MEGAtive;
#CHARTSTYLE:;
#DIFFICULTY:Hard;
#METER:14;
#RADARVALUES:0.477674,2.220389,0.140554,0.399470,0.066578,452.000000,433.000000,19.000000,54.000000,28.000000,1.000000,0.000000,0.000000,158.000000,0.477674,2.220389,0.140554,0.399470,0.066578,452.000000,433.000000,19.000000,54.000000,28.000000,1.000000,0.000000,0.000000,158.000000;
#CREDIT:;
#OFFSET:0.000000;
#BPMS:0.000000=173.000000
,732.000000=21.625000
,733.000000=173.000000
;
#STOPS:683.500000=0.174000
;
#DELAYS:;
#WARPS:81.000000=16.000000
,97.500000=16.000000
,114.000000=16.000000
,130.500000=16.000000
,148.000000=16.000000
,164.500000=16.000000
,181.000000=16.000000
,197.500000=16.000000
,215.000000=16.000000
,231.500000=16.000000
,248.000000=16.000000
,264.500000=16.000000
,282.000000=16.000000
,298.500000=16.000000
,315.000000=16.000000
,331.500000=16.000000
,349.000000=16.000000
,365.500000=16.000000
,382.000000=16.000000
,398.500000=16.000000
,416.000000=16.000000
,432.500000=16.000000
,449.000000=16.000000
,465.500000=16.000000
,483.000000=16.000000
,499.500000=16.000000
,516.000000=16.000000
,532.500000=16.000000
,550.000000=16.000000
,566.500000=16.000000
,583.000000=16.000000
,599.500000=16.000000
,667.000000=16.500000
,732.000000=0.875000
,793.000000=16.000000
,809.250000=16.000000
,825.500000=16.000000
,842.000000=16.000000
,858.500000=16.000000
,876.000000=16.000000
,892.500000=16.000000
,909.000000=16.000000
,925.500000=16.000000
;
#TIMESIGNATURES:0.000000=4=4
;
#TICKCOUNTS:0.000000=4
;
#COMBOS:0.000000=1
;
#SPEEDS:0.000000=1.000000=0.000000=0
;
#SCROLLS:0.000000=1.000000
,56.000000=0.100000
,58.916668=5.000000
,59.000000=0.100000
,61.916668=5.000000
,62.000000=0.100000
,64.916664=5.000000
,65.000000=0.100000
,67.916664=5.000000
,68.000000=0.100000
,70.916664=5.000000
,71.000000=0.100000
,73.916664=5.000000
,74.000000=0.100000
,76.916664=5.000000
,77.000000=0.100000
,78.000000=0.250000
,78.500000=0.500000
,79.000000=0.750000
,79.500000=0.900000
,80.000000=0.400000
,616.000000=0.000000
,621.000000=1.000000
,622.000000=0.000000
,627.500000=1.000000
,628.000000=0.000000
,633.000000=1.000000
,634.000000=0.000000
,636.000000=0.100000
,636.250000=0.200000
,636.500000=0.300000
,636.750000=0.400000
,637.000000=0.500000
,637.250000=0.600000
,637.500000=0.700000
,637.750000=0.800000
,638.000000=0.900000
,639.000000=1.000000
,647.000000=0.950000
,654.000000=0.900000
,660.000000=0.950000
,684.000000=1.000000
,687.000000=1.050000
,690.000000=1.100000
,693.000000=1.150000
,697.000000=1.200000
,700.000000=1.150000
,703.000000=1.100000
,706.000000=1.050000
,710.000000=1.000000
,733.000000=0.250000
,757.000000=0.125000
,781.000000=0.062500
,792.000000=0.500000
,876.000000=0.750000
,892.500000=0.800000
,909.000000=0.850000
,925.500000=0.900000
,941.500000=0.950000
,943.000000=1.000000
,985.000000=0.900000
,985.500000=0.800000
,986.000000=0.700000
,986.500000=0.600000
,987.000000=0.500000
,987.500000=0.400000
,988.000000=0.300000
,988.500000=0.200000
,989.000000=0.100000
,989.500000=0.000000
,990.500000=1.000000
,997.000000=1.050000
,1004.000000=1.100000
,1010.000000=1.150000
,1017.000000=1.200000
,1023.000000=1.250000
,1030.000000=1.300000
,1036.000000=1.400000
,1042.000000=0.000000
,1042.750000=1.000000
;
#FAKES:;
#LABELS:0.000000=Song Start
,56.000000=Rhythm Approximation
,80.000000=Warped
,616.000000=Long Stop
,639.000000=Slight Speedchanges
,710.000000=Normal
;
#NOTES:
// measure 0
0000
0000
0000
0000
,  // measure 1
0000
0000
0000
0000
,  // measure 2
0000
0000
0000
0000
,  // measure 3
0000
0000
0000
0000
,  // measure 4
0000
0000
0000
0000
,  // measure 5
0000
0000
0000
0000
,  // measure 6
0000
0000
0000
0000
,  // measure 7
0000
0000
0000
0000
,  // measure 8
1001
0000
0001
0010
0001
0100
0010
0000
,  // measure 9
1000
0100
1000
0010
0100
0000
0001
0010
,  // measure 10
0001
0100
0010
0000
1000
0100
1000
0010
,  // measure 11
0100
0000
0001
0100
0001
0010
0100
0000
,  // measure 12
1000
0010
1000
0100
0010
0000
0001
0100
,  // measure 13
0001
0010
0100
0000
2000
0000
0000
0000
,  // measure 14
3002
0000
0000
0203
,  // measure 15
0000
0000
0320
0000
,  // measure 16
0000
2030
0000
0000
,  // measure 17
3002
0000
0000
0023
,  // measure 18
0000
0000
0230
0000
,  // measure 19
0000
2300
0000
0000
,  // measure 20
3011
0000
0000
1000
,  // measure 21
0000
0000
0000
0000
,  // measure 22
0000
0000
0000
0000
,  // measure 23
0000
0000
0000
0000
,  // measure 24
0000
0000
0000
1M00
,  // measure 25
0000
0000
0000
0000
,  // measure 26
0000
0000
0000
0000
,  // measure 27
0000
0000
0000
0000
,  // measure 28
0000
0000
0000
1M10
,  // measure 29
0000
0000
0000
0000
,  // measure 30
0000
0000
0000
0000
,  // measure 31
0000
0000
0000
0000
,  // measure 32
0000
0000
0000
1M1M
,  // measure 33
0000
0000
0000
0000
,  // measure 34
0000
0000
0000
0000
,  // measure 35
0000
0000
0000
0000
,  // measure 36
0000
0000
0000
1M1M
,  // measure 37
0000
0000
000M
0000
,  // measure 38
0000
0000
0000
0000
,  // measure 39
0000
0000
0000
0000
,  // measure 40
0000
0000
0000
0000
,  // measure 41
0000
0000
00MM
0000
,  // measure 42
0000
0000
0000
0000
,  // measure 43
0000
0000
0000
0000
,  // measure 44
0000
0000
0000
0000
,  // measure 45
0000
0000
01MM
0000
,  // measure 46
0000
0000
0000
0000
,  // measure 47
0000
0000
0000
0000
,  // measure 48
0000
0000
0000
0000
,  // measure 49
0000
0000
11MM
0000
,  // measure 50
0000
0000
0000
0000
,  // measure 51
0000
0000
0000
0000
,  // measure 52
0000
0000
0000
0000
,  // measure 53
0000
0000
11MM
0000
,  // measure 54
0000
M000
0000
0000
,  // measure 55
0000
0000
0000
0000
,  // measure 56
0000
0000
0000
0000
,  // measure 57
0000
0000
0000
0000
,  // measure 58
0000
M100
0000
0000
,  // measure 59
0000
0000
0000
0000
,  // measure 60
0000
0000
0000
0000
,  // measure 61
0000
0000
0000
0000
,  // measure 62
0000
M1M0
0000
0000
,  // measure 63
0000
0000
0000
0000
,  // measure 64
0000
0000
0000
0000
,  // measure 65
0000
0000
0000
0000
,  // measure 66
0000
M1M1
0000
0000
,  // measure 67
0000
0000
0000
0000
,  // measure 68
0000
0000
0000
0000
,  // measure 69
0000
0000
0000
0000
,  // measure 70
0000
M1M1
0000
0000
,  // measure 71
000M
0000
0000
0000
,  // measure 72
0000
0000
0000
0000
,  // measure 73
0000
0000
0000
0000
,  // measure 74
0000
0000
0000
0000
,  // measure 75
001M
0000
0000
0000
,  // measure 76
0000
0000
0000
0000
,  // measure 77
0000
0000
0000
0000
,  // measure 78
0000
0000
0000
0000
,  // measure 79
011M
0000
0000
0000
,  // measure 80
0000
0000
0000
0000
,  // measure 81
0000
0000
0000
0000
,  // measure 82
0000
0000
0000
0000
,  // measure 83
M11M
0000
0000
0000
,  // measure 84
0000
0000
0000
0000
,  // measure 85
0000
0000
0000
0000
,  // measure 86
0000
0000
0000
0000
,  // measure 87
M11M
0000
0000
1000
,  // measure 88
0000
0000
0000
0000
,  // measure 89
0000
0000
0000
0000
,  // measure 90
0000
0000
0000
0000
,  // measure 91
0000
0000
0000
1M00
,  // measure 92
0000
0000
0000
0000
,  // measure 93
0000
0000
0000
0000
,  // measure 94
0000
0000
0000
0000
,  // measure 95
0000
0000
0000
1MM0
,  // measure 96
0000
0000
0000
0000
,  // measure 97
0000
0000
0000
0000
,  // measure 98
0000
0000
0000
0000
,  // measure 99
0000
0000
0000
1MM1
,  // measure 100
0000
0000
0000
0000
,  // measure 101
0000
0000
0000
0000
,  // measure 102
0000
0000
0000
0000
,  // measure 103
0000
0000
0000
1MM1
,  // measure 104
0000
0000
0001
0000
,  // measure 105
0000
0000
0000
0000
,  // measure 106
0000
0000
0000
0000
,  // measure 107
0000
0000
0000
0000
,  // measure 108
0000
0000
00M1
0000
,  // measure 109
0000
0000
0000
0000
,  // measure 110
0000
0000
0000
0000
,  // measure 111
0000
0000
0000
0000
,  // measure 112
0000
0000
01M1
0000
,  // measure 113
0000
0000
0000
0000
,  // measure 114
0000
0000
0000
0000
,  // measure 115
0000
0000
0000
0000
,  // measure 116
0000
0000
M1M1
0000
,  // measure 117
0000
0000
0000
0000
,  // measure 118
0000
0000
0000
0000
,  // measure 119
0000
0000
0000
0000
,  // measure 120
0000
0000
M1M1
0000
,  // measure 121
0000
M000
0000
0000
,  // measure 122
0000
0000
0000
0000
,  // measure 123
0000
0000
0000
0000
,  // measure 124
0000
0000
0000
0000
,  // measure 125
0000
MM00
0000
0000
,  // measure 126
0000
0000
0000
0000
,  // measure 127
0000
0000
0000
0000
,  // measure 128
0000
0000
0000
0000
,  // measure 129
0000
MM10
0000
0000
,  // measure 130
0000
0000
0000
0000
,  // measure 131
0000
0000
0000
0000
,  // measure 132
0000
0000
0000
0000
,  // measure 133
0000
MM11
0000
0000
,  // measure 134
0000
0000
0000
0000
,  // measure 135
0000
0000
0000
0000
,  // measure 136
0000
0000
0000
0000
,  // measure 137
0000
MM11
0000
0000
,  // measure 138
0001
0000
0000
0000
,  // measure 139
0000
0000
0000
0000
,  // measure 140
0000
0000
0000
0000
,  // measure 141
0000
0000
0000
0000
,  // measure 142
00M1
0000
0000
0000
,  // measure 143
0000
0000
0000
0000
,  // measure 144
0000
0000
0000
0000
,  // measure 145
0000
0000
0000
0000
,  // measure 146
0MM1
0000
0000
0000
,  // measure 147
0000
0000
0000
0000
,  // measure 148
0000
0000
0000
0000
,  // measure 149
0000
0000
0000
0000
,  // measure 150
1MM1
0000
0000
0000
,  // measure 151
0000
0000
0000
0000
,  // measure 152
0000
0000
0000
0000
,  // measure 153
0000
0000
0000
0000
,  // measure 154
1MM1
0000
0000
0000
,  // measure 155
0000
0000
0000
0010
0110
0000
0000
0000
,  // measure 156
0000
0000
0000
0000
,  // measure 157
1001
0000
0000
0000
,  // measure 158
0000
0000
0000
0100
0220
0000
0000
0000
,  // measure 159
0000
0000
0330
0000
,  // measure 160
0000
0000
1000
0100
1000
0010
0100
0010
,  // measure 161
1000
0001
0010
0001
0100
0010
1000
0001
,  // measure 162
1000
0000
0100
0000
0010
0000
0100
0000
1000
0000
0001
0000
0100
0010
0100
0000
,  // measure 163
0001
1000
0001
0000
0010
0100
0010
0000
0001
0000
0100
0000
0001
0000
0010
0000
,  // measure 164
0100
0010
0001
1000
0010
1000
0100
0010
,  // measure 165
0001
1000
0001
0100
0010
0100
0001
1000
,  // measure 166
0100
0010
0100
0000
1000
0001
1000
0000
0010
0100
0010
0000
1001
0000
0000
0000
,  // measure 167
000M
0M00
M000
0M00
00M0
M000
000M
00M0
,  // measure 168
M000
00M0
0M00
M000
000M
0M00
M000
0M00
,  // measure 169
00M0
M000
000M
0000
0000
0000
0000
0000
,  // measure 170
0000
0000
0000
0000
0000
0000
0000
1001
,  // measure 171
0001
0100
1000
0100
0010
1000
0001
0010
,  // measure 172
1000
0010
0100
1000
0001
0100
1000
0100
,  // measure 173
0010
0000
1000
0000
0001
0000
0010
0000
0100
1000
0100
0000
1000
0000
0010
0000
,  // measure 174
0100
0010
1000
0100
0001
0100
0010
0001
,  // measure 175
1000
0010
0001
0010
0100
0001
1000
0100
,  // measure 176
0001
0000
0100
0000
0010
0000
0001
0000
1000
0000
0010
0000
0100
0001
0100
0001
,  // measure 177
0100
0010
1000
0001
1000
0100
1000
0010
,  // measure 178
0100
0010
0100
0000
0001
0000
0010
0000
0001
0000
0100
0000
0010
0100
0010
0000
,  // measure 179
1000
0000
0100
0010
0100
0010
0100
0000
1000
0001
1000
0000
1001
0000
0000
0000
,  // measure 180
0110
0000
0000
0000
1000
0000
0010
0000
1000
0000
0100
0000
0010
0100
0010
0000
,  // measure 181
0001
0000
0100
0000
0001
0000
0010
0000
0100
0010
0100
0000
1000
0000
0010
0000
,  // measure 182
0001
1000
0100
0001
2000
0000
0000
0000
,  // measure 183
3000
0012
0203
0320
,  // measure 184
2030
3200
0320
0032
,  // measure 185
0203
0320
2030
3020
,  // measure 186
0230
0302
0023
0230
,  // measure 187
2300
3020
0230
0302
,  // measure 188
0000
0000
2003
3200
,  // measure 189
0320
0032
0000
0000
,  // measure 190
2003
0000
0000
3020
,  // measure 191
0000
0000
0230
0000
,  // measure 192
0000
0302
0000
0000
,  // measure 193
2003
0000
0000
3200
,  // measure 194
0000
0000
0320
0000
,  // measure 195
0030
2002
0000
0000
,  // measure 196
0000
0000
0000
0000
,  // measure 197
0000
0000
0000
0000
,  // measure 198
3003
0000
MMMM
0000
,  // measure 199
0000
0000
0000
0000
,  // measure 200
0000
0000
0000
0000
,  // measure 201
0000
0000
0000
0000
,  // measure 202
0000
0000
0000
0000
0000
0000
0000
0000
0000
MMMM
0000
0000
0000
0000
0000
0000
,  // measure 203
0000
0000
0000
0000
,  // measure 204
0000
0000
0000
0000
,  // measure 205
0000
0000
0000
0000
,  // measure 206
0000
0000
0000
0000
0000
MMMM
0000
0000
,  // measure 207
0000
0000
0000
0000
,  // measure 208
0000
0000
0000
0000
,  // measure 209
0000
0000
0000
0000
,  // measure 210
0000
0000
0000
MMMM
,  // measure 211
0000
0000
0000
0000
,  // measure 212
0000
0000
0000
0000
,  // measure 213
0000
0000
0000
0000
,  // measure 214
0000
0000
0000
0000
0000
0000
0000
MMMM
,  // measure 215
0000
0000
0000
0000
,  // measure 216
0000
0000
0000
0000
,  // measure 217
0000
0000
0000
0000
,  // measure 218
0000
0000
0000
0000
0000
0000
0000
0000
0000
0000
0000
0000
MMMM
MMMM
MMMM
0000
,  // measure 219
0000
0001
0000
0001
,  // measure 220
0000
0001
0000
0000
0000
0000
0001
0000
,  // measure 221
0000
0000
0000
0000
,  // measure 222
0000
0000
0000
0000
,  // measure 223
0000
0000
0000
0001
0010
0000
0010
0001
,  // measure 224
0000
0010
0001
0010
0000
0000
0010
0001
,  // measure 225
0000
0000
0000
0000
,  // measure 226
0000
0000
0000
0000
,  // measure 227
0000
0000
0000
0000
0001
0010
0000
0010
,  // measure 228
0001
0100
0010
0001
0010
0000
0100
0010
,  // measure 229
0001
0000
0000
0000
,  // measure 230
0000
0000
0000
0000
,  // measure 231
0000
0000
0000
0000
0000
0001
0010
1000
,  // measure 232
0010
0001
0100
0010
0001
0010
1000
0100
,  // measure 233
0010
0001
0000
0000
0000
0000
0000
0000
,  // measure 234
0000
0000
0000
0000
,  // measure 235
0000
0000
0000
0000
0000
0000
0001
0010
,  // measure 236
1000
0010
0001
0100
0010
0001
0010
1000
,  // measure 237
0100
0010
0001
1000
0001
0100
0001
0010
,  // measure 238
1000
0010
0001
0100
0020
0000
1030
0100
,  // measure 239
0001
0100
1000
0010
0100
1000
0100
0001
,  // measure 240
0010
0100
1000
0001
1000
0010
1000
0100
,  // measure 241
0001
0100
1000
0010
0200
0000
0301
0010
,  // measure 242
1000
0010
0001
0100
0010
0001
0010
1000
,  // measure 243
0100
0010
0001
1000
0001
0100
0001
0010
,  // measure 244
1000
0010
0001
0100
0020
0000
1030
0100
,  // measure 245
0001
0100
1000
0010
0001
0010
1000
0001
,  // measure 246
0010
0100
2000
0000
0000
0000
0000
0000
,  // measure 247
0000
0000
0000
0000
3000
0000
0001
0100
,  // measure 248
1000
0100
0010
1000
0001
0010
1000
0001
,  // measure 249
0100
1000
0001
0100
1000
0100
0010
1000
,  // measure 250
0001
0010
1000
0001
0100
1000
0002
0000
,  // measure 251
1003
0010
0001
0010
0100
0001
1000
0100
,  // measure 252
0001
1000
0010
0001
1000
0010
0001
0010
,  // measure 253
0100
0001
1000
0100
0001
1000
0010
0001
,  // measure 254
2000
0000
3001
0010
1000
0001
0100
1000
,  // measure 255
0001
0100
1000
0001
0010
1000
0001
0010
,  // measure 256
1000
0001
0100
1000
0001
0100
1000
0001
,  // measure 257
0010
1000
0002
0000
1003
0100
0001
1000
,  // measure 258
0010
0001
1000
0010
0001
1000
0100
0001
,  // measure 259
1000
0100
0001
1000
0010
0001
1000
0010
,  // measure 260
0001
0000
1000
0000
0100
0000
0001
0000
2000
3000
0000
0000
2002
0000
0000
0000
,  // measure 261
3003
0000
0000
0000
;
