#VERSION:0.83;
#TITLE:And It Begins;
#SUBTITLE:;
#ARTIST:501;
#TITLETRANSLIT:;
#SUBTITLETRANSLIT:;
#ARTISTTRANSLIT:;
#GENRE:;
#ORIGIN:;
#CREDIT:;
#BANNER:And It Begins.png;
#BACKGROUND:And It Begins-bg.png;
#PREVIEWVID:;
#JACKET:And It Begins-jacket.png;
#CDIMAGE:;
#DISCIMAGE:;
#LYRICSPATH:;
#CDTITLE:;
#MUSIC:And It Begins.ogg;
#OFFSET:1.627297;
#SAMPLESTART:101.671265;
#SAMPLELENGTH:12.000000;
#SELECTABLE:YES;
#BPMS:0.000=140.000,
68.000=70.000,
83.500=35.000,
83.625=70.000,
83.750=140.000,
160.500=70.000,
161.000=140.000,
167.000=70.000,
167.500=140.000,
186.000=70.000,
186.250=35.000,
186.625=70.000,
186.750=140.000;
#STOPS:130.000=0.643,
158.500=0.214,
159.000=0.214,
159.500=0.214,
160.000=0.214,
183.500=0.214,
184.000=0.214,
184.500=0.214,
185.000=0.214;
#DELAYS:;
#WARPS:;
#TIMESIGNATURES:0.000=4=4;
#TICKCOUNTS:0.000=4;
#COMBOS:0.000=1;
#SPEEDS:0.000=1.000=0.000=0;
#SCROLLS:0.000=1.000;
#FAKES:;
#LABELS:0.000=Song Start;
#BGCHANGES:;
#KEYSOUNDS:;
#ATTACKS:
;

//---------------dance-single - ----------------
#NOTEDATA:;
#CHARTNAME:;
#STEPSTYPE:dance-single;
#DESCRIPTION:;
#CHARTSTYLE:;
#DIFFICULTY:Challenge;
#METER:16;
#RADARVALUES:0.686015,1.060099,0.211965,0.233892,0.906333,657.000000,628.000000,29.000000,32.000000,0.000000,0.000000,0.000000,0.000000,0.000000,0.686015,1.060099,0.211965,0.233892,0.906333,657.000000,628.000000,29.000000,32.000000,0.000000,0.000000,0.000000,0.000000,0.000000;
#CREDIT:Daniel Van Eden;
#NOTES:
// measure 0
0000
0000
0000
0000
,  // measure 1
0000
0000
0000
0000
,  // measure 2
0000
0000
0000
0000
,  // measure 3
0000
0000
0000
0000
,  // measure 4
0000
0000
0000
0000
,  // measure 5
0000
0000
0000
0000
,  // measure 6
0000
0000
0000
0000
,  // measure 7
0000
0000
0000
0000
,  // measure 8
0000
0000
0000
0000
,  // measure 9
1010
0000
0010
1000
0001
0000
1001
0000
,  // measure 10
0011
0000
0000
0000
0010
0000
0001
0000
1000
0000
0000
0000
1100
0000
0100
1000
,  // measure 11
0001
0000
0100
0001
1000
0000
1010
0000
,  // measure 12
1000
0000
0000
0000
0110
0000
0000
0000
0010
0000
0100
0000
0001
1000
0001
1000
,  // measure 13
0100
0000
0000
0000
0010
0000
0001
1000
0001
0000
0100
0000
1000
0000
0100
0000
,  // measure 14
0001
0000
0000
0000
0010
0000
0001
0000
1000
0000
0100
1000
0001
0000
0010
0000
,  // measure 15
0001
1000
0010
0001
0010
1000
0001
0010
,  // measure 16
0001
0000
0010
0000
0001
0000
0010
0000
0100
0000
0010
0100
1000
0000
0001
0000
1000
0000
0010
0100
0001
0000
1000
0000
0010
0000
1000
0000
0001
0000
0010
0000
,  // measure 17
0100
0000
0000
0100
0000
0000
0200
0000
0000
0000
0000
0000
0000
0000
0000
0000
0300
0000
1000
0000
0100
0000
0010
0000
0000
0000
0100
0000
0010
0000
0001
0000
,  // measure 18
0000
1000
0100
0010
0000
0100
0010
0001
0000
1000
0100
0010
0000
1000
0010
0001
,  // measure 19
0010
0000
0000
0010
0000
0000
0020
0000
0000
0000
0000
0000
0000
0000
0000
0000
0030
0000
0100
0000
1000
0000
0001
0000
0000
0000
0100
0000
0010
0000
1000
0000
,  // measure 20
0000
0000
0100
0000
1000
0000
0001
0000
0000
0000
0100
0000
0010
0000
1000
0000
0000
0000
0010
0000
1000
0000
0010
0000
0100
0000
0001
0000
2000
3000
0000
0000
,  // measure 21
1001
0000
0000
0000
0001
0000
0100
0010
0000
0010
1000
0000
0001
0000
0010
0100
,  // measure 22
1000
0000
0000
0000
0000
0000
0001
1000
0000
1000
0001
0000
0010
0000
0100
1000
,  // measure 23
0001
0000
0000
0000
1000
0000
0100
0010
0000
0010
0001
0000
1000
0000
0010
0100
,  // measure 24
0001
0000
0000
0000
0000
0000
1000
0100
0000
0100
0010
0000
0100
0010
0001
0000
,  // measure 25
1000
0000
0000
0000
0010
0000
0100
0001
0000
0001
0100
0000
0010
0000
1000
0001
,  // measure 26
1000
0000
0000
0000
0000
0000
0100
0010
0000
0010
0100
0000
1000
0000
0010
1000
,  // measure 27
0001
0000
0000
0000
0010
0000
0001
1000
0010
1000
0001
0000
0100
0000
0010
1000
,  // measure 28
0001
0000
0000
0000
1000
0000
0100
1000
0001
0100
0010
0000
1000
0000
1010
0000
,  // measure 29
1001
0000
0000
0000
0000
0100
0000
1000
,  // measure 30
0000
0010
0000
0100
0000
0001
0000
1000
,  // measure 31
0100
0010
0100
0010
0001
1000
0001
1000
,  // measure 32
0010
1000
0010
1000
0010
1000
0100
0010
0001
0010
0100
1000
0001
0000
0000
0011
0000
0000
0001
0000
0000
2000
0000
0000
,  // measure 33
0000
0000
3010
0100
0001
0100
0010
1000
0001
0000
0110
0000
0100
0000
1000
0000
,  // measure 34
0000
1010
0010
1000
1010
1200
0000
0310
,  // measure 35
0100
0010
0001
0000
0100
0000
2000
0000
0000
0000
3100
0001
0100
0001
1000
0000
,  // measure 36
0000
0000
1100
0000
1000
0000
0010
0000
1000
0001
0100
0000
0100
0000
0020
0000
,  // measure 37
0000
0000
1030
0100
0010
0100
1000
0001
0010
0000
0100
1000
0100
1000
0100
0010
,  // measure 38
0001
0101
0001
0100
0101
0021
0000
0130
,  // measure 39
1000
0100
0010
0000
0001
0000
2000
0000
0000
0000
3010
0000
0110
0000
0101
0000
,  // measure 40
1010
0000
0000
0000
0000
0000
0011
0000
0000
0000
0000
0000
0001
0000
0000
0001
0000
0000
0100
0000
0000
0010
0000
0000
1000
0000
0010
0000
1000
0000
0010
0000
1000
0000
0010
0000
1000
0000
0010
0000
1000
0000
0010
0000
0000
0100
0000
0000
,  // measure 41
0001
0000
0010
0000
0001
0000
0010
0000
0001
0000
0010
0000
0001
0000
0010
0000
0001
0000
0010
0000
0000
0100
0000
0000
1000
0000
0001
0000
1000
0000
0001
0000
1000
0000
0001
0000
0020
0000
0000
0000
0000
0000
0230
0000
0000
0000
0000
0000
,  // measure 42
0001
0000
0000
0000
1000
0000
0300
0000
0010
0001
1000
0010
0100
0010
1000
0001
,  // measure 43
1000
0001
0200
0000
0300
0000
1010
0000
1000
0000
0100
0000
1000
0001
0010
0000
,  // measure 44
0010
0000
0200
0000
0000
0000
1300
0001
0100
0001
2000
0000
3010
0000
0110
0000
,  // measure 45
0000
0002
0013
0110
0100
0010
0011
1001
,  // measure 46
0010
1100
0010
0202
0000
0000
0303
0000
,  // measure 47
1000
0010
0000
1000
0010
0100
0001
1000
0000
0100
1000
0000
0100
1000
0100
0000
,  // measure 48
1000
0010
0000
1000
0010
0100
0001
1000
0100
0010
0001
0000
0010
0001
0010
0000
,  // measure 49
0001
0100
0000
0001
0100
0010
1000
0001
0000
0010
0001
0000
0010
0001
0010
0000
,  // measure 50
0001
0100
0000
0001
0100
0010
1000
0001
0010
0100
1000
0000
0100
1000
0100
0000
,  // measure 51
0010
0001
0000
0010
0100
1000
0010
0100
0000
0001
0100
0000
0010
0100
0010
0000
,  // measure 52
1000
0010
0100
0001
0010
0100
0010
0001
1000
0000
0020
0000
2030
0000
3002
0000
,  // measure 53
0013
0100
0000
0010
0001
1000
0010
0100
0001
1000
0001
0000
0010
0100
0010
0000
,  // measure 54
0100
1000
0000
0100
0010
0001
1000
0010
0100
0000
0002
0000
0203
0000
0320
0000
,  // measure 55
1030
0100
0000
0010
0001
0010
0100
1000
0000
0010
1000
0000
0010
1000
0001
0000
,  // measure 56
0010
0001
0000
0010
0001
0010
0100
1000
0010
0100
0001
0000
0100
0001
1000
0000
,  // measure 57
0001
0100
0000
0010
1000
0100
0010
0001
0000
0100
0001
0000
0100
0001
1000
0000
,  // measure 58
0010
1000
0000
0010
1000
0001
0010
0100
1000
0001
0010
0000
0001
0010
0100
0000
,  // measure 59
0010
0100
0000
0010
0100
1000
0100
0010
0000
0001
0100
0000
0010
1000
0001
0000
,  // measure 60
1000
0001
1000
0100
0010
0001
0100
0010
1000
0000
0020
0000
2030
0000
3002
0000
,  // measure 61
0103
0010
0000
0100
0010
1000
0010
0100
0001
1000
0100
0000
0010
0001
1000
0000
,  // measure 62
0010
1000
0000
0010
0100
0001
1000
0100
0010
0001
0000
0001
1000
0000
0010
1000
,  // measure 63
0100
0010
0000
0100
0010
0100
0010
0001
0000
0100
0001
0100
0001
0100
0001
0000
,  // measure 64
0100
0010
0000
0100
0010
0100
0010
1000
0000
0100
1000
0100
1000
0100
1000
0000
,  // measure 65
0010
1000
0000
0010
1000
0010
0100
0001
0000
1000
0001
1000
0001
1000
0001
0000
,  // measure 66
0010
0001
0000
0010
0001
0010
0100
1000
0000
0001
1000
0001
1000
0001
1000
0000
,  // measure 67
0100
1000
0000
0100
1000
0100
0000
0010
0000
0001
0010
0000
0001
0010
0001
0000
,  // measure 68
0100
0001
0000
0100
0001
1000
0000
0010
0000
1000
0100
0000
1000
0100
1000
0000
,  // measure 69
0020
0000
0000
2030
0000
0000
3002
0000
0000
0000
1000
0000
0000
0000
1000
0000
,  // measure 70
0023
0000
0000
0032
0000
0000
2003
0000
0000
0000
0000
0000
3001
0000
0000
0000
;
