#TITLE:Always;
#SUBTITLE:;
#ARTIST:Skydeelight;
#TITLETRANSLIT:;
#SUBTITLETRANSLIT:;
#ARTISTTRANSLIT:;
#CREDIT:;
#BANNER:always-banner.png;
#BACKGROUND:always-bg.png;
#LYRICSPATH:;
#CDTITLE:cdtitle.png;
#MUSIC:Always.ogg;
#OFFSET:-0.037;
#SAMPLESTART:30.880;
#SAMPLELENGTH:12.000;
#SELECTABLE:YES;
#BPMS:0.000=140.000;
#STOPS:;
#BGCHANGES:;

//---------------dance-single - ----------------
#NOTES:
     dance-single:
     :
     Hard:
     14:
     0.519,0.517,0.126,0.377,0.293: // measure 1
0000
0000
0000
0000
,  // measure 2
0000
0000
0000
0000
,  // measure 3
0000
0000
0000
0000
0001
0010
0100
2000
,  // measure 4
0000
0020
0000
0000
0030
3010
1000
0100
,  // measure 5
0000
0000
0000
0000
0100
0010
0001
0010
,  // measure 6
0100
1000
1000
0001
,  // measure 7
0100
0000
0010
0000
0010
1000
0100
0020
,  // measure 8
0200
0000
0000
0000
0330
0100
1000
0010
,  // measure 9
0000
0000
0000
0010
0100
0001
0010
0100
,  // measure 10
0010
0000
0000
0000
0000
0010
0001
0020
,  // measure 11
0000
0100
0000
0031
0000
2000
0000
0002
,  // measure 12
3000
0010
0000
0103
0000
0001
0100
0002
,  // measure 13
0000
0100
0000
1003
0000
0100
0000
0010
,  // measure 14
0000
0001
0100
0020
0000
0000
1030
0200
,  // measure 15
0000
0000
0000
0000
0000
0310
0010
0002
,  // measure 16
0000
0000
0000
0000
0000
1003
0002
0000
,  // measure 17
0023
0000
0000
2030
0000
0000
3200
0000
,  // measure 18
0000
0301
0000
0000
,  // measure 19
0002
0000
0000
2000
0003
3010
0100
1000
,  // measure 20
0002
0000
0013
0100
0000
1000
0100
0010
,  // measure 21
0002
0000
0013
0100
0000
1000
0001
0010
,  // measure 22
0001
1000
0001
0100
0001
0010
0002
0000
,  // measure 23
2000
0000
0003
0002
3000
0103
0010
0001
,  // measure 24
2000
0000
3100
0010
0000
0001
0010
0100
,  // measure 25
2000
0000
3100
0010
0000
0001
0001
0010
,  // measure 26
0100
1000
0010
0001
0010
1000
0002
0000
,  // measure 27
0020
0000
0003
0200
0030
1300
0001
0100
,  // measure 28
0020
0000
1030
0001
0000
0100
0001
1000
,  // measure 29
0020
0000
1030
0001
0000
0100
0010
1000
,  // measure 30
0010
0100
0010
0001
0010
1000
0020
0000
,  // measure 31
0230
0000
0000
0020
0300
0031
1000
0010
,  // measure 32
0200
0000
0301
1000
0000
0010
1000
0001
,  // measure 33
0200
0000
0301
1000
0000
0010
0100
0001
,  // measure 34
0100
0010
0100
1000
0100
0001
0200
0000
,  // measure 35
0020
0000
0000
0000
0000
0000
0330
0000
1000
0000
0100
0000
0010
0001
0000
1000
,  // measure 36
0000
0100
0000
0010
0001
0000
1000
0000
0001
0000
0010
0000
0100
1000
0000
0001
,  // measure 37
0000
0010
0000
0100
1000
0000
0001
0000
1000
0000
0010
0000
0100
0001
0000
1000
,  // measure 38
0000
0010
0000
0100
0001
0000
1000
0000
0001
0000
0001
0000
1000
0010
1000
0010
,  // measure 39
0000
1000
0000
0001
1000
0000
0001
0000
1000
0000
0100
0000
1000
0010
0000
1000
,  // measure 40
0000
0100
0000
1000
0001
0000
1000
0000
0010
0000
0100
0000
0010
0001
0000
0010
,  // measure 41
0000
1000
0000
0010
0001
0000
0010
0000
1000
0000
0001
0000
1000
0001
0000
1000
,  // measure 42
0000
0001
0000
1000
0001
0000
1000
0000
1100
0000
0000
0000
1001
0000
0000
0000
,  // measure 43
1010
0000
0000
0000
1001
0000
0000
0000
0001
0000
0010
0000
0100
1000
0000
0100
,  // measure 44
0000
0010
0000
0001
0010
0000
0100
0000
1000
0000
0010
0000
0001
0100
0000
1000
,  // measure 45
0000
0010
0000
0001
0100
0000
1000
0000
0001
0000
0010
0000
0001
0100
0000
0001
,  // measure 46
0000
1000
0000
0001
0010
0000
0001
0000
0010
0000
0100
0000
0010
0100
0010
0100
,  // measure 47
0000
0010
0000
0001
0100
0000
0010
0000
0100
0000
0001
0000
0100
1000
0000
0100
,  // measure 48
0000
0001
0000
0100
1000
0000
0100
0000
0001
0000
0010
0000
1000
0010
0000
0001
,  // measure 49
0000
0010
0000
1000
0010
0000
0001
0000
0010
0000
0010
0000
0001
0100
0000
0010
,  // measure 50
0000
0010
0000
1000
0100
0000
0100
0000
1001
0000
0000
0000
1100
0000
0000
0000
,  // measure 51
1001
0101
0110
0000
,  // measure 52
1001
0000
0101
0000
,  // measure 53
1001
0000
0000
0000
;

//---------------dance-single - ----------------
#NOTES:
     dance-single:
     :
     Medium:
     10:
     0.382,0.408,0.325,0.199,0.000:
0000
0000
0000
0000
,
0000
0000
0000
0000
,
0000
0000
0000
0000
0001
1000
0001
2000
,
0000
0020
0000
3030
0000
0010
1000
0100
,
0000
0000
0000
0000
0010
0001
0010
0001
,
0020
0000
0000
0030
0000
0000
0000
0000
,
0000
0000
0000
0000
0010
1000
0010
0200
,
0002
0000
0000
0303
0000
0001
0100
0020
,
0000
0030
0000
0010
1000
0100
0010
0001
,
2000
0000
0000
3000
0000
1000
0001
2000
,
0000
0000
0000
3000
0000
0002
0000
0020
,
0000
0000
0000
0033
0000
0001
1000
0020
,
0000
0000
0000
0030
0000
0001
0000
2000
,
0000
0000
0000
0000
3000
0000
0002
2000
,
0000
0000
0000
3003
0000
0001
2000
0002
,
0000
0000
0000
3003
0000
0001
0100
0000
,
0020
0000
0000
2030
0000
0000
3200
0000
,
0000
0310
0000
0000
,
1001
0000
0000
1001
0000
0001
0010
0100
,
1000
0000
1000
0100
0000
1000
0100
0010
,
0001
0000
0001
0010
0000
0001
0010
0001
,
0010
0100
0010
1001
,
1001
0000
0000
1001
0000
1000
0100
0010
,
0001
0000
0001
0010
0000
0001
0100
0010
,
1000
0000
1000
0010
0000
0010
1000
0100
,
0010
0010
0001
0100
,
1001
0000
0000
1001
0000
1000
0100
0010
,
0001
0000
0001
0010
0000
0001
0100
0010
,
1000
0000
1000
0010
0000
0010
1000
0100
,
0010
0001
1000
0010
,
1001
0000
0000
1001
0000
0001
1000
0100
,
0010
0000
0010
0100
0000
1000
0010
0100
,
0001
0000
0001
0100
0000
0010
1000
0100
,
0010
0001
0010
0100
1000
0000
1001
0000
,
1001
0000
0001
0010
,
0001
0100
0010
1000
,
0010
1000
0100
0010
,
0001
0010
0001
1000
,
0001
0100
1001
0010
,
0100
1000
0010
0100
,
0001
0010
1001
0100
,
0010
1000
1001
1100
,
1001
0011
1001
1000
,
0010
0100
0101
0010
,
1000
0100
0110
0010
,
0100
0000
1000
0000
0010
0100
0010
0000
,
1000
0001
1000
0000
1010
0000
1000
0000
,
0001
0100
0101
0010
,
1000
0100
0110
0010
,
0100
1000
1010
1001
,
0101
1001
1010
0000
,
1100
0000
0110
0000
,
1001
0000
0000
0000
;

//---------------dance-single - ----------------
#NOTES:
     dance-single:
     :
     Easy:
     6:
     0.266,0.327,0.178,0.147,0.000:
0000
0000
0000
0000
,
0000
0000
0000
0000
,
0000
0000
0001
1000
,
0002
0000
0003
0001
,
0000
0000
1000
0010
,
2000
0000
3000
0000
,
0000
0000
0100
0010
,
0200
0000
0300
0010
,
0000
0000
0001
0010
,
0200
0300
0000
1000
,
2000
0000
3000
0001
,
0002
0000
0003
0010
,
0020
0000
0030
0100
,
0200
0000
0300
0010
,
0020
0000
0030
1000
,
2000
0000
3000
0001
,
0020
0000
0230
0000
,
2300
0000
3000
0000
,
1001
0000
1001
0010
,
1000
0100
0010
0001
,
0100
0010
1000
0100
,
1000
0001
1000
0010
,
1001
0000
1001
0001
,
0010
0100
1000
0010
,
0100
0001
0010
0001
,
1000
0001
0100
0001
,
1001
0000
1001
0010
,
1000
0100
1000
0010
,
0100
0001
0010
0100
,
0001
0010
0001
1000
,
1001
0000
1001
0001
,
0100
0010
1000
0100
,
0010
0100
1000
0010
,
0100
0001
0100
0010
,
2000
0000
3001
0000
,
1000
0000
0010
0000
,
1000
0000
0100
0000
,
0010
0000
0001
1000
,
0001
1000
0010
0000
,
1000
0000
0100
0000
,
0010
0000
0001
0000
,
0100
0000
0010
1000
,
0010
1000
1001
1000
,
0100
0010
0001
0100
,
0010
1000
0100
0010
,
0100
1000
0100
1000
,
0010
1000
0001
1000
,
0100
0010
0001
0100
,
0010
1000
0100
0010
,
0100
1000
1001
1001
,
1001
1001
1001
0000
,
1001
0000
1001
0000
,
1001
0000
0000
0000
;

//---------------dance-single - ----------------
#NOTES:
     dance-single:
     :
     Beginner:
     3:
     0.102,0.272,0.105,0.000,0.000:
0000
0000
0000
0000
,
0000
0000
0000
0000
,
0000
0000
0000
0000
,
0010
0000
0000
0000
,
0100
0000
0000
0000
,
1000
0000
0000
0000
,
1000
0000
0000
0000
,
0001
0000
0000
0000
,
0010
0000
0000
0000
,
0001
0000
0000
0000
,
0010
0000
0000
0000
,
0010
0000
0000
0000
,
0010
0000
0000
0000
,
0010
0000
0000
0000
,
0010
0000
0000
0000
,
0010
0000
0000
0000
,
0100
0000
0000
0000
,
1001
0000
0000
0000
,
1001
0000
0000
0000
,
1000
0000
0000
0000
,
0001
0000
0000
0000
,
1000
0000
0000
0000
,
1001
0000
0000
0000
,
0001
0000
0000
0000
,
1000
0000
0000
0000
,
0001
0000
0000
0000
,
0110
0000
0000
0000
,
0010
0000
0000
0000
,
0100
0000
0000
0000
,
0010
0000
0000
0000
,
0110
0000
0000
0000
,
0100
0000
0000
0000
,
0010
0000
0000
0000
,
0100
0000
0000
0000
,
1001
0000
1000
0000
,
0000
0000
0001
0000
,
0000
0000
0100
0000
,
0000
0000
0010
0000
,
0000
0000
1000
0000
,
0000
0000
0100
0000
,
0000
0000
0010
0000
,
0000
0000
0001
0001
,
0001
0001
1000
0000
,
0000
0000
0010
0000
,
0000
0000
0100
0000
,
0000
0000
0001
0000
,
0000
0000
0010
0000
,
0000
0000
0100
0000
,
0000
0000
1000
0000
,
0000
0000
0010
0010
,
0010
0010
1001
0000
,
1001
0000
1001
0000
,
1001
0000
0000
0000
;
