#TITLE:All in You;
#SUBTITLE:;
#ARTIST:Synapson feat. Anna Kova;
#TITLETRANSLIT:;
#SUBTITLETRANSLIT:;
#ARTISTTRANSLIT:;
#GENRE:;
#CREDIT:vincentw;
#BANNER:All in You.png;
#BACKGROUND:All in You-bg.png;
#LYRICSPATH:;
#CDTITLE:cdtitle.png;
#MUSIC:All in You.ogg;
#OFFSET:0.000000;
#SAMPLESTART:54.046974;
#SAMPLELENGTH:25.945946;
#SELECTABLE:YES;
#BPMS:0.000000=111.000000
;
#STOPS:
;
#BGCHANGES:;
#KEYSOUNDS:;
#ATTACKS:;

//---------------dance-single - ----------------
#NOTES:
     dance-single:
     :
     Beginner:
     3:
     0.124020,0.203404,0.000000,0.165019,0.000000,121.000000,121.000000,0.000000,23.000000,0.000000,0.000000,0.124020,0.203404,0.000000,0.165019,0.000000,121.000000,121.000000,0.000000,23.000000,0.000000,0.000000:
// measure 0
0000
0000
0000
0000
,  // measure 1
0000
0000
0000
0000
,  // measure 2
0000
0000
0000
0000
,  // measure 3
0000
0000
0000
0000
,  // measure 4
0000
0000
0000
0000
,  // measure 5
1000
0000
1000
0000
,  // measure 6
0001
0000
0001
0000
,  // measure 7
0200
0000
0300
0000
,  // measure 8
0020
0000
0030
0000
,  // measure 9
1000
0000
1000
0000
,  // measure 10
0001
0000
0001
0000
,  // measure 11
0020
0000
0030
0000
,  // measure 12
0200
0000
0300
0000
,  // measure 13
2000
0000
0000
3000
,  // measure 14
0200
0000
0000
0300
,  // measure 15
0020
0000
0000
0030
,  // measure 16
0002
0000
0000
0003
,  // measure 17
1000
1000
0000
0000
,  // measure 18
0010
0010
0000
0000
,  // measure 19
0100
0100
0000
0000
,  // measure 20
0001
0001
0000
0000
,  // measure 21
1000
1000
0010
0000
,  // measure 22
0010
0010
0100
0000
,  // measure 23
0100
0100
0001
0000
,  // measure 24
0001
0001
1000
0000
,  // measure 25
2000
0000
3200
0000
,  // measure 26
0320
0000
0030
0000
,  // measure 27
0002
0000
0203
0000
,  // measure 28
0310
0000
0010
0000
,  // measure 29
2000
0000
0000
0000
,  // measure 30
3002
0000
2003
0000
,  // measure 31
3002
0000
0000
0000
,  // measure 32
0003
0000
0000
0000
,  // measure 33
0020
0000
0000
0000
,  // measure 34
0230
0000
0320
0000
,  // measure 35
0230
0000
0000
0000
,  // measure 36
0300
0000
0000
0000
,  // measure 37
1000
1000
0000
0000
,  // measure 38
0001
0001
0000
0000
,  // measure 39
0100
0100
0000
0000
,  // measure 40
0010
0010
0000
0000
,  // measure 41
0000
1000
0000
1000
,  // measure 42
0000
0001
0000
0001
,  // measure 43
0000
0100
0000
0100
,  // measure 44
0000
0010
0000
0010
,  // measure 45
0000
1000
0100
1000
,  // measure 46
0000
0001
0010
0001
,  // measure 47
0000
0100
0001
0100
,  // measure 48
0000
0010
1000
0010
,  // measure 49
1000
1000
0100
1000
,  // measure 50
0001
0001
0010
0001
,  // measure 51
0100
0100
0001
0100
,  // measure 52
0010
0010
0000
0000
,  // measure 53
1000
1000
0010
0010
,  // measure 54
1000
0010
1000
0000
,  // measure 55
0001
0001
0100
0100
,  // measure 56
0001
0100
0001
0000
,  // measure 57
1000
1000
0001
0001
,  // measure 58
1000
0001
1000
0000
,  // measure 59
0100
0100
0010
0010
,  // measure 60
0200
0000
0000
0000
0000
0000
0000
0000
0000
0300
0000
0000
0000
0000
0000
0000
,  // measure 61
2000
0001
0000
0000
,  // measure 62
0000
0000
0000
0000
,  // measure 63
3000
0000
0000
0000
;

//---------------dance-single - ----------------
#NOTES:
     dance-single:
     :
     Easy:
     5:
     0.206017,0.248605,0.000000,0.150669,0.000000,201.000000,201.000000,0.000000,21.000000,0.000000,0.000000,0.206017,0.248605,0.000000,0.150669,0.000000,201.000000,201.000000,0.000000,21.000000,0.000000,0.000000:
// measure 0
0000
0000
0000
0000
,  // measure 1
0000
0000
0000
0000
,  // measure 2
0000
0000
0000
0000
,  // measure 3
0000
0000
0000
0000
,  // measure 4
0000
0000
0000
0000
,  // measure 5
1000
1000
0001
0000
,  // measure 6
0001
0001
1000
0000
,  // measure 7
0010
0100
0010
0000
,  // measure 8
0100
0010
0100
0000
,  // measure 9
0001
0010
0100
0000
,  // measure 10
1000
0010
0100
0000
,  // measure 11
0001
0001
1000
1000
,  // measure 12
0001
1000
1000
0000
,  // measure 13
0001
0010
0100
1000
,  // measure 14
0000
0100
0010
0001
,  // measure 15
1000
1000
0001
0001
,  // measure 16
0200
0000
0000
0000
0000
0000
0000
0300
0000
0000
0000
0000
,  // measure 17
0001
0001
1000
0100
,  // measure 18
1000
1000
0001
0100
,  // measure 19
0001
0001
1000
0010
,  // measure 20
1000
1000
0001
0010
,  // measure 21
0001
1000
0100
0100
,  // measure 22
1000
0001
0100
0100
,  // measure 23
0001
1000
0010
0010
,  // measure 24
1000
0001
0010
0000
,  // measure 25
0001
0100
1000
0100
,  // measure 26
0002
0000
1003
0001
,  // measure 27
1000
0100
0001
0100
,  // measure 28
2000
0000
3002
1000
,  // measure 29
2003
0010
0000
0001
,  // measure 30
0000
0100
0100
3001
,  // measure 31
0002
1000
0000
0010
,  // measure 32
0000
1000
1000
0103
,  // measure 33
0200
0001
0000
0010
,  // measure 34
0000
1000
1000
0310
,  // measure 35
0020
1000
0000
0100
,  // measure 36
0000
0001
0001
0130
,  // measure 37
0010
0010
1000
0000
,  // measure 38
1000
1000
0001
0000
,  // measure 39
0001
0001
0100
0000
,  // measure 40
0200
0000
0320
0000
,  // measure 41
0030
1000
0001
0100
,  // measure 42
0000
0001
1000
0100
,  // measure 43
0000
1000
0001
0010
,  // measure 44
0002
0000
2003
0000
,  // measure 45
3001
0010
0100
0100
,  // measure 46
1000
0010
0100
0100
,  // measure 47
0001
1000
0010
0100
,  // measure 48
0002
0100
2003
0100
,  // measure 49
3001
0010
0001
0000
1000
0000
0100
0000
,  // measure 50
1000
0010
1000
0000
0001
0000
0100
0000
,  // measure 51
0001
0010
0200
0000
0001
0000
1300
0000
,  // measure 52
1000
0010
0200
0000
1000
0000
0301
0000
,  // measure 53
1000
0100
1000
0000
0100
0000
0100
0000
,  // measure 54
0010
0001
0020
0000
1000
0000
0031
0000
,  // measure 55
0001
0010
0001
0000
0010
0000
0010
0000
,  // measure 56
0100
1000
0200
0000
0001
0000
1300
0000
,  // measure 57
0001
0010
1000
0010
,  // measure 58
0001
0200
1000
0301
,  // measure 59
0100
1000
0100
0001
,  // measure 60
0020
0000
1000
0031
,  // measure 61
2000
0001
0000
0000
,  // measure 62
0000
0000
0000
0000
,  // measure 63
3000
0000
0000
0000
;

//---------------dance-single - ----------------
#NOTES:
     dance-single:
     :
     Medium:
     9:
     0.307489,0.339006,0.000000,0.229591,0.168606,300.000000,300.000000,0.000000,32.000000,0.000000,0.000000,0.307489,0.339006,0.000000,0.229591,0.168606,300.000000,300.000000,0.000000,32.000000,0.000000,0.000000:
// measure 0
0000
0000
0000
0000
,  // measure 1
0000
0000
0000
0000
,  // measure 2
0000
0000
0000
0000
,  // measure 3
0000
0000
0000
0000
,  // measure 4
0000
0000
0000
0000
,  // measure 5
1000
1000
0020
0130
,  // measure 6
0001
0000
0001
0000
0020
0000
0130
0100
,  // measure 7
0000
1000
0000
0001
0000
0100
0000
0001
,  // measure 8
0000
1000
0000
0100
0000
0000
0000
0000
,  // measure 9
1000
0000
0010
0010
2000
0000
3001
0000
,  // measure 10
0001
0000
0010
0010
0002
0000
1003
1000
,  // measure 11
0000
0010
0000
0001
0000
0010
0000
1000
,  // measure 12
0000
0001
0000
0100
0000
0000
0000
0001
,  // measure 13
1000
0000
0010
0100
0010
1000
0001
0000
,  // measure 14
1000
0001
0010
0100
0010
0001
1000
0000
,  // measure 15
0002
0203
2300
3020
,  // measure 16
0032
0000
0000
0000
0000
0000
0000
0000
0000
0003
0000
0000
0000
0000
0000
0000
,  // measure 17
0001
0001
0100
0000
0010
1000
0010
0000
,  // measure 18
1000
1000
0100
0000
0010
0001
0010
0000
,  // measure 19
0100
0100
0010
0000
0001
0010
0001
0000
,  // measure 20
0100
0100
0010
0000
1000
0010
1000
0000
,  // measure 21
0001
0010
0200
0000
0001
0000
1300
0100
,  // measure 22
1000
0010
0200
0000
1000
0000
0301
0010
,  // measure 23
0001
0100
0020
0000
0001
0000
1030
0001
,  // measure 24
1000
0100
0020
0000
1000
0000
0031
0000
,  // measure 25
1000
0000
0100
0000
0010
0000
0001
0000
1000
0000
0000
0001
0000
0000
1000
0000
,  // measure 26
0020
0001
0100
1030
,  // measure 27
0001
0000
0000
0010
0000
0000
1000
0000
0001
0000
0000
0100
0000
0000
1000
0000
,  // measure 28
0001
0000
1000
0010
1000
0001
0100
0001
,  // measure 29
2000
0000
0010
0000
0100
0000
3001
0200
,  // measure 30
0000
0302
0000
0103
0001
0000
1000
0000
,  // measure 31
0200
0000
0001
0000
0010
0000
1300
0200
,  // measure 32
0000
0320
0000
0031
0010
0001
0100
0001
,  // measure 33
2000
0000
0001
0000
0010
0000
3100
0020
,  // measure 34
0000
0230
0000
0310
0001
1000
0100
1000
,  // measure 35
0002
0010
1000
0103
,  // measure 36
0001
0100
0001
0000
1000
0100
1000
0000
,  // measure 37
0001
0010
0100
0100
,  // measure 38
1000
0010
0100
0100
,  // measure 39
0001
0000
1000
0000
0100
0000
0010
0002
,  // measure 40
0000
0000
0000
2003
0000
0000
0000
3000
,  // measure 41
0001
0010
0001
0000
0010
0000
0100
0000
,  // measure 42
1000
0010
1000
0000
0010
0000
0100
0000
,  // measure 43
0001
1000
0001
0000
0010
0000
0100
2000
,  // measure 44
0000
0100
0000
0001
0000
0020
3000
0000
,  // measure 45
1030
0001
0100
0000
0001
0010
0100
0010
,  // measure 46
0000
0010
0001
0000
1000
0010
0100
0010
,  // measure 47
0000
0010
1000
0000
0001
0010
0100
1000
,  // measure 48
0000
1000
0200
0000
0000
2000
0000
3300
,  // measure 49
1000
0000
0001
0000
0100
0000
0000
0001
0000
0010
0000
0100
0000
0000
0010
0000
,  // measure 50
0000
0000
0010
0000
0001
0000
0000
1000
0000
0010
0000
0100
0000
0000
0010
0000
,  // measure 51
0000
0000
0010
0000
1000
0000
0000
0001
0000
0010
0000
0100
0000
0000
1000
0000
,  // measure 52
0000
0000
1000
0000
0100
0000
0000
1000
0000
0001
0000
1000
0000
0000
0001
0000
,  // measure 53
1000
0000
1000
0000
0000
0001
0000
0010
0000
0001
0000
0010
0000
0000
0010
0000
,  // measure 54
0001
0000
0001
0000
0000
1000
0000
0010
0000
1000
0000
0010
0000
0000
0010
0000
,  // measure 55
1000
0000
1000
0000
0000
0001
0000
0100
0000
0010
0000
1000
0000
0000
1000
0000
,  // measure 56
0001
0000
0001
0000
0000
1000
0000
0100
0000
0010
0000
0001
0000
0000
0001
0000
,  // measure 57
1000
0000
1000
0000
0000
0001
0000
0100
0000
1000
0000
0100
0000
0000
0100
0000
,  // measure 58
0001
0000
0001
0000
0000
1000
0000
0100
0000
0001
0000
0100
0000
0000
0100
0000
,  // measure 59
1000
0000
0001
0000
0000
1000
0000
0100
0000
0001
0000
0010
0000
0000
1000
0000
,  // measure 60
0002
0000
0000
0000
0003
0000
0000
0001
0000
0010
0000
0100
0000
1000
0001
0000
,  // measure 61
2000
0001
0000
0000
,  // measure 62
0000
0000
0000
0000
,  // measure 63
3000
0000
0000
0000
;

//---------------dance-single - ----------------
#NOTES:
     dance-single:
     :
     Hard:
     12:
     0.430484,0.474609,0.000000,0.236766,0.627789,420.000000,420.000000,0.000000,33.000000,4.000000,0.000000,0.430484,0.474609,0.000000,0.236766,0.627789,420.000000,420.000000,0.000000,33.000000,4.000000,0.000000:
// measure 0
0000
0000
0000
0000
,  // measure 1
0000
0000
0000
0000
,  // measure 2
0000
0000
0000
0000
,  // measure 3
0000
0000
0000
0000
,  // measure 4
0000
0000
0000
0002
,  // measure 5
1003
0000
0100
1000
0001
0000
0100
0001
,  // measure 6
1000
0000
0010
1000
0001
0000
0001
2000
,  // measure 7
0000
3200
0000
0302
0000
2003
0000
3002
,  // measure 8
0000
0000
0203
0000
0000
0000
2300
0000
3000
0000
0000
0010
0000
0000
1000
0000
,  // measure 9
0001
0000
0000
0000
1000
0000
0100
0000
2000
0000
0000
3001
0100
0000
0001
0000
,  // measure 10
1000
0000
0000
0000
0001
0000
1000
0000
0200
0000
0000
0310
0001
0000
0010
0000
,  // measure 11
0001
0000
0100
0000
1000
0000
0000
0001
0000
0010
0000
2000
0000
0000
3000
0000
,  // measure 12
1000
0000
0010
0000
0001
0000
0000
1000
0000
0100
0000
0002
0000
0000
0003
0000
,  // measure 13
0001
0000
0000
0000
0000
0001
0000
0000
0100
0000
0000
0000
0000
0100
0000
0000
0010
0000
0000
0000
0000
0010
0000
0000
1000
0000
0000
0000
0000
0000
0000
0000
,  // measure 14
1000
0000
0000
0000
0000
1000
0000
0000
0100
0000
0000
0000
0000
0100
0000
0000
0010
0000
0000
0000
0000
0010
0000
0000
0001
0000
0000
0000
0000
0000
0000
0000
,  // measure 15
0001
0000
0100
0001
0000
0000
1000
0000
0010
0000
1000
0100
0000
0000
1000
0000
,  // measure 16
0002
0000
0000
0000
0000
0000
0000
0000
0000
0003
0000
0001
0000
0000
0000
0000
,  // measure 17
0010
0000
0010
0000
0100
0000
0000
1000
0000
0001
0000
1000
0000
0001
0200
0000
,  // measure 18
0000
0000
0301
0000
1000
0000
0000
0100
0000
0010
0000
0100
0000
0010
0002
0000
,  // measure 19
0000
0000
1003
0000
0010
0000
0000
1000
0000
0001
0000
0100
0000
0010
2000
0000
,  // measure 20
0000
0000
3100
0000
0100
0000
0001
1000
0000
0010
0000
0100
0000
1000
0001
0000
,  // measure 21
0100
0000
0100
0000
0010
0000
0000
1000
0000
0100
0000
0010
0000
0001
0020
0000
,  // measure 22
0000
0000
0031
0000
1000
0000
0000
0010
0000
1000
0000
0001
0000
0100
0002
0000
,  // measure 23
0000
0000
1003
0000
0100
0000
0000
1000
0000
1000
0000
0001
0000
0001
2000
0000
,  // measure 24
0000
0000
3010
0000
1000
0000
0100
0001
0000
1000
0000
0010
0000
0001
1000
0000
,  // measure 25
0001
0000
0100
0000
0010
0000
1000
0000
0001
0000
0100
0002
0000
0000
1003
0000
,  // measure 26
0100
0000
0010
0000
1000
0000
0010
0000
0001
0000
1000
0020
0000
0000
0130
0000
,  // measure 27
0001
0000
1000
0200
0000
0300
0100
0000
1000
0000
0001
0200
0000
0300
0100
0000
,  // measure 28
0001
0000
1000
0000
0001
0000
0010
0000
0100
0000
1000
0020
0100
0000
0030
0000
,  // measure 29
0010
0000
1000
0000
0100
0000
1000
0000
0001
0000
0010
0000
0001
1000
0000
1000
,  // measure 30
0001
0100
0000
0100
0001
1000
0000
1000
0010
0000
0100
0000
0001
0000
1000
0000
,  // measure 31
0100
0000
0010
0000
0001
0000
000M
0100
0000
0010
0000
0001
0000
1000
0001
0000
,  // measure 32
1000
0000
0010
0000
0100
0000
0M00
1000
0000
0010
0000
0100
0000
0100
0001
0000
,  // measure 33
0100
0000
0001
0000
0010
0000
0001
0000
1000
0000
0100
0000
1000
0001
0000
0001
,  // measure 34
1000
0010
0000
0010
1000
0001
0000
0001
0100
0000
0010
0000
1000
0000
0001
0000
,  // measure 35
0100
0000
0001
0000
0010
0000
00M0
0100
0000
0001
0000
0010
0000
0010
0001
1000
,  // measure 36
0100
0000
1000
0000
0010
0000
00M0
0100
0000
1000
0000
0010
0000
0010
1000
0001
,  // measure 37
0100
0000
0100
0000
0001
0000
0000
1000
0000
0010
0000
0100
0000
0010
0000
0000
,  // measure 38
1000
0000
1000
0000
0001
0000
0000
1000
0000
1000
0000
0001
0000
0000
0000
0000
,  // measure 39
0100
0000
0100
0000
0010
0000
0000
0100
0000
0100
0000
0010
0000
0000
1000
0000
,  // measure 40
0001
0000
0001
0000
0000
1000
0000
0100
0000
1000
0000
0000
0001
0000
0010
0000
,  // measure 41
0100
0000
1000
0000
0010
0000
0000
1000
0000
0001
0000
0010
0000
0100
0000
0000
,  // measure 42
0100
0000
1000
0000
0010
0000
0000
1000
0000
0001
0000
0010
0000
0100
2000
0000
,  // measure 43
0000
0000
3001
0000
0010
0000
0000
0001
0000
1000
0000
0010
0000
0100
0002
0000
,  // measure 44
0000
0000
0010
0000
0000
0000
1000
0000
0000
0003
0200
0000
0001
0000
0300
0000
,  // measure 45
0001
0000
1000
0000
0010
0000
0000
0100
0000
0100
0000
0010
0000
0010
2000
0000
,  // measure 46
0000
0000
3001
0000
1000
0000
0000
0100
0000
0100
0000
0010
0000
0010
0002
0000
,  // measure 47
0000
0000
1003
0000
0001
0000
0000
0010
0000
0100
0000
1000
0000
0001
2000
0000
,  // measure 48
0000
3010
0100
0000
0001
2000
0001
3000
,  // measure 49
0001
0000
0010
0000
0100
0010
0000
0001
0000
0100
0000
1000
0000
0100
0001
0000
,  // measure 50
1000
0000
0001
0000
0010
0001
0000
1000
0000
0100
0000
0001
0000
0100
1000
0000
,  // measure 51
0001
0000
0100
0000
0010
0100
0000
1000
0000
0001
0000
0010
0000
1000
0001
0000
,  // measure 52
1000
0000
0100
0000
0010
0100
0000
0001
0000
1000
0000
0010
0000
0001
1000
0000
,  // measure 53
0001
0000
1000
0000
0100
1000
0000
0001
0000
0001
0000
0100
0001
0000
1000
0010
,  // measure 54
1000
0000
0100
0000
1000
0001
0000
0100
0000
0100
0000
0001
1000
0000
0001
0010
,  // measure 55
0001
0000
0100
0000
0010
1000
0000
0001
0000
0001
0000
0010
0001
0000
1000
0010
,  // measure 56
1000
0000
0100
0000
0010
0100
0000
1000
0000
1000
0000
0001
0100
0000
0010
1000
,  // measure 57
0010
0000
0100
0000
0000
0001
0000
0010
0000
0100
0000
0000
0010
0000
0001
0000
,  // measure 58
1000
0000
0100
0000
0000
1000
0000
0001
0000
0100
0000
0000
0010
0000
0100
0000
,  // measure 59
0001
0000
0010
0000
0000
1000
0000
0001
0000
1000
0000
0000
0010
0000
0001
0000
,  // measure 60
2000
0000
0000
0000
0000
0000
0000
3001
0000
0010
0000
0001
0000
0100
0010
0000
,  // measure 61
2000
0001
0000
0000
,  // measure 62
0000
0000
0000
0000
,  // measure 63
3000
0000
0000
0000
;
