#TITLE:All Of You;
#SUBTITLE:;
#ARTIST:Prince Paris & Beau Collins;
#TITLETRANSLIT:;
#SUBTITLETRANSLIT:;
#ARTISTTRANSLIT:;
#GENRE:;
#CREDIT:;
#BANNER:All Of You.png;
#BACKGROUND:All Of You-bg.png;
#LYRICSPATH:;
#CDTITLE:;
#MUSIC:All Of You.ogg;
#OFFSET:2.100040;
#SAMPLESTART:57.726860;
#SAMPLELENGTH:19.199997;
#LASTBEATHINT:1.781238;
#SELECTABLE:YES;
#BPMS:0.000000=100.000000
;
#STOPS:
;
#BGCHANGES:;
#KEYSOUNDS:;
#ATTACKS:;

//---------------dance-single - ----------------
#NOTES:
     dance-single:
     :
     Hard:
     15:
     0.592670,0.722219,0.188248,0.195488,0.774711,573.000000,547.000000,26.000000,27.000000,0.000000,0.000000,0.592670,0.722219,0.188248,0.195488,0.774711,573.000000,547.000000,26.000000,27.000000,0.000000,0.000000:
0000
0000
0000
0000
,
0000
0000
0000
0000
,
0000
0000
0000
0000
,
0000
0000
0000
0000
,
0000
0000
0000
0000
,
0001
0000
1000
0000
0010
0000
0000
1000
0010
1000
0001
0000
0010
0000
0000
0000
,
0100
1000
0100
0000
1000
0000
0001
0000
0100
0000
0010
0000
0110
0000
0000
0000
,
0100
0000
0001
0000
1000
0000
0000
0001
0100
0001
1000
0000
0010
0000
0000
1000
,
0010
1000
0001
0000
0001
0000
1000
0000
0200
0000
0310
0000
0001
0010
0000
0100
,
0010
0100
0000
0100
1000
0000
0010
0000
0001
0000
0010
0000
0100
0010
0000
0010
,
1000
0001
0000
0001
1000
0000
0100
0000
0001
0000
0100
0000
0010
0000
0001
0000
,
1000
0000
0010
0000
0100
0000
0000
0001
0100
0001
0010
0000
0100
0000
0000
1000
,
0100
0000
0001
0000
0100
0000
1000
0000
0001
0000
1000
0001
0020
0000
0130
0000
,
2001
0000
0000
0000
3010
0000
0100
0000
0002
0000
0000
0000
0013
0000
0000
0100
,
0010
0001
0100
0010
2000
3010
0100
0001
,
0020
0000
0000
0000
0130
0000
1000
0000
0010
0000
1000
0001
0000
0000
0100
0000
,
0001
0000
0000
1000
0000
0000
0010
0000
0000
0000
1000
0100
0010
0000
0100
1000
,
0002
0000
0000
0000
0013
0000
0000
0000
0000
0000
0001
0100
0010
0000
0100
0001
,
1000
1000
0100
0000
0000
0000
0010
0001
,
1000
0010
0001
0010
1000
0000
0001
1000
,
0100
0000
0001
0000
0100
0000
1000
0000
0010
0000
1000
0010
0100
0000
0010
1000
,
0001
0000
0000
0000
0000
0000
0001
0000
0100
0000
0000
0000
0010
0000
0000
0000
1000
0000
0000
0000
0001
0000
0010
0000
0100
0000
0000
0000
0010
0001
1000
0001
,
1000
0000
1000
0001
0100
0000
0001
0000
0010
0100
0000
0100
1000
0100
0020
0000
,
0031
0000
0100
0000
0001
0000
0100
0000
0010
0000
1000
0000
0001
1000
0001
1000
0100
0000
0010
0000
0001
0010
0100
1000
0001
0000
0000
0000
2020
0000
0000
0000
,
0000
0000
3030
0000
0000
0000
0001
1000
0001
0000
0010
0000
0010
0000
0000
0001
,
0000
0000
0001
0000
1000
0000
0000
0000
0010
1000
0010
0000
0100
0000
0001
0000
0010
0001
0010
0000
0100
0000
0000
0000
1200
0000
0000
0000
0000
0000
1300
0000
,
0000
0000
1000
0000
0001
0000
0000
0000
0010
0001
0010
0000
0100
0000
1000
0000
0010
1000
0010
0000
0100
0000
0000
0000
0102
0000
0000
0000
0000
0000
0013
0000
,
0000
0000
0010
0000
0100
0000
0000
0000
1000
0001
1000
0000
0010
0000
0100
0000
0001
1000
0001
0000
0010
0000
0000
0000
2100
0000
0000
0000
0000
0000
3010
0000
,
0000
0000
0010
0000
0100
0000
0000
0000
0001
1000
0001
0000
0010
0000
0100
0000
1000
0001
1000
0000
0010
0000
0000
0000
0201
0000
0000
0000
0000
0000
0301
0000
,
0000
0000
0001
0000
0100
0000
0010
0000
1000
0001
0100
0000
0010
0000
1000
0000
0001
0010
0100
0000
1000
0000
0000
0000
2010
0000
0000
0000
0000
0000
3001
0000
,
0000
0000
0001
0000
0010
0000
0000
0000
0001
1000
0100
0000
0010
0000
0001
0000
1000
0010
0100
0000
0001
0000
0000
0000
2001
0000
0000
0000
0000
0000
3010
0000
,
0000
0000
0010
0000
0100
0000
0000
0000
0001
1000
0010
0000
0100
0000
0001
0000
1000
0001
0010
0000
0100
0000
0000
0000
1020
0000
0000
0000
0000
0000
1030
0000
,
0000
0000
1000
0000
0001
0000
0000
0000
0100
0001
1000
0000
0010
0000
1000
0000
0100
1000
0001
0000
0010
0000
0000
0000
0011
0000
0000
0000
0100
0000
0000
0000
,
1000
0000
0000
1000
0100
0000
1000
0000
0100
0010
0000
0000
0110
0000
0010
0000
,
0011
0000
0000
0001
0010
0000
0001
0000
0010
0100
0000
0000
1100
0000
0010
0000
,
0001
0000
0000
0001
0100
0000
0001
0000
0100
0010
0000
0000
0110
0000
0010
1000
,
0001
0000
1000
0100
1000
0000
0001
0000
0010
0100
0000
0010
0001
1000
0020
0000
,
1030
0000
0002
1000
0000
0000
1000
0000
0000
1003
0000
0010
1000
0001
0020
0000
,
0031
0000
2000
0001
0000
0000
0001
0000
0000
3001
0000
0000
0100
0000
0010
0000
,
0001
0000
0000
0001
0010
0000
0100
0000
1000
0010
0000
0000
0010
0000
1000
0000
,
0001
0000
0000
0001
0000
0000
1000
0000
0000
1000
0010
1000
0001
0000
0010
0100
,
2000
0000
0000
0000
3010
0000
0000
0000
0010
0000
0100
0001
1000
0000
0100
0010
,
0001
0000
0011
0000
1100
0000
0000
0000
1000
0000
0000
1000
0100
0000
0010
0000
,
0001
0000
0100
0000
1000
0000
0100
0000
0001
0000
0000
0001
1000
0000
0010
0000
,
1000
0000
0100
0000
0001
0000
0100
0000
1000
0000
0010
1000
0001
0000
0010
0100
,
1000
0000
0000
0000
0000
0000
0100
0000
0001
0000
0000
0000
0100
0000
0000
0000
1000
0000
0000
0000
0000
0000
0100
0000
0010
0000
0000
0000
0001
1000
0001
1000
,
0001
0000
0000
0100
1000
0000
0100
0000
0001
1000
0000
0001
0010
0100
2000
0000
,
3010
0000
0100
0000
0010
0000
1000
0000
0100
0000
0010
0000
0001
1000
0001
1000
0010
0000
0100
0000
0001
0010
0100
1000
0001
0000
0000
0000
0202
0000
0000
0000
,
0000
0000
0303
0000
0000
0000
1000
0001
1000
0000
0010
0000
0010
0000
0000
1000
,
0010
0000
1000
0000
0001
0000
0000
0000
1000
0100
1000
0000
0010
0000
0100
0000
0001
0100
0001
0000
0010
0000
0000
0000
1010
0000
0000
0000
0000
0000
0001
0000
,
0010
0000
0001
0000
1000
0000
0000
0000
0001
0100
0001
0000
0010
0000
0100
0000
1000
0100
1000
0000
0010
0000
0000
0000
0110
0000
0000
0000
0000
0000
0100
0000
,
0010
0000
1000
0000
0100
0000
0000
0000
0010
0001
0010
0000
0100
0000
1000
0000
0010
1000
0010
0000
0100
0000
0000
0000
0101
0000
0000
0000
0000
0000
0001
0000
,
0010
0000
0001
0000
1000
0000
0100
0000
0010
0001
0010
0000
0100
0000
1000
0000
0010
1000
0010
0000
0100
0000
0000
0000
1001
0000
0000
0000
0000
0000
1000
0000
,
0010
0000
1000
0000
0100
0000
0010
0000
0001
0010
0100
0000
0010
0000
0001
0000
1000
0010
0100
0000
0001
0000
0000
0000
0011
0000
0000
0000
0010
0000
0100
0000
,
0010
0000
0001
0000
0010
0000
0100
0000
1000
0100
0010
0000
0100
0000
1000
0000
0001
0100
0010
0000
1000
0000
0000
0000
1010
0000
0000
0000
0010
0000
0100
0000
,
0010
0000
1000
0000
0100
0000
0000
0000
1000
0001
0010
0000
0100
0000
1000
0000
0001
1000
0010
0000
0100
0000
0000
0000
0110
0000
0000
0000
0010
0000
0100
0000
,
0001
0000
0010
0000
0100
0000
1000
0000
0010
0100
0010
0000
1000
0000
0001
0000
0010
0100
0010
0000
0001
0000
0000
0000
2002
0000
0000
0000
0000
0000
0000
0000
,
3003
0000
0000
0000
;

//---------------dance-single - ----------------
#NOTES:
     dance-single:
     :
     Medium:
     13:
     0.449932,0.577775,0.130325,0.130325,0.477859,435.000000,417.000000,18.000000,18.000000,0.000000,0.000000,0.449932,0.577775,0.130325,0.130325,0.477859,435.000000,417.000000,18.000000,18.000000,0.000000,0.000000:
0000
0000
0000
0000
,
0000
0000
0000
0000
,
0000
0000
0000
0000
,
0000
0000
0000
0000
,
0000
0000
0000
0000
,
0000
0000
1000
0000
0001
0000
0000
1000
0100
1000
0001
0000
0000
0000
0000
0000
,
0001
0010
0100
1000
0001
0000
0100
0000
,
0000
0000
0001
0000
1000
0000
0000
0001
0100
0001
1000
0000
0000
0000
0000
0100
,
0010
0100
0010
0000
0001
0000
1000
0000
0010
0000
0000
0000
1000
0001
0000
0010
,
0000
0010
0000
0001
0010
0000
0100
0000
0000
0000
0000
0000
0100
1000
0000
0010
,
0000
0010
0000
1000
0001
0000
0100
0000
0000
0000
0000
0000
0010
0000
2000
0000
,
0000
0000
3001
0000
0010
0000
0000
0100
0010
0100
0010
0000
0000
0000
0000
0001
,
1000
0010
0100
0001
1000
0000
0001
1000
,
0010
0000
1000
0001
0010
0000
1100
0000
,
1000
0100
0001
0100
1000
0000
0001
1000
,
0100
0000
1000
0001
0100
0000
0210
0000
,
0001
0000
0000
0000
0310
0000
1000
0000
0000
0000
0001
1000
0001
0000
1000
0001
,
2000
0000
0000
0000
3010
0000
0000
0000
0000
0000
0010
1000
0001
0000
1000
0001
,
1000
1000
0100
0000
0000
0000
0010
0001
,
0100
1000
0100
0001
0010
0000
0100
1000
,
0010
0000
0001
0000
0010
0000
1000
0000
0100
0000
0010
0001
0010
0000
0001
0010
,
0002
0000
0000
0000
0103
0000
0000
0000
0000
0000
0010
1000
0010
0000
1000
0010
,
1000
0000
1000
0000
0100
0000
0000
0000
0010
0001
0000
0010
0001
0000
1000
0000
,
0010
0000
0001
0000
0010
0000
1000
0000
0001
1000
0001
1000
0100
0010
0002
0000
,
0000
0000
0003
0000
0000
0000
0000
0000
0000
0000
0000
0000
0000
0000
0000
0001
,
0000
0001
1000
0000
0010
1000
0001
0100
0010
1000
0100
0000
0011
0000
0000
1000
,
0000
1000
0001
0000
0010
0001
1000
0100
0010
0001
0100
0000
1010
0000
0000
1000
,
0000
1000
0010
0000
0100
0001
1000
0010
0100
0001
0010
0000
1100
0000
0000
0001
,
0000
0001
0010
0000
0100
1000
0001
0010
0100
1000
0010
0000
0101
0000
0000
0100
,
0000
0100
0010
1000
0001
0100
0001
0010
0100
1000
0100
0000
0110
0000
0000
0010
,
0000
0010
0001
0000
1000
0100
1000
0010
0100
0001
0100
0000
1001
0000
0000
1000
,
0000
1000
0001
0000
0010
0001
0100
0010
1000
0100
0010
0000
0011
0000
0000
0001
,
0000
0001
1000
0000
0010
1000
0100
0010
0001
0100
0010
0000
1010
0000
0100
0000
,
0002
0000
0000
0000
0013
0000
0100
0000
0020
0000
0000
0000
0030
0000
0000
0100
,
0010
0001
1000
0010
0100
0000
0100
0010
,
2000
0000
0000
0000
3001
0000
0010
0000
0002
0000
0000
0000
0003
0000
0000
1000
,
0001
0000
0010
0000
0100
0000
1000
0000
0010
0000
0000
0000
1000
0010
2000
0000
,
0000
0000
0001
0000
0000
0000
0000
0000
3000
0000
0000
0010
0001
0010
0002
0000
,
0000
0100
0000
0000
0003
0000
0100
0001
,
2000
0000
3010
0100
0002
0000
0013
0000
,
0100
0000
0000
0100
0000
0000
0100
0000
0000
0000
1000
0100
1000
0000
0001
0010
,
0002
0000
0000
0000
1003
0000
0000
0000
0000
0000
0001
0100
0001
0000
1000
0010
,
1000
1000
0001
0000
0000
0000
1000
0001
,
0010
1000
0010
0001
1000
0000
0001
0010
,
0100
0000
0001
0000
0100
0000
1000
0000
0010
0000
1000
0010
1000
0000
0001
0100
,
0002
0000
0000
0000
1003
0000
0000
0000
1000
0000
0001
0010
0001
0000
1000
0100
,
1000
1000
0010
0000
0100
0000
0001
0100
,
0010
0000
1000
0000
0001
0000
1000
0000
0100
0010
0001
0010
0100
1000
0020
0000
,
0000
0000
0030
0000
0000
0000
0000
0000
0000
0000
0000
0000
0000
0000
0000
1000
,
0000
1000
0100
0000
0010
0001
0010
0100
1000
0010
0100
0000
0101
0000
0000
0001
,
0000
0001
0100
0000
0010
1000
0010
0100
0001
0010
0100
0000
1100
0000
0000
1000
,
0000
1000
0001
0000
0100
0001
0100
0010
1000
0100
0010
0000
0011
0000
0000
0001
,
0000
0001
1000
0100
0010
0100
1000
0001
0010
0100
1000
0000
1010
0000
0000
0010
,
0000
0010
1000
0001
0100
0010
0100
0001
0010
0100
1000
0000
1001
0000
0000
1000
,
0000
1000
0001
0100
0010
0100
0010
1000
0100
0010
0001
0000
1001
0000
0000
1000
,
0000
1000
0001
0000
1000
0010
0100
0001
0010
0100
1000
0000
0011
0000
0000
0001
,
0000
0001
1000
0010
0100
0001
1000
0001
0010
0100
1000
0000
2020
0000
0000
0000
,
3030
0000
0000
0000
;

//---------------dance-single - ----------------
#NOTES:
     dance-single:
     :
     Easy:
     9:
     0.332019,0.350792,0.086883,0.050682,0.090504,321.000000,309.000000,12.000000,7.000000,0.000000,0.000000,0.332019,0.350792,0.086883,0.050682,0.090504,321.000000,309.000000,12.000000,7.000000,0.000000,0.000000:
0000
0000
0000
0000
,
0000
0000
0000
0000
,
0000
0000
0000
0000
,
0000
0000
0000
0000
,
0000
0000
0000
0000
,
0000
1000
0001
0000
0001
1000
0000
0000
,
1000
0100
0010
0001
1000
0000
0000
0000
,
0000
0001
1000
0000
1000
0001
0000
0000
,
1000
0000
0100
0000
0010
0000
0001
0000
1000
0000
0000
0000
0010
0000
0000
1000
,
0000
1000
0000
0000
0001
0000
1000
0000
0000
0000
0000
0000
1000
0000
0000
0001
,
0000
0001
0000
0000
0010
0000
0001
0000
0000
0000
0000
0000
0100
0000
0010
0000
,
0000
1000
0010
0000
1000
0001
0000
0000
,
0010
0001
0010
0100
1000
0000
0001
0100
,
0010
0000
1000
0100
0010
0000
0001
0000
,
1000
0001
1000
0001
0100
0000
0001
0010
,
0100
0000
1000
0010
0100
0000
0010
1000
,
0000
0000
1000
0000
0001
0000
1000
1000
,
0001
0000
0001
0000
0010
0000
0001
0001
,
0100
0100
0010
0000
1000
0000
0001
0000
,
0010
0001
0010
0001
0100
0000
0001
1000
,
0010
1000
0010
1000
0100
0000
0010
0010
,
0001
0000
1000
0000
0001
0000
1000
1000
,
0100
0100
0010
0000
0001
0000
0100
0000
,
0010
1000
0010
1000
0001
0100
0001
2000
,
0000
3000
0000
0000
0010
0010
0010
0000
,
1001
0000
0010
0001
0010
0100
1000
0000
,
1010
0000
0010
1000
0010
0100
0001
0000
,
1001
0000
1000
0100
0010
0001
1000
0000
,
1010
0000
0010
0100
0001
0100
0010
0000
,
1001
0000
1000
0100
0010
0100
1000
0000
,
0101
0000
0001
0010
0100
1000
0010
0000
,
1010
0000
1000
0001
0010
0001
1000
0000
,
1100
0000
0100
0010
0001
1000
0010
0000
,
1000
0000
0000
0001
0000
0000
0010
0000
0000
0010
0000
0000
0100
0000
1000
0000
,
0001
0000
0000
1000
0000
0000
0010
0000
0000
0010
0000
0000
0100
0000
0001
0000
,
1000
0000
0000
1000
0000
0000
0100
0000
0000
0100
0000
0000
0010
0000
0001
0000
,
0010
0000
0000
0010
0000
0000
0100
0000
0000
0100
0000
0000
1000
0000
0001
0000
,
2000
0000
0000
0010
0000
0000
0010
0000
0000
0010
0000
0000
3010
0000
0100
0000
,
0002
0000
0000
0010
0000
0000
1000
0000
0000
1000
0000
0000
0103
0000
0010
0000
,
2000
0000
3001
0010
0002
0000
0103
0010
,
1000
0000
0000
1000
0000
0000
1000
0000
0000
0000
0001
0000
0100
0000
0010
0000
,
0010
0000
1000
0000
0001
0010
0001
1000
,
0100
0100
0100
0000
1000
0000
0010
1000
,
0001
1000
0001
0100
0001
0000
0010
0001
,
1000
0100
1000
0100
0010
0000
0001
0010
,
0100
0000
0010
0000
0001
1000
0001
1000
,
0010
0010
0010
0000
0100
0000
0001
0010
,
0100
1000
0001
1000
0100
0010
0001
0200
,
0000
0300
0000
0000
0010
0010
0010
0000
,
1010
0000
1000
0100
0001
0100
1000
0000
,
0101
0000
0001
0010
1000
0010
0001
0000
,
1100
0000
1000
0100
0010
0001
0100
0000
,
0110
0000
0000
0000
0010
0000
1000
0000
0001
0000
0010
0000
0100
0000
0000
0100
,
0000
0100
1000
0000
0001
0000
0010
0000
0001
0000
1000
0000
0010
0000
0000
0100
,
0000
0100
0001
0000
0010
0000
0001
0000
0100
0000
0010
0000
1000
0000
0000
0001
,
0000
0001
1000
0000
0010
0000
1000
0000
0100
0000
0010
0000
0001
0000
0000
1000
,
0000
1000
0001
0000
0010
0000
0001
0000
1000
0000
0010
0000
0200
0000
0000
0000
,
0300
0000
0000
0000
;

//---------------dance-single - ----------------
#NOTES:
     dance-single:
     :
     Beginner:
     4:
     0.161355,0.246532,0.079643,0.000000,0.000000,156.000000,145.000000,11.000000,0.000000,0.000000,0.000000,0.161355,0.246532,0.079643,0.000000,0.000000,156.000000,145.000000,11.000000,0.000000,0.000000,0.000000:
// measure 0
0000
0000
0000
0000
,  // measure 1
0000
0000
0000
0000
,  // measure 2
0000
0000
0000
0000
,  // measure 3
0000
0000
0000
0000
,  // measure 4
0000
0000
0000
0000
,  // measure 5
1000
0010
1000
0000
,  // measure 6
0001
0001
0001
0000
,  // measure 7
0010
0001
0010
0000
,  // measure 8
0100
0100
0100
0000
,  // measure 9
1000
0001
0000
0001
,  // measure 10
1000
0010
0000
0010
,  // measure 11
0100
0001
0100
0000
,  // measure 12
0010
0010
0010
0000
,  // measure 13
1000
1000
1000
0000
,  // measure 14
0001
0001
0001
0000
,  // measure 15
0010
0010
0010
0000
,  // measure 16
0100
0000
1000
0000
,  // measure 17
0001
0001
0000
0000
,  // measure 18
1000
1000
0000
0000
,  // measure 19
0010
1000
0100
0000
,  // measure 20
0010
0001
0100
0000
,  // measure 21
0001
0001
0000
0000
,  // measure 22
1000
1000
0000
0000
,  // measure 23
0010
1000
0001
0100
,  // measure 24
0010
0000
0000
0000
,  // measure 25
1001
0001
0000
0110
,  // measure 26
0100
0110
0000
1001
,  // measure 27
1000
1001
0000
0110
,  // measure 28
0010
0110
0000
1000
,  // measure 29
0001
0001
0010
0000
,  // measure 30
0100
0100
1000
0000
,  // measure 31
0010
0010
1000
0000
,  // measure 32
1000
1000
0001
0000
,  // measure 33
0010
0010
0010
0000
,  // measure 34
0100
0100
0100
0000
,  // measure 35
1000
1000
1000
0000
,  // measure 36
0001
0001
0001
0000
,  // measure 37
0010
0000
0001
0000
,  // measure 38
0100
0000
0010
0000
,  // measure 39
1000
0001
1000
0000
,  // measure 40
0010
0100
0010
0000
,  // measure 41
1000
1000
0000
0000
,  // measure 42
0001
0001
0000
0000
,  // measure 43
0010
0010
0010
0000
,  // measure 44
0100
0100
0100
0000
,  // measure 45
0001
0001
0000
0000
,  // measure 46
1000
1000
0000
0000
,  // measure 47
0010
1000
0010
1000
,  // measure 48
0001
0000
0000
0000
,  // measure 49
1001
0001
1000
0000
,  // measure 50
0110
0100
0010
0000
,  // measure 51
1001
1000
0001
0000
,  // measure 52
0110
0010
0100
0000
,  // measure 53
1000
0100
1000
0000
,  // measure 54
0001
0010
0001
0000
,  // measure 55
1000
0001
1000
0001
,  // measure 56
0010
0100
1000
0001
;
