#TITLE:All For You;
#SUBTITLE:;
#ARTIST:Janet Jackson;
#TITLETRANSLIT:;
#SUBTITLETRANSLIT:;
#ARTISTTRANSLIT:;
#GENRE:;
#CREDIT:;
#BANNER:;
#BACKGROUND:;
#LYRICSPATH:;
#CDTITLE:;
#MUSIC:All For You.ogg;
#OFFSET:-0.529000;
#SAMPLESTART:9.741000;
#SAMPLELENGTH:16.944000;
#SELECTABLE:YES;
#DISPLAYBPM:114.000000;
#BPMS:0.000000=113.500000
;
#STOPS:
;
#BGCHANGES:0.000=All For You.avi=1.000=0=0=0=StretchNoLoop====,
99999=-nosongbg-=1.000=0=0=0 // don't automatically add -songbackground-
;
#KEYSOUNDS:;
#ATTACKS:;

//---------------dance-single - ----------------
#NOTES:
     dance-single:
     :
     Hard:
     8:
     0.319303,0.315723,0.020046,0.230528,0.000000,223.000000,221.000000,2.000000,23.000000,0.000000,0.000000,0.319303,0.315723,0.020046,0.230528,0.000000,223.000000,221.000000,2.000000,23.000000,0.000000,0.000000:
0000
0000
0000
0000
,
0000
0000
0000
0000
,
0000
0000
0000
0000
,
0000
0000
0000
0000
,
0000
0000
0000
0001
0100
0000
0100
0000
,
0102
0000
0010
0013
,
0010
0100
1000
0000
1000
0010
0100
0000
,
0020
0000
1000
1030
,
1000
0100
0001
0000
0001
0100
1000
0000
,
0200
0000
0010
0301
,
0001
0100
0001
0010
,
0002
1003
2000
3001
,
0020
0000
0130
0000
2000
0010
3010
0000
,
0010
0100
0001
0000
0001
0010
0100
0000
,
1000
0010
0100
0001
0010
0010
0001
0000
,
2000
0000
3001
0000
0001
0100
0010
0000
,
0010
1000
0100
1000
0100
0010
0100
0000
,
1000
1000
0001
0000
0001
0100
0010
0000
,
0010
0100
0001
0010
0020
0000
0031
0000
,
0001
1000
0100
0000
0100
1000
0010
0000
,
0010
0100
0001
0010
0001
0001
0100
0000
,
0001
0001
1000
0000
0001
0001
1000
0000
,
1000
0010
0100
0001
0010
0010
0001
0000
,
1000
1000
0001
0000
1000
1000
0001
0000
,
0001
0100
1000
0010
,
0001
0001
0010
0000
0001
0001
0010
0000
,
0010
0100
1000
0001
,
0100
0100
0010
0000
0100
0100
0010
0000
,
0020
1000
1030
0000
0010
0100
0001
0010
,
0020
0130
0200
0310
,
0010
0001
1000
0000
1000
0010
0100
0001
,
0020
0000
0031
0000
0001
0001
0100
0000
,
0001
0010
0100
0000
0100
0010
1000
0020
,
0000
0001
0031
0000
0002
0000
0103
0000
,
0001
0010
0100
0010
0001
0000
1000
0000
,
0020
0130
0200
0301
,
0002
0013
0200
1300
,
1000
0010
0100
0000
0001
0001
0001
0000
,
0010
0100
1000
0001
1000
1000
0001
0000
,
0200
0301
0020
0031
,
0001
0001
0001
0001
0001
0000
1000
0000
,
0001
0100
0010
0000
1000
1000
1000
0000
,
0100
0010
0001
1000
0001
0001
1000
0000
,
0020
1030
0200
1300
,
1000
1000
1000
1000
1000
0000
0010
0000
,
1001
0000
0000
0000
;

//---------------dance-double - ----------------
#NOTES:
     dance-double:
     :
     Hard:
     8:
     0.293529,0.360826,0.080184,0.200459,0.000000,205.000000,197.000000,8.000000,20.000000,0.000000,0.000000,0.293529,0.360826,0.080184,0.200459,0.000000,205.000000,197.000000,8.000000,20.000000,0.000000,0.000000:
00000000
00000000
00000000
00000000
,
00000000
00000000
00000000
00000000
,
00000000
00000000
00000000
00000000
,
00000000
00000000
00000000
00000000
,
00000000
00000000
00100000
00010000
,
02020000
00030000
00001000
03001000
,
00010000
00000000
00000100
00000000
00000010
00000000
00000001
00000100
,
00000020
00000000
00000100
00000130
,
00000010
00001000
00000100
00000000
00010000
00000000
00000010
00000200
,
00000000
00000310
00000100
00000110
,
00000100
00000001
00000010
00000000
00000010
00000100
00001000
00000000
,
00020000
00031000
00000020
00010030
,
00002000
00000000
00103000
00000000
00200000
00000000
01300000
10000000
,
00100000
00100000
01100000
00000000
01000000
01000000
01010000
00000000
,
00010000
00100000
00010000
00100000
00020000
00000000
00130000
00000000
,
00001000
01000000
00000100
00000000
00000100
00000010
00000001
00000000
,
00000001
00001000
00000001
00000010
00000100
00000000
00000010
00000000
,
00000001
00000100
00000010
00000000
00000010
00010000
00001000
00000000
,
00010000
00001000
00010000
00001000
00022000
00000000
00033000
00000000
,
00001000
00010000
00100000
01000000
,
00010000
00010000
00200000
00300000
,
00001000
00001000
00010000
00000000
00001000
00001000
00010000
00000000
,
00001000
00000010
00000001
00000100
,
00001000
00001000
00000100
00000001
,
00000010
00000010
00000010
00000000
00000001
00000001
00000001
00000000
,
00000010
00000100
00001000
00000000
00000010
00010000
00000100
00000000
,
00000010
00001000
00010000
00100000
,
10000000
01000000
00010000
00000000
00010000
01000000
10000000
00000000
,
00010000
01000000
00001000
00000000
00010000
00000010
00000100
00000000
,
00001010
00000000
00010000
00000000
00011000
00000000
00100000
00001000
,
02000000
03001000
00002000
00103000
,
00000020
00000000
00000100
00000130
,
00000001
00000010
00000100
00000000
00001000
00000010
00010000
00002000
,
00000000
00000000
00013000
00000000
00010000
01000000
00100000
00000000
,
00100000
00001000
01000000
00000000
00001000
00000000
00100000
00000000
,
02000000
03100000
00002000
01003000
,
00002000
00000000
00003010
00000000
00000020
00000000
00000031
00000001
,
00000100
00000010
00001000
00000000
00001000
00000010
00010000
00000000
,
00010000
01000000
00100000
00000000
00001000
00010000
00000100
00000000
,
00000010
00000010
00000001
00000000
,
00000001
00000001
00001000
00000000
,
00100000
01000000
00010000
00000000
00010000
01000000
00001000
00000000
,
00001000
00000010
00000100
00000000
00010000
00001000
00100000
00000000
,
01000000
01000000
10000000
00000000
,
10000000
00000000
10000000
00000000
00010000
00000000
01000000
00001000
,
00011000
00000000
00000000
00000000
;

//---------------dance-double - ----------------
#NOTES:
     dance-double:
     :
     Medium:
     6:
     0.223369,0.248068,0.060138,0.160367,0.000000,156.000000,150.000000,6.000000,16.000000,0.000000,0.000000,0.223369,0.248068,0.060138,0.160367,0.000000,156.000000,150.000000,6.000000,16.000000,0.000000,0.000000:
00000000
00000000
00000000
00000000
,
00000000
00000000
00000000
00000000
,
00000000
00000000
00000000
00000000
,
00000000
00000000
00000000
00000000
,
00000000
00000000
00100000
00010000
,
02020000
00000000
00000000
03030000
,
00001000
00010000
00000100
00000010
,
00000022
00000000
00000000
00000033
,
00000001
00000000
00001000
00000000
00000010
00000000
00010000
00000020
,
00000000
00000000
00000100
00000130
,
00000010
00001000
00000100
00010000
,
00100000
10000000
01000000
00100000
,
02000000
00000000
00010000
03010000
,
00001000
00001000
00000100
00000100
,
00000010
00000010
00000002
00001003
,
00000010
00000010
00010000
00010000
,
00001000
00100000
02000000
03100000
,
00001000
00001000
00010000
00010000
,
00001000
00010000
00022000
00033000
,
00001000
00000010
00000001
00000100
,
00000010
00000000
00000010
00000000
00010000
00010000
00010000
00000000
,
01000000
01000000
00100000
00100000
,
00010000
00010000
00001000
00000001
,
00000100
00000100
00000010
00000010
,
00001000
00001000
00010000
10000000
,
01000000
00100000
00010000
00010000
,
10000000
00010000
00001000
00000001
,
00000001
00000010
00000001
00000001
,
00001000
00000010
00001000
00000000
00000010
00000000
00000010
00000000
,
00002020
00000000
00000000
00003030
,
00010000
00001000
00100000
01000000
,
22000000
00000000
00000000
33000000
,
10000000
00000000
00010000
00000000
01000000
00000000
00001000
02000000
,
00000000
00000000
00100000
03100000
,
01000000
00010000
00100000
00001000
,
00000100
00000001
00000010
00000100
,
00000020
00001000
00000100
00000031
,
00000001
00000001
00000001
00000000
00001000
00000000
00000001
00000000
,
00000010
00000000
00000100
00000000
00010000
00010000
00010000
00000000
,
00001000
01000000
00100000
00000000
,
00100000
10000000
01000000
00000000
,
10000000
10000000
10000000
00000000
00010000
00000000
10000000
00000000
,
01000000
00000000
00100000
00000000
00001000
00001000
00001000
00000000
,
00010000
00000010
00000100
00000000
,
00000100
00000001
00000010
00000100
,
00011000
00000000
00000000
00000000
;

//---------------dance-double - ----------------
#NOTES:
     dance-double:
     :
     Easy:
     3:
     0.147481,0.180413,0.070161,0.130298,0.000000,103.000000,96.000000,7.000000,13.000000,0.000000,0.000000,0.147481,0.180413,0.070161,0.130298,0.000000,103.000000,96.000000,7.000000,13.000000,0.000000,0.000000:
00000000
00000000
00000000
00000000
,
00000000
00000000
00000000
00000000
,
00000000
00000000
00000000
00000000
,
00000000
00000000
00000000
00000000
,
00000000
00000000
10000000
00010000
,
02020000
00000000
00000000
03030000
,
01000000
00000000
00001000
00000000
,
00022000
00000000
00000000
00033000
,
00000100
00000000
00000010
00000001
,
00000022
00000000
00000000
00000033
,
00000010
00000000
00000100
00000000
,
00010000
00010000
00010000
00000000
,
00001000
00001000
00001000
00000000
,
01000000
01000000
01000000
00000000
,
00100000
10000000
01000000
00000000
,
00100000
00001000
00010000
00000000
,
00000100
00000100
00000100
00000000
,
00000010
00000010
00000010
00000000
,
00000001
00000100
00000010
00000000
,
00010000
00010000
00010000
00000000
,
02000000
00000000
00100000
03100000
,
00000000
00001000
00000000
00001000
,
00100000
00100000
00100000
00000000
,
00000000
00010000
00000000
00010000
,
00000010
00000010
00000010
00000000
,
00000000
00000001
00000000
00000100
,
00000010
00000010
00000010
00000000
,
00000000
00001000
00000000
01000000
,
00001000
00001000
00001000
00001000
,
00002020
00000000
00000000
00003030
,
00000010
00000000
00010000
00000000
,
00022000
00000000
00000000
00033000
,
00100000
00000000
01000000
10000000
,
22000000
00000000
00000000
33000000
,
01000000
00000000
00100000
00000000
,
00001000
00001000
00001000
00000000
,
00010000
00010000
00010000
00000000
,
00000100
00000000
00000010
00000000
,
00000001
00000000
00001000
00000000
,
00010000
00000000
10000000
00000000
,
10000000
00000000
01000000
00000000
,
00100000
00000000
01000000
00000000
,
10000000
00000000
00010000
00000000
,
00001000
00000000
00000001
00000000
,
00000001
00000000
00000010
00000000
,
00001100
00000000
00000000
00000000
;

//---------------dance-single - ----------------
#NOTES:
     dance-single:
     :
     Medium:
     5:
     0.210482,0.248068,0.030069,0.130298,0.000000,147.000000,144.000000,3.000000,13.000000,0.000000,0.000000,0.210482,0.248068,0.030069,0.130298,0.000000,147.000000,144.000000,3.000000,13.000000,0.000000,0.000000:
0000
0000
0000
0000
,
0000
0000
0000
0000
,
0000
0000
0000
0000
,
0000
0000
0000
0000
,
0000
0000
0010
1000
,
2002
0000
0000
3003
,
0001
0100
0010
1000
,
0200
0000
0010
0310
,
0010
0000
0001
0000
1000
0000
1000
0002
,
0000
0000
1000
1003
,
0010
0100
0001
0010
,
0001
0001
0001
0000
1000
1000
1000
0000
,
0010
0000
0100
0100
,
0001
0010
0100
0000
,
1000
0010
0100
0000
,
0100
0001
0010
0000
,
0100
0100
0010
0000
,
0001
1000
0001
0000
,
1000
0010
0100
0000
,
0001
0001
1000
0000
,
0100
0010
0002
1003
,
0001
0001
0010
0000
,
0001
0001
0010
0000
,
0100
0100
1000
0000
,
0100
0100
1000
0000
,
0010
0010
1000
0000
,
0010
0010
1000
0000
,
0001
0100
0001
0001
,
0010
0000
0100
0000
1000
1000
1000
0000
,
2002
0000
0000
3003
,
0010
0000
0100
0000
0001
0000
0001
0020
,
0000
0000
0001
0031
,
0001
0100
0010
0000
0010
0000
1000
0200
,
0000
0000
1000
1300
,
0010
0100
0001
0000
1000
0000
1000
0000
,
0010
0001
0100
0010
,
1000
1000
0100
1000
,
0001
0001
1000
1000
,
0100
0100
0010
0010
,
0001
1000
0002
0103
,
0100
0010
2000
3100
,
1000
1000
0001
0001
,
0010
0010
0100
0100
,
1000
0001
2000
3010
,
0010
0100
0002
0013
,
1001
0000
0000
0000
;

//---------------dance-single - ----------------
#NOTES:
     dance-single:
     :
     Easy:
     3:
     0.137458,0.180413,0.030069,0.130298,0.000000,96.000000,93.000000,3.000000,13.000000,0.000000,0.000000,0.137458,0.180413,0.030069,0.130298,0.000000,96.000000,93.000000,3.000000,13.000000,0.000000,0.000000:
0000
0000
0000
0000
,
0000
0000
0000
0000
,
0000
0000
0000
0000
,
0000
0000
0000
0000
,
0000
0000
0001
1000
,
1010
0000
0010
0000
,
0100
0000
0001
1000
,
1100
0000
0010
0000
,
0001
1000
0010
0010
,
0200
0000
0000
0300
,
0020
0000
0000
0030
,
2000
3000
0002
0003
,
0020
0030
0200
0300
,
1000
0000
1000
0000
,
0001
0001
0001
0000
,
0100
0000
0100
0000
,
0010
0010
0010
0000
,
1000
0000
0100
0000
,
0010
0000
0001
0000
,
1000
0000
0001
0000
,
0100
0100
0200
0300
,
0010
0000
0010
0000
,
1000
0000
1000
0000
,
0100
0000
0100
0000
,
1000
0000
1000
0000
,
0001
0000
0100
0000
,
0010
0000
0010
0000
,
1000
0000
0001
0000
,
1000
1000
1000
0000
,
0002
0000
0103
0000
,
0200
0000
0310
0000
,
0020
0000
1030
0000
,
2000
0000
3100
0000
,
0020
0000
0031
0000
,
0002
0000
0103
0010
,
0010
0000
1000
0000
,
0100
0000
0010
0000
,
0001
0001
0001
0000
,
1000
1000
1000
0000
,
0010
0000
0010
0000
,
0100
0000
0100
0000
,
0001
0001
0001
0000
,
0010
0010
0010
0000
,
0100
0000
1000
0000
,
0010
0000
0100
0000
,
0110
0000
0000
0000
;

//---------------dance-single - ----------------
#NOTES:
     dance-single:
     :
     Beginner:
     1:
     0.042956,0.090207,0.010023,0.000000,0.000000,30.000000,29.000000,1.000000,0.000000,0.000000,0.000000,0.042956,0.090207,0.010023,0.000000,0.000000,30.000000,29.000000,1.000000,0.000000,0.000000,0.000000:
// measure 0
0000
0000
0000
0000
,  // measure 1
0000
0000
0000
0000
,  // measure 2
0000
0000
0000
0000
,  // measure 3
0000
0000
0000
0000
,  // measure 4
0000
0000
0000
0000
,  // measure 5
1000
0000
0000
0000
,  // measure 6
0000
0000
0000
0000
,  // measure 7
0000
0000
0000
0000
,  // measure 8
0000
0000
0000
0000
,  // measure 9
0001
0000
0000
0000
,  // measure 10
0000
0000
0000
0000
,  // measure 11
1000
0000
0000
0000
,  // measure 12
0001
0000
0000
0000
,  // measure 13
1000
0000
0000
0000
,  // measure 14
0000
0000
0000
0000
,  // measure 15
0001
0000
0000
0000
,  // measure 16
0000
0000
0000
0000
,  // measure 17
1000
0000
0000
0000
,  // measure 18
0000
0000
0000
0000
,  // measure 19
0001
0000
0000
0000
,  // measure 20
0000
0000
0000
0000
,  // measure 21
0010
0000
0000
0000
,  // measure 22
0000
0000
0000
0000
,  // measure 23
0010
0000
0000
0000
,  // measure 24
0000
0000
0000
0000
,  // measure 25
0100
0000
0000
0000
,  // measure 26
0000
0000
0000
0000
,  // measure 27
0100
0000
0000
0000
,  // measure 28
0000
0000
0000
0000
,  // measure 29
1000
0000
0000
0000
,  // measure 30
0001
0000
0000
0000
,  // measure 31
1000
0000
0000
0000
,  // measure 32
0001
0000
0000
0000
,  // measure 33
0100
0000
0000
0000
,  // measure 34
0010
0000
0000
0000
,  // measure 35
0100
0000
0000
0000
,  // measure 36
0010
0000
0000
0000
,  // measure 37
1000
0000
0000
0000
,  // measure 38
0001
0000
0000
0000
,  // measure 39
1000
0000
0000
0000
,  // measure 40
0001
0000
0000
0000
,  // measure 41
0010
0000
0000
0000
,  // measure 42
0100
0000
0000
0000
,  // measure 43
0010
0000
0000
0000
,  // measure 44
0100
0000
0000
0000
,  // measure 45
1001
0000
0000
0000
;
