#TITLE:アカリがやってきたぞっ;
#SUBTITLE:;
#ARTIST:GYARI;
#TITLETRANSLIT:Akari ga Yattekita zo;
#SUBTITLETRANSLIT:;
#ARTISTTRANSLIT:;
#GENRE:;
#CREDIT:;
#BANNER:Akari ga Yattekita zo [DJXYZ].png;
#BACKGROUND:Akari ga Yattekita zo-bg [DJXYZ].png;
#LYRICSPATH:;
#CDTITLE:;
#MUSIC:Akari ga Yattekita zo [DJXYZ].ogg;
#OFFSET:0.862000;
#SAMPLESTART:36.191994;
#SAMPLELENGTH:12.000000;
#LASTBEATHINT:478.500244;
#SELECTABLE:YES;
#BPMS:0.000000=136.000000
,52.000000=272.000000
,248.000000=136.000000
,249.000000=272.000000
,391.000000=136.000000
,398.000000=272.000000
,463.000000=136.000000
;
#STOPS:116.000000=0.882000,
395.000000=0.441000
;
#BGCHANGES:;
#KEYSOUNDS:;
#ATTACKS:;

//---------------dance-single - ----------------
#NOTES:
     dance-single:
     :
     Hard:
     14:
     0.572222,0.906785,0.367043,0.239376,0.039896,502.000000,456.000000,46.000000,30.000000,14.000000,0.000000,0.572222,0.906785,0.367043,0.239376,0.039896,502.000000,456.000000,46.000000,30.000000,14.000000,0.000000:
0000
0000
0000
0000
,
0000
0000
0000
0000
,
0000
0000
0000
0000
,
0000
0000
0000
0000
,
0000
0000
0000
0000
,
1010
0000
0000
0000
1100
0000
0000
0000
1010
0000
0000
0100
0000
0000
0001
0000
,
0011
0000
0000
0000
0101
0000
0000
0000
0011
0000
0000
0100
0000
0000
1000
0000
,
1001
0000
0000
0000
0101
0000
0000
0000
0110
0000
0000
1000
0000
0000
0100
0000
,
2000
0000
0010
0000
0020
0000
3000
0000
0100
0000
0030
0100
0001
0000
0000
0000
,
0201
0000
0000
0000
0010
0000
0000
0000
0001
0000
0000
0010
0000
0000
1000
0000
,
0320
0000
0000
0000
1000
0000
0000
0000
0100
0000
0000
0001
0000
0000
0100
0000
,
2030
0000
0000
0000
0100
0000
0000
0000
0001
0000
0000
3010
0000
0000
0110
0000
,
0000
0000
0010
1000
0010
0100
0001
0010
0001
0000
1001
0000
0120
0000
0000
0000
,
103M
0010
0000
1000
0010
0000
0100
0000
,
0001
0010
0000
0001
0010
0000
0100
0000
,
1000
0010
0000
1000
0010
0000
0100
0000
,
0001
0010
0000
0001
1000
0000
1000
0000
,
0001
0100
0000
0001
0100
0000
0010
0000
,
1000
0100
0000
1000
0100
0000
0010
0000
,
0001
0000
0100
1000
0100
0000
0001
0000
,
0010
0000
0100
1000
0100
0000
0010
0000
,
0001
0010
0000
0010
0001
0000
0001
0000
,
1000
0010
0000
0010
1000
0000
1000
0000
,
0001
0100
0000
0100
0001
0000
0001
0000
,
1000
0100
0000
0100
1000
0000
0001
0000
,
1000
0010
0000
0100
0010
0000
1000
0000
,
0001
0100
0000
0010
0100
0000
0001
0000
,
0010
0100
0000
1000
0000
0001
0000
0010
,
0000
0001
0100
0000
0010
0000
1000
0000
,
1MM1
0000
1001
0000
,
1000
1000
0100
0000
,
0010
0001
0000
0100
0000
0001
0000
1000
,
0001
0001
0100
0100
,
0010
0000
0010
0000
1000
0000
0010
1000
,
0100
0100
0010
0000
,
0001
0010
0000
0100
0000
0010
0000
0002
,
0000
0000
1003
0000
0010
0000
0100
0001
,
0000
0000
1000
0000
0100
0000
0010
0100
,
1000
0000
1000
0000
0010
0000
0100
0010
,
0001
0000
0001
0000
0010
0000
0100
0001
,
0010
0000
0010
0000
0100
1000
0100
1000
,
0010
0010
0000
0100
,
0101
0000
1010
0000
,
1100
0000
0000
0011
0000
0000
1001
0000
,
1000
0100
0001
0010
,
1000
0000
0000
0000
0001
0100
0001
0100
,
0001
0001
0010
0000
,
0100
1000
0000
0010
0000
1000
0000
0001
,
1000
1000
0010
0010
,
0100
0000
0100
0000
0001
0000
0100
0001
,
0010
0010
0100
0000
,
1000
0100
0000
0010
0000
0100
0000
2000
,
0000
0000
3001
0000
0100
0000
0010
1000
,
0000
0000
0001
0000
0010
0000
0100
0010
,
0001
0000
0001
0000
0100
0000
0010
0100
,
1000
0000
1000
0000
0100
0000
0010
1000
,
0100
0000
0100
0000
0010
0000
0001
0100
,
0010
0000
0000
1010
0000
0000
0101
0000
,
1002
0000
0023
0000
,
0230
0000
2300
0000
,
3001
0010
0010
1000
,
0010
0000
0010
0000
0001
0000
0010
0200
,
M000
0300
10M1
0000
0000
0000
1000
0010
,
0000
0100
0000
0010
0000
0001
0000
0000
,
0011
0000
0110
0000
,
0101
0000
0001
0000
0010
0100
0000
0000
,
1000
0000
0000
0000
1000
0000
0001
0010
,
0000
0100
0000
0010
0000
2000
0000
0000
,
0001
0000
3010
0000
0100
1000
0000
0000
,
0001
0000
0100
0000
0010
1000
0000
0000
,
1000
0000
0100
0000
0010
0001
0000
0000
,
0001
0000
0100
0000
0010
1000
0000
0000
,
1000
0000
0100
0001
0000
0200
0000
0000
,
0010
0000
0310
1100
,
0000
1010
0000
0110
,
0000
0101
0000
0000
0021
0000
0000
0000
,
0130
1000
0010
0001
,
1000
0000
0100
0000
0001
1000
0000
0000
,
0100
0000
0000
0000
0100
0000
0001
0100
,
0000
0010
0000
0100
0000
1000
0000
0000
,
1200
0000
0320
0000
,
1030
0000
1000
0000
0010
0100
0000
0000
,
0001
0000
0000
0000
0001
0000
1000
0010
,
0000
0001
0000
0100
0000
0002
0000
0000
,
1000
0000
0103
0000
0010
0001
0000
0000
,
1000
0000
0100
0000
0010
1000
0000
0000
,
0001
0000
0010
0000
0100
1000
0000
0000
,
0001
0000
0100
0000
0010
1000
0000
0000
,
1010
0000
0110
0000
,
0101
0000
0001
0000
0010
0001
0000
0000
,
1000
0000
0010
0000
0100
0001
0000
0000
,
1000
0000
0100
0000
0020
0002
0000
0000
,
0000
0000
0033
0000
0000
1100
0000
0000
,
0000
0000
1000
0000
0010
2000
0000
0000
,
0000
0000
3001
0000
0010
0002
0000
0000
,
0000
0000
0103
0000
0010
2000
0000
0000
,
0000
3000
0000
1010
,
0000
0101
0000
0000
1001
0000
22M0
0000
,
3000
0020
0300
MM31
,
1100
0000
0101
0000
M001
0010
0000
0001
,
0010
0000
0100
0000
1000
0010
0000
1000
,
0010
0000
0100
0000
0001
0010
0000
0001
,
0010
0000
0100
0000
1000
0010
0000
1000
,
0001
0000
0001
0000
1000
0100
0000
1000
,
0100
0000
0010
0000
0001
0100
0000
0001
,
0100
0000
0010
0000
1000
0000
0000
0010
,
1000
0000
0001
0020
0000
0000
0030
0010
,
0001
0000
1000
0000
0001
0100
0000
0100
,
0001
0000
0001
0000
1000
0100
0000
0100
,
1000
0000
1000
0000
0001
0010
0000
0010
,
0001
0000
0001
0000
1000
0010
0000
0010
,
1000
0000
0001
0000
1000
0100
0000
0010
,
0100
0000
1000
0000
0001
0010
0000
0100
,
0010
0000
0001
0000
0100
0000
0010
1000
,
0001
0100
0110
0000
,
1001
0000
0000
1000
0010
0000
M220
0000
,
0000
0000
0000
0000
,
0000
0000
0000
0000
0000
0000
0000
0000
0000
0000
0000
0000
0000
0330
0000
0000
,
0000
0000
0000
0000
,
0000
0000
0000
0000
0000
MMMM
0000
0000
;

//---------------dance-single - ----------------
#NOTES:
     dance-single:
     :
     Medium:
     11:
     0.417198,0.715883,0.135646,0.207459,0.023938,366.000000,349.000000,17.000000,26.000000,14.000000,0.000000,0.417198,0.715883,0.135646,0.207459,0.023938,366.000000,349.000000,17.000000,26.000000,14.000000,0.000000:
0000
0000
0000
0000
,
0000
0000
0000
0000
,
0000
0000
0000
0000
,
0000
0000
0000
0000
,
0000
0000
0000
0000
,
1000
0000
0000
0000
1000
0000
0000
0000
0010
0000
0000
0100
0000
0000
0001
0000
,
0010
0000
0000
0000
0001
0000
0000
0000
0010
0000
0000
0100
0000
0000
1000
0000
,
0002
0000
0000
0000
1003
0000
0000
0000
0010
0000
0000
0100
0000
0000
0001
0000
,
1000
0100
0100
0000
1000
0000
1001
0000
,
0001
0000
0000
0000
0001
0000
0000
0000
0010
0000
0000
0100
0000
0000
1000
0000
,
0010
0000
0000
0000
1000
0000
0000
0000
0010
0000
0000
0100
0000
0000
0001
0000
,
2000
0000
0000
0000
3001
0000
0000
0000
0100
0000
0000
0100
0000
0000
0120
0000
,
0000
1000
1000
1000
1030
1100
1001
0000
,
0M01
0100
0001
0000
,
1000
0100
1000
0000
,
0001
0010
0001
0000
,
1000
0010
0100
0100
,
0010
1000
0010
0000
,
0100
0001
0100
0000
,
0001
0000
0010
0000
,
1000
0000
0100
0000
,
0001
0010
0001
0000
,
1000
0010
1000
0000
,
0001
0100
0010
0000
,
1000
0100
0010
0010
,
0100
1000
0100
0000
,
0010
0001
0010
0000
,
0001
0100
0010
1000
,
0010
0100
0001
1000
,
11MM
0000
1100
0000
,
0100
0100
0010
0000
,
0001
0001
0010
0000
,
0100
1000
0100
1000
,
0010
1000
0010
0000
,
0100
0100
0010
0000
,
1000
0010
1000
0000
,
0100
1000
0010
0100
,
0001
0001
0100
0000
,
0001
0010
1000
0000
,
0010
0001
0100
0000
,
1000
0100
0001
1000
,
0100
0010
0100
0000
,
2000
0000
3002
0000
,
0103
0000
0000
0010
0000
0000
1000
0000
,
0100
1000
0001
0100
,
0010
0000
1000
0001
,
0010
0010
0100
0000
,
1000
1000
0100
0000
,
0010
0001
0010
0001
,
0100
0001
0100
0000
,
0010
0010
0100
0000
,
0001
0100
0001
0000
,
0010
0001
0100
0010
,
1000
1000
0010
0000
,
1000
0100
0001
0000
,
0100
1000
0010
0000
,
0001
0010
1000
0001
,
0010
0000
0000
0100
0000
0000
0010
0000
,
2002
0000
0000
0000
,
0000
0000
3003
0000
,
0010
0001
1000
0010
,
0010
0000
0100
0000
0010
0000
1000
0001
,
00M0
1M01
0000
0001
,
0010
0100
1000
0002
,
0100
0000
0100
0000
,
0103
0000
0001
0000
0010
0200
0000
0000
,
0000
1300
0000
1000
,
0010
0100
0001
1000
,
0001
0000
0010
0000
0100
1000
0000
0000
,
0000
0000
0100
0000
0010
0001
0000
0000
,
0000
0000
0100
0000
0020
0001
0000
0000
,
0000
0000
0130
0000
0010
0001
0000
0000
,
1000
0100
0001
2000
,
0000
3100
0000
0020
,
0000
0032
0000
1003
,
0000
0010
0000
0000
2000
0000
0000
0000
,
3001
0100
0000
0100
,
0100
0000
0100
0000
0010
2000
0000
0000
,
0000
3001
0000
1000
,
0100
0010
0001
2000
,
0010
0000
0010
0000
,
3010
0000
1000
0000
0100
0020
0000
0000
,
0000
0031
0000
0001
,
0010
0100
1000
0001
,
1000
0000
0010
0000
0100
0001
0000
0000
,
0000
0000
0100
0000
0010
1000
0000
0000
,
0000
0000
0100
0000
0020
1000
0000
0000
,
0000
0000
0130
0000
0010
2000
0000
0000
,
0010
0000
0010
0000
,
3010
0000
0100
0000
0010
0001
0000
0000
,
0000
0000
0100
0000
0010
0002
0000
0000
,
0000
0003
0000
0000
0001
0020
0000
0000
,
0000
0000
0000
0000
0000
1030
0000
0000
,
0000
0000
0100
0000
0010
0001
0000
0000
,
0000
0000
0100
0000
0010
1000
0000
0000
,
0000
0000
0100
0000
0010
0002
0000
0000
,
0000
0003
0000
1100
,
0000
0101
0000
0000
1100
0000
20M2
0000
,
0000
0000
3000
M1M3
,
0110
0110
100M
0100
,
1000
0000
0001
0100
,
0001
0000
1000
0010
,
1000
0000
0001
0010
,
0100
0100
0010
0001
,
0010
0000
0100
1000
,
0100
0000
1000
0000
,
0010
0000
0001
0000
,
0010
0000
1000
0010
,
1000
0000
0001
0010
,
0001
0000
1000
0100
,
0010
0000
0001
0100
,
0010
0010
0100
0001
,
0100
0000
0010
1000
,
0010
0000
1000
0100
,
0010
0001
0101
0000
,
1010
0000
0000
2M02
,
0000
0000
0000
0000
,
0000
0000
0000
0000
0000
0000
0000
0000
0000
0000
0000
0000
0000
3003
0000
0000
,
0000
0000
0000
0000
,
0000
0000
0000
0000
0000
MMMM
0000
0000
;

//---------------dance-single - ----------------
#NOTES:
     dance-single:
     :
     Easy:
     6:
     0.245075,0.477255,0.063834,0.255334,0.000000,215.000000,207.000000,8.000000,32.000000,14.000000,0.000000,0.245075,0.477255,0.063834,0.255334,0.000000,215.000000,207.000000,8.000000,32.000000,14.000000,0.000000:
0000
0000
0000
0000
,
0000
0000
0000
0000
,
0000
0000
0000
0000
,
0000
0000
0000
0000
,
0000
0000
0000
0000
,
0001
0001
0001
0001
,
0010
0010
0010
0010
,
0100
0100
0100
0100
,
1000
1000
1000
1001
,
1000
1000
1000
1000
,
0010
0010
0010
0010
,
0100
0000
0100
0000
0001
0000
0000
1001
,
0000
0000
1000
0010
,
010M
0000
0100
0000
,
0001
0000
0001
0000
,
0100
0000
0100
0000
,
1000
0000
1000
0000
,
0100
0000
0100
0000
,
0010
0000
0010
0000
,
0000
0000
1000
0000
,
0000
0000
0001
0000
,
0010
0000
0010
0000
,
1000
0000
1000
0000
,
0010
0000
0010
0000
,
0001
0000
0001
0000
,
0010
0000
0010
0000
,
0100
0000
0100
0000
,
1000
0000
1000
0000
,
0010
0000
0100
0000
,
M0M1
0000
0001
0000
,
2000
0000
3000
0000
,
0100
0000
1000
0000
,
0002
0000
0100
0000
,
0103
0000
0001
0000
,
0002
0000
0003
0000
,
1000
0000
0100
0000
,
1000
0000
0010
0000
,
0100
0000
0010
0000
,
2000
0000
3100
0000
,
2000
0000
3100
0000
,
2000
0000
3001
0000
,
0100
0000
0000
0000
,
0002
0000
0013
0000
,
0100
0000
1000
0000
,
0002
0000
0000
0000
,
0013
0000
0120
0000
,
0032
0000
0003
0000
,
0010
0000
0001
0000
,
2000
0000
0010
0000
,
3010
0000
1000
0000
,
2000
0000
3000
0000
,
0001
0000
0010
0000
,
0001
0000
0100
0000
,
0010
0000
0100
0000
,
0002
0000
0013
0000
,
0002
0000
0013
0000
,
0002
0000
1003
0000
,
0010
0000
0100
0000
,
2002
0000
0000
0000
,
0000
0000
3003
0000
,
0000
0000
1000
0000
,
0010
0000
0100
0000
,
000M
1M01
0000
1000
,
0000
0010
0000
2000
,
0000
0000
0000
3000
,
0000
1000
0000
0002
,
0000
0003
0000
0001
,
0000
0100
0000
0001
,
0000
0010
0000
0100
,
0000
1000
0000
1000
,
0000
0001
0000
0001
,
0000
1000
0000
1000
,
0000
0010
0000
0100
,
0000
0000
0000
0001
,
0000
0010
0000
1000
,
0000
0010
0000
0001
,
0000
0100
0000
0000
,
0000
0100
0000
0002
,
0000
0003
0000
0001
,
0000
0010
0000
0002
,
0000
0000
0000
0003
,
0000
0001
0000
2000
,
0000
3000
0000
1000
,
0000
0100
0000
1000
,
0000
0010
0000
0100
,
0000
0001
0000
0001
,
0000
1000
0000
1000
,
0000
0001
0000
0002
,
0000
0000
0000
0003
,
0000
0010
0000
0010
,
0000
0100
0000
0200
,
0000
0300
0000
0020
,
0000
0030
0000
0001
,
0000
1000
0000
2000
,
0000
3000
0000
0002
,
0000
0003
0000
2000
,
0000
3000
0000
0010
,
0000
0100
0000
022M
,
0000
0000
0030
M3M1
,
0001
0001
M010
0000
,
0010
0000
1000
0000
,
1000
0000
0010
0000
,
0010
0000
0001
0000
,
0001
0000
0010
0000
,
0010
0000
0100
0000
,
0100
0000
1000
0000
,
1000
0000
2000
0000
,
3000
0000
0100
0000
,
0100
0000
0001
0000
,
0001
0000
0100
0000
,
0100
0000
1000
0000
,
1000
0000
0100
0000
,
0100
0000
0010
0000
,
0010
0000
0001
0000
,
1000
0000
1001
0000
,
1001
0000
0000
02M0
,
0000
0000
0000
0000
,
0000
0000
0000
0000
0000
0000
0000
0000
0000
0000
0000
0000
0000
0300
0000
0000
,
0000
0000
0000
0000
,
0000
0000
0000
0000
0000
MMMM
0000
0000
;

//---------------dance-double - ----------------
#NOTES:
     dance-double:
     :
     Challenge:
     14:
     0.563103,0.859060,0.303209,0.287251,0.039896,494.000000,456.000000,38.000000,36.000000,28.000000,0.000000,0.563103,0.859060,0.303209,0.287251,0.039896,494.000000,456.000000,38.000000,36.000000,28.000000,0.000000:
// measure 0
00000000
00000000
00000000
00000000
,  // measure 1
00000000
00000000
00000000
00000000
,  // measure 2
00000000
00000000
00000000
00000000
,  // measure 3
00000000
00000000
00000000
00000000
,  // measure 4
00000000
00000000
00000000
00000000
,  // measure 5
11000000
00000000
00000000
00000000
01010000
00000000
00000000
00000000
00100000
00000000
00000000
00001000
00000000
00000000
00010000
00000000
,  // measure 6
00001010
00000000
00000000
00000000
00000011
00000000
00000000
00000000
00000001
00000000
00000000
00001000
00000000
00000000
00000100
00000000
,  // measure 7
00010010
00000000
00000000
00000000
02001000
00000000
00000000
00000000
03010000
00000000
00000000
00100000
00000000
00000000
01000000
00000000
,  // measure 8
00001000
00000000
00000100
00000000
00000200
00000000
00000000
00000000
00010300
00000000
00000000
00000001
00000010
00000000
00000000
00000000
,  // measure 9
00000012
00000000
00000000
00000000
00001000
00000000
00000000
00000000
00000100
00000000
00000000
00010003
00000000
00000000
00001000
00000000
,  // measure 10
00120000
00000000
00000000
00000000
10000000
00000000
00000000
00000000
01000000
00000000
00000000
00130000
00000000
00000000
00001000
00000000
,  // measure 11
01002000
00000000
00000000
00000000
00010000
00000000
00000000
00000000
00003100
00000000
00000000
00000010
00000000
00000000
00001001
00000000
,  // measure 12
00000000
00000000
00000001
00000010
00000100
00001000
00000010
00000100
00001000
00000000
00010000
00000000
01100000
00000000
00000000
00000000
,  // measure 13
100MM000
00100000
00000000
10000000
00100000
00000000
01000000
00000000
,  // measure 14
00010000
00100000
00000000
00010000
00100000
00000000
00000010
00000000
,  // measure 15
00001000
00000010
00000000
00001000
00000010
00000000
00000100
00000000
,  // measure 16
00000001
00000010
00000000
00000001
00000010
00000000
00000010
00000000
,  // measure 17
00000001
00000100
00000000
00000001
00000100
00000000
00000010
00000000
,  // measure 18
00001000
00000100
00000000
00001000
00000100
00000000
00000010
00000000
,  // measure 19
00001000
00000000
00010000
00100000
00010000
00000000
00100000
00000000
,  // measure 20
10000000
00000000
01000000
10000000
01000000
00000000
00100000
00000000
,  // measure 21
00010000
01000000
00000000
00010000
01000000
00000000
00001000
00000000
,  // measure 22
00100000
00010000
00000000
00100000
00010000
00000000
01000000
00000000
,  // measure 23
00001000
00000100
00000000
00001000
00000100
00000000
00000010
00000000
,  // measure 24
00001000
00000010
00000000
00001000
00000010
00000000
00000100
00000000
,  // measure 25
00000001
00000010
00000000
00000100
00001000
00000000
00010000
00000000
,  // measure 26
10000000
00100000
00000000
01000000
00010000
00000000
00100000
00000000
,  // measure 27
00001000
00010000
00000000
00100000
00000000
01000000
00000000
00001000
,  // measure 28
00000000
00010000
00000010
00000000
00000100
00000000
00001000
00000000
,  // measure 29
MM0110MM
00000000
00012000
00000000
,  // measure 30
00103000
00100000
01000000
00000000
,  // measure 31
00010000
00001000
00000000
00010000
00000000
00000010
00000000
00000100
,  // measure 32
00001000
00001000
00010000
00010000
,  // measure 33
01000000
00000000
01000000
00000000
00100000
00000000
00001000
00010000
,  // measure 34
00001000
00001000
00000200
00000000
,  // measure 35
00000310
00001000
00000000
00000001
00000000
00000010
00000000
00002000
,  // measure 36
00000000
00000000
00013000
00000000
00100000
00000000
10000000
01000000
,  // measure 37
00000000
00000000
00100000
00000000
00100000
00000000
00001000
00010000
,  // measure 38
00001000
00000000
01000000
00000000
01000000
00000000
00001000
00010000
,  // measure 39
00001000
00000000
00000100
00000000
00000100
00000000
00001000
00010000
,  // measure 40
00001000
00000000
00000010
00000000
00000100
00001000
00000100
00001000
,  // measure 41
00010000
00010000
00000000
00100000
,  // measure 42
01100000
00000000
00110000
00000000
,  // measure 43
00011000
00000000
00000000
00001100
00000000
00000000
00000120
00000000
,  // measure 44
00000031
00000100
00001000
00000010
,  // measure 45
00000001
00000000
00000000
00000000
00001000
00000010
00001000
00000010
,  // measure 46
00000100
00000100
00000010
00000000
,  // measure 47
00001000
00000100
00000000
00010000
00000000
00100000
00000000
01000000
,  // measure 48
00010000
00010000
00001000
00001000
,  // measure 49
00000010
00000000
00000010
00000000
00000100
00000000
00000100
00001000
,  // measure 50
00010000
00010000
00200000
00000000
,  // measure 51
01300000
00010000
00000000
10000000
00000000
01000000
00000000
00020000
,  // measure 52
00000000
00000000
00031000
00000000
00000010
00000000
00000001
00000100
,  // measure 53
00000000
00000000
00000010
00000000
00000010
00000000
00010000
00001000
,  // measure 54
00010000
00000000
00000100
00000000
00000100
00000000
00010000
00001000
,  // measure 55
00010000
00000000
01000000
00000000
01000000
00000000
00010000
00001000
,  // measure 56
00010000
00100000
10000000
01000000
,  // measure 57
11000000
00000000
00000000
00110000
00000000
00000000
00001100
00000000
,  // measure 58
00000012
00000000
00002003
00000000
,  // measure 59
00003200
00000000
00020300
00000000
,  // measure 60
00031000
00100000
01000000
00010000
,  // measure 61
00001000
00000000
00000100
00000000
00000010
00000000
00010000
00001000
,  // measure 62
MM000000
00000000
000110MM
00000000
00000000
00000000
00010000
00100000
,  // measure 63
00000000
10000000
00000000
01000000
00000000
00020000
00000000
00000000
,  // measure 64
00001000
00000000
00001000
00000000
,  // measure 65
00031000
00000000
00000100
00000000
00000010
00000100
00000000
00000000
,  // measure 66
00000001
00000000
00000000
00000000
00000001
00000000
00001000
00000010
,  // measure 67
00000000
00000001
00000000
00000010
00000000
00000200
00000000
00000000
,  // measure 68
00000301
00000000
00000010
00000000
00000100
00010000
00000000
00000000
,  // measure 69
00001000
00000000
00100000
00000000
01000000
00020000
00000000
00000000
,  // measure 70
00031000
00000000
00100000
00000000
01000000
00020000
00000000
00000000
,  // measure 71
00031000
00000000
00100000
00000000
01000000
00020000
00000000
00000000
,  // measure 72
00031000
00000000
00000100
00000001
00000000
00000010
00000000
00000000
,  // measure 73
00000100
00000000
00000100
00000011
,  // measure 74
00000000
00001100
00000000
00011000
,  // measure 75
00000000
00110000
00000000
00000000
11000000
00000000
00000000
00000000
,  // measure 76
10000000
00100000
00010000
00001000
,  // measure 77
00000100
00000000
00000010
00000000
00010000
00002000
00000000
00000000
,  // measure 78
00000010
00000000
00000000
00000000
00003010
00000000
00001000
00000010
,  // measure 79
00000000
00000001
00000000
00000100
00000000
00002000
00000000
00000000
,  // measure 80
00010000
00000000
00010000
00000000
,  // measure 81
00013000
00000000
00100000
00000000
01000000
00100000
00000000
00000000
,  // measure 82
10000000
00000000
00000000
00000000
10000000
00000000
00010000
01000000
,  // measure 83
00000000
10000000
00000000
01000000
00000000
00200000
00000000
00000000
,  // measure 84
10300000
00000000
01000000
00000000
00100000
00001000
00000000
00000000
,  // measure 85
00010000
00000000
00000100
00000000
00000010
00002000
00000000
00000000
,  // measure 86
00013000
00000000
00000100
00000000
00000010
00002000
00000000
00000000
,  // measure 87
00013000
00000000
00000100
00000000
00000010
00002000
00000000
00000000
,  // measure 88
00100000
00000000
00010000
00000000
,  // measure 89
01003000
00000000
00100000
00000000
01000000
00020000
00000000
00000000
,  // measure 90
00031000
00000000
00100000
00000000
01000000
00020000
00000000
00000000
,  // measure 91
00000000
00000000
00030000
00000000
10000000
00200000
00000000
00000000
,  // measure 92
00000000
00000000
00300000
00000000
00000000
01001000
00000000
00000000
,  // measure 93
00000000
00000000
00010000
00000000
00000010
00002000
00000000
00000000
,  // measure 94
00000000
00000000
00003100
00000000
00000010
00000002
00000000
00000000
,  // measure 95
00000000
00000000
00001003
00000000
00000010
00020000
00000000
00000000
,  // measure 96
00000000
00031000
00000000
00101000
,  // measure 97
00000000
00010100
00000000
00000000
00101000
00000000
MM010020
00000000
,  // measure 98
00000000
00000200
00000030
MMMM0301
,  // measure 99
00001010
00000000
00110000
00000000
000100MM
00100000
00000000
00010000
,  // measure 100
00100000
00000000
01000000
00000000
10000000
00100000
00000000
10000000
,  // measure 101
00100000
00000000
00010000
00000000
00001000
00000010
00000000
00001000
,  // measure 102
00000010
00000000
00000100
00000000
00000010
00000001
00000000
00000010
,  // measure 103
00000001
00000000
00000001
00000000
00000100
00001000
00000000
00000100
,  // measure 104
00001000
00000000
00000001
00000000
00000010
00001000
00000000
00000010
,  // measure 105
00001000
00000000
00000100
00000000
00010000
00000000
00001000
00100000
,  // measure 106
00001000
00000000
01000000
00000000
10000000
00000000
01000000
10000000
,  // measure 107
01000000
00000000
00100000
00000000
10000000
01000000
00000000
10000000
,  // measure 108
01000000
00000000
00100000
00000000
00010000
01000000
00000000
00010000
,  // measure 109
01000000
00000000
00000100
00000000
00001000
00000100
00000000
00001000
,  // measure 110
00000100
00000000
00000010
00000000
00001000
00000010
00000000
00001000
,  // measure 111
00000010
00000000
00000100
00000000
00001000
00000010
00000000
00000100
,  // measure 112
00001000
00000000
00010000
00000000
01000000
00100000
00000000
00010000
,  // measure 113
10000000
00000000
00100000
00000000
01000000
00000000
00010000
00100000
,  // measure 114
00001000
00010000
00010100
00000000
,  // measure 115
00010010
00000000
00000000
00001000
00100000
00000000
M220000M
00000000
,  // measure 116
00000000
00000000
00000000
00000000
,  // measure 117
00000000
00000000
00000000
00000000
00000000
00000000
00000000
00000000
00000000
00000000
00000000
00000000
00000000
03300000
00000000
00000000
,  // measure 118
00000000
00000000
00000000
00000000
,  // measure 119
00000000
00000000
00000000
00000000
00000000
MMMMMMMM
00000000
00000000
;
