#TITLE:Ah! Leah!;
#SUBTITLE:;
#ARTIST:Donnie Iris;
#TITLETRANSLIT:;
#SUBTITLETRANSLIT:;
#ARTISTTRANSLIT:;
#GENRE:;
#CREDIT:;
#BANNER:Ah! Leah!-bn.png;
#BACKGROUND:Ah! Leah!-bg.png;
#LYRICSPATH:;
#CDTITLE:;
#MUSIC:Ah! Leah!.ogg;
#OFFSET:1.572000;
#SAMPLESTART:37.209000;
#SAMPLELENGTH:20.000000;
#LASTBEATHINT:1.000428;
#SELECTABLE:YES;
#DISPLAYBPM:104.000000:106.000000;
#BPMS:0.000000=104.940002
,32.000000=106.000000
,48.000000=105.000000
,120.000000=105.500000
,132.000000=104.199997
,144.000000=105.000000
,164.000000=104.940002
,172.000000=104.000000
;
#STOPS:
;
#BGCHANGES:;
#KEYSOUNDS:;
#ATTACKS:;

//---------------dance-single - ----------------
#NOTES:
     dance-single:
     :
     Hard:
     12:
     0.490635,0.540445,0.451241,0.584942,0.066851,411.000000,357.000000,54.000000,70.000000,0.000000,0.000000,0.490635,0.540445,0.451241,0.584942,0.066851,411.000000,357.000000,54.000000,70.000000,0.000000,0.000000:
0000
0000
0000
0000
,
0000
0000
0000
0000
,
0000
0000
0000
0000
,
0000
0000
0000
0000
,
0000
0000
0000
0000
0000
0000
0000
0000
0000
0000
0000
0000
1000
0001
1000
0001
,
2000
0100
3100
0020
0001
0100
0130
0002
,
1000
0000
0010
0000
0013
0000
0200
0000
0010
0000
0010
0000
0310
0000
1000
0001
,
0020
0001
0031
0200
0001
0010
0310
2000
,
0100
0000
0010
0000
3010
0000
0002
0000
1003
0100
1000
0100
0010
0001
0010
0001
,
0100
0010
0010
0010
1000
1000
1000
0001
,
0010
0010
0001
0001
0101
0100
0110
0010
,
0000
1000
1000
2000
0000
0010
0010
3010
,
1000
1000
0100
0100
0110
0010
0011
1001
,
0000
0010
0010
0020
1000
0130
0000
2010
,
0001
0000
0001
0000
3001
0000
1000
0000
0010
0100
0010
0100
0010
0000
1000
0000
,
0011
0101
0010
1001
0000
1100
0001
0012
,
1000
0000
0000
0000
0013
0000
0010
0000
0001
0000
0010
0000
0100
0000
1000
0001
,
0200
0010
0310
2000
0100
0001
3001
1000
,
0020
0100
1000
1030
0002
0100
0010
0103
,
0002
0010
1000
1003
0020
1000
0100
0130
,
2000
0010
3100
0001
0200
0010
0001
0301
,
2000
0100
0100
3001
0020
0001
1000
0130
,
0002
0010
0100
0103
0200
1000
0010
0310
,
0200
0001
0301
2000
0100
0100
3010
0100
,
0002
1000
1003
0020
0000
0100
0130
0010
,
1010
1001
1100
0020
0000
0100
0130
0001
,
0011
0110
1100
2000
0000
3002
0000
0013
,
0011
1001
0120
0000
1030
1200
0000
1300
,
1100
0000
1001
0000
0011
0000
0010
0001
0100
0000
0100
0000
0100
0000
0110
0000
,
1010
0101
1100
0002
0000
0010
0013
0100
,
1100
0110
1001
0020
2030
3002
0203
0301
,
0011
1100
1001
0020
0230
0302
2003
3100
,
1100
0000
1001
0000
0101
0000
0001
0010
0100
0000
0100
0000
1000
0010
0100
0001
,
2000
0010
3010
0002
0010
0100
0100
1003
,
0020
1000
0100
1030
0200
0010
0001
0301
,
2000
0010
3010
0200
0010
0001
0301
1000
,
0002
1000
0100
0103
0020
1000
1030
0001
,
0020
0001
0031
0200
0010
1000
0301
0100
,
0002
0010
0013
0001
2000
0100
0001
3100
,
0020
0100
0130
0002
0010
0100
1003
0001
,
2000
0000
0010
0000
3010
0000
0200
0000
0010
0000
0001
0000
0301
1000
0001
1000
,
0020
0100
0130
0201
0000
0310
0100
2010
,
0000
0100
3100
1100
0102
1000
0103
0000
,
1002
0100
0013
2001
0010
0001
3001
0100
,
1100
1000
1010
0010
0110
0100
0101
0001
,
0011
0010
0110
0100
1100
2001
3001
0000
,
0012
0000
0100
0100
0103
0010
1000
0001
,
0200
0001
0010
0301
2000
0100
0010
3001
,
0020
1000
0100
1030
0002
0010
1000
0103
,
0010
0000
1001
0100
0010
0000
1001
0000
;

//---------------dance-single - ----------------
#NOTES:
     dance-single:
     :
     Medium:
     9:
     0.365290,0.415727,0.350965,0.484666,0.008356,306.000000,264.000000,42.000000,58.000000,0.000000,0.000000,0.365290,0.415727,0.350965,0.484666,0.008356,306.000000,264.000000,42.000000,58.000000,0.000000,0.000000:
0000
0000
0000
0000
,
0000
0000
0000
0000
,
0000
0000
0000
0000
,
0000
0000
0000
0000
,
0000
0000
0000
0000
0000
0000
0000
0000
0000
0000
0000
0000
0000
0000
1000
0001
,
2000
0000
3010
0020
1000
0000
0130
0200
,
0010
0000
0000
0000
0301
0000
0002
0000
0000
0000
1000
0000
1003
0000
0010
0100
,
0020
0000
1030
2000
0100
0000
3001
0002
,
0010
0000
0103
0200
0010
0001
0301
0000
,
1000
0100
0001
0000
1000
0010
0001
0000
,
1000
0100
0010
0001
0101
0000
1100
0000
,
0000
0010
1000
0100
0000
0010
0001
0100
,
0001
0010
0100
1000
1010
0000
0011
0000
,
0000
1000
0010
0200
0000
0302
0000
2003
,
0000
0100
3100
1000
0020
0100
0130
0000
,
0001
0001
0000
0011
0000
0101
0000
0220
,
0300
0000
1030
0010
2000
0000
3001
0010
,
0002
0000
0013
0002
1000
0000
0103
0001
,
0020
0000
0031
1000
0002
0000
1003
0010
,
0200
0000
0301
0200
1000
0000
0310
0001
,
2000
0000
3100
0010
0001
0100
0110
0000
,
0020
0000
1030
0020
0100
0000
1030
0001
,
2000
0000
3001
1000
0100
0010
0002
0000
,
2003
0000
3001
2000
0100
0000
3010
0100
,
0020
0000
1030
0200
0000
0000
0300
0100
,
1100
1100
1100
0000
0010
0000
0010
0100
,
0101
0101
0101
0000
0010
0000
0010
1000
,
1010
1010
1010
0000
0001
0000
0001
1000
,
1001
1001
1001
0000
0010
0000
0010
0100
,
0101
0101
0101
0000
0100
0000
0100
0001
,
0011
0011
0011
0000
0010
0000
0010
0001
,
1001
1001
1001
0000
1000
0000
1000
0010
,
0110
0110
0110
0000
0010
0000
1000
0100
,
2000
0000
3010
0200
0001
0000
0310
0100
,
0002
0000
0013
0001
0020
0000
0130
1000
,
0002
0000
1003
0020
1000
0000
0130
0001
,
2000
0000
3010
1000
0200
0010
0310
0000
,
0002
0000
0013
0200
1000
0000
0310
0100
,
2000
0000
3010
0020
0000
0001
0000
1030
,
0020
0000
0130
0002
0010
0000
1003
0100
,
2000
0000
3001
0200
0010
0010
0310
0000
,
2002
0000
3000
0020
0003
0002
0030
0200
,
0003
0020
0330
1010
0210
0010
0310
0000
,
0102
0000
0013
0002
0100
0000
1003
0010
,
1000
1000
0001
0001
0100
0100
0010
0010
,
1010
0000
0101
0000
1002
0100
0103
0000
,
0020
0000
1000
1030
0000
2100
0001
0000
,
3010
0100
0001
1000
0100
0010
0001
0000
,
1000
0001
0010
0001
0100
0010
1000
0000
,
0001
1001
1000
1001
;

//---------------dance-single - ----------------
#NOTES:
     dance-single:
     :
     Easy:
     5:
     0.196970,0.264791,0.116988,0.300827,0.000000,165.000000,151.000000,14.000000,36.000000,0.000000,0.000000,0.196970,0.264791,0.116988,0.300827,0.000000,165.000000,151.000000,14.000000,36.000000,0.000000,0.000000:
0000
0000
0000
0000
,
0000
0000
0000
0000
,
0000
0000
0000
0000
,
0000
0000
0000
0000
,
2000
0000
0000
3020
0000
0000
0000
0230
,
0000
0000
0000
0302
0000
0000
0000
0000
,
0203
0000
0000
0320
0000
0000
0000
2030
,
0000
0000
0000
3002
0000
0000
0000
0000
,
1003
1000
0001
0001
,
1000
0100
0010
0001
,
0100
0100
0010
0010
,
1000
0001
0100
0010
,
1000
0001
0010
0001
,
0100
0010
1000
1000
,
0100
1000
0010
0001
,
0010
0001
0100
0100
,
0002
0000
0000
2003
0000
0000
0000
0000
,
3020
0100
1000
0130
,
2000
0000
0000
3002
0000
0000
0000
0000
,
0203
0010
0001
0310
,
0020
0000
0000
2030
0000
0000
0000
0000
,
3200
0001
0010
1300
,
0002
0000
0000
0203
0000
0000
0000
0000
,
0320
0000
0000
2030
0000
0000
3000
1000
,
1000
1000
1000
0000
0000
0000
0000
0001
,
0001
0001
0001
0000
0000
0000
0000
0100
,
0100
0100
0100
0000
0000
0000
0000
0010
,
0010
0010
0010
0000
0000
0000
0000
1000
,
1000
1000
1000
0000
0000
0000
0000
0100
,
0100
0100
0100
0000
0000
0000
0000
0010
,
0010
0010
0010
0000
0000
0000
0000
0001
,
0001
0001
0001
0000
0000
0000
1001
0000
,
0020
0000
0000
0032
0000
0000
0000
0000
,
2003
0100
0001
3010
,
2000
0000
0000
3020
0000
0000
0000
0000
,
0230
1000
0001
0310
,
0200
0000
0000
0320
0000
0000
0000
0000
,
0230
0010
1000
0301
,
0002
0000
0000
0023
0000
0000
0000
0000
,
0230
0000
0000
2300
0000
0000
3000
0000
,
1001
0100
1001
0100
,
1001
0001
0010
0100
,
0110
1000
0110
0001
,
0110
0100
0010
1000
,
1001
0010
0110
0100
,
0110
0001
1000
0100
,
1001
0010
1001
0100
,
0110
0001
0110
1000
,
0020
0000
0200
0330
;

//---------------dance-single - ----------------
#NOTES:
     dance-single:
     :
     Beginner:
     2:
     0.101470,0.143311,0.008356,0.000000,0.000000,85.000000,84.000000,1.000000,0.000000,0.000000,0.000000,0.101470,0.143311,0.008356,0.000000,0.000000,85.000000,84.000000,1.000000,0.000000,0.000000,0.000000:
// measure 0
0000
0000
0000
0000
,  // measure 1
0000
0000
0000
0000
,  // measure 2
0000
0000
0000
0000
,  // measure 3
0000
0000
0000
0000
,  // measure 4
0000
0000
0000
0000
,  // measure 5
1000
0000
1000
0000
,  // measure 6
1000
0000
0000
0000
,  // measure 7
0001
0000
0001
0000
,  // measure 8
0001
0000
0000
0000
,  // measure 9
0010
0000
0001
0000
,  // measure 10
0100
0000
1000
1000
,  // measure 11
0000
0001
0000
1000
,  // measure 12
1000
0000
0010
0010
,  // measure 13
0000
1000
1000
0000
,  // measure 14
0001
0000
1000
0000
,  // measure 15
0010
0000
0100
0000
,  // measure 16
0010
0010
0010
0000
,  // measure 17
1000
0000
1000
0000
,  // measure 18
1000
0000
0000
0000
,  // measure 19
0010
0000
0010
0000
,  // measure 20
0010
0000
0000
0000
,  // measure 21
0100
0000
0100
0000
,  // measure 22
0100
0000
0000
0000
,  // measure 23
0001
0000
0001
0000
,  // measure 24
0001
0000
0000
0000
,  // measure 25
0010
0010
0000
0000
,  // measure 26
0100
0100
0000
0000
,  // measure 27
0010
0010
0000
0000
,  // measure 28
0100
0100
0000
0000
,  // measure 29
0001
0001
0000
0000
,  // measure 30
1000
1000
0000
0000
,  // measure 31
0001
0001
0000
0000
,  // measure 32
1000
1000
0000
0000
,  // measure 33
0010
0000
0100
0000
,  // measure 34
0001
0000
0000
0000
,  // measure 35
1000
0000
0100
0000
,  // measure 36
0010
0000
0000
0000
,  // measure 37
0001
0000
1000
0000
,  // measure 38
0010
0000
0000
0000
,  // measure 39
1000
0000
0100
0000
,  // measure 40
0001
0000
0000
0000
,  // measure 41
1000
0000
0001
0000
,  // measure 42
1000
1000
1000
0000
,  // measure 43
0010
0000
0100
0000
,  // measure 44
0010
0010
0010
0000
,  // measure 45
0100
0100
0100
0000
,  // measure 46
0001
0000
1000
0000
,  // measure 47
0001
0000
0001
0000
,  // measure 48
1000
0000
0000
0000
,  // measure 49
1001
0000
0000
0000
;
