#TITLE:Absolute Showkidz Theme;
#SUBTITLE:;
#ARTIST:Hanna Stockzell;
#TITLETRANSLIT:;
#SUBTITLETRANSLIT:;
#ARTISTTRANSLIT:;
#CREDIT:;
#BANNER:;
#BACKGROUND:;
#LYRICSPATH:;
#CDTITLE:cdtitle.JPG;
#MUSIC:showkidz.mp3;
#OFFSET:-3.970;
#SAMPLESTART:51.900;
#SAMPLELENGTH:12.000;
#SELECTABLE:YES;
#BPMS:0.000=140.000;
#STOPS:;
#BGCHANGES:;

//---------------dance-single - PikaVix----------------
#NOTES:
     dance-single:
     PikaVix:
     Hard:
     9:
     0.370,0.358,0.149,0.019,0.000: // measure 1
0001
1000
0000
0000
0001
1000
0000
0000
,  // measure 2
1000
0001
0100
0000
0100
0010
0000
0000
,  // measure 3
1000
0001
0000
0000
1000
0001
0000
0000
,  // measure 4
1000
0010
0100
0000
0100
0010
0000
0000
,  // measure 5
0010
0000
1000
0000
0001
0000
0100
0001
,  // measure 6
0000
0001
0000
1000
0100
0000
0010
0000
,  // measure 7
0001
0000
1000
0000
0010
0000
0100
0010
,  // measure 8
0000
0010
0000
1000
0001
0000
0001
0000
,  // measure 9
0010
0000
0001
0000
1000
0000
0010
1000
,  // measure 10
0000
0100
0000
0010
0001
0000
1000
0000
,  // measure 11
0010
0000
0100
0000
0010
0000
1000
0010
,  // measure 12
0000
0001
0000
0100
1000
0000
0010
0000
,  // measure 13
1001
0000
0000
0000
0000
0001
0100
0010
,  // measure 14
0000
0010
1000
0100
0000
0000
0000
0100
,  // measure 15
0010
0000
0001
0100
0000
0010
0000
1000
,  // measure 16
0000
0001
0000
0110
0000
0010
1000
0100
,  // measure 17
0110
0000
0000
0000
0000
0010
1000
0100
,  // measure 18
0000
0100
0010
0001
0000
0000
0000
0001
,  // measure 19
0100
0000
0010
1000
0000
0100
0000
0010
,  // measure 20
0000
0001
0000
0000
0000
0000
0010
1000
,  // measure 21
0010
0000
0100
0010
0000
0100
0000
0001
,  // measure 22
0000
0010
0000
0000
0000
0000
0000
0000
,  // measure 23
0001
1000
0001
0000
0100
0010
0100
0010
,  // measure 24
0000
0000
0000
0000
0000
0000
1000
0100
,  // measure 25
0010
0000
0001
0010
0000
0100
0000
1000
,  // measure 26
0000
0010
0000
0000
0000
0000
0000
0100
,  // measure 27
0001
0000
0100
0010
0000
0100
0000
0001
,  // measure 28
0000
0001
1000
0000
0000
0000
0000
0000
,  // measure 29
1000
0001
1000
0001
0000
1000
0000
0000
,  // measure 30
1010
0000
1001
0000
1100
0000
0000
1000
,  // measure 31
0010
0100
0001
0100
0000
0010
0000
1000
,  // measure 32
0100
0010
0000
0001
0000
0000
0000
0000
,  // measure 33
0010
1000
0001
1000
0000
0010
0000
0100
,  // measure 34
0101
0110
1010
0000
,  // measure 35
1000
0100
0010
0001
0010
0000
0010
0100
,  // measure 36
0000
0100
0010
0000
0010
0000
0000
0000
,  // measure 37
0001
1000
0010
0100
0000
0001
0000
0000
,  // measure 38
1010
0000
1001
0000
1100
0000
0000
1000
,  // measure 39
0001
0010
0100
0010
0000
0001
0000
0100
,  // measure 40
0010
0100
0000
0001
0000
0000
0000
0000
,  // measure 41
1000
0100
0010
0100
0000
1000
0000
0010
,  // measure 42
0100
0001
0100
0000
,  // measure 43
0010
1000
0010
1000
0010
0000
0100
0001
,  // measure 44
0000
0001
0100
0010
1000
0000
0000
0000
,  // measure 45
1000
0100
0010
0001
0000
0010
0000
0000
,  // measure 46
1100
0000
1010
0000
1001
0000
0000
1000
,  // measure 47
0010
0100
0001
0100
0000
0010
0000
0010
,  // measure 48
0100
0001
0000
1000
0000
0000
0000
0000
,  // measure 49
1000
0100
0001
0100
0000
1000
0000
0010
,  // measure 50
0100
0001
1000
0000
,  // measure 51
0010
1000
0010
0001
0010
0000
0100
0001
,  // measure 52
0000
0001
0100
0010
1000
0000
0000
0000
,  // measure 53
1000
0100
0001
0100
1000
0000
0010
0001
,  // measure 54
0000
0010
1000
0100
0010
0000
0000
0000
,  // measure 55
1000
0001
0000
0000
1000
0001
0000
0000
,  // measure 56
0001
1000
0010
0000
0010
0100
0000
0000
,  // measure 57
0100
0010
0000
0000
0100
0010
0000
0000
,  // measure 58
0100
0010
1000
0000
0100
0010
0000
0000
,  // measure 59
2002
0000
0000
0000
,  // measure 60
3003
0000
0000
0000
;

//---------------dance-single - PikaVix----------------
#NOTES:
     dance-single:
     PikaVix:
     Medium:
     7:
     0.337,0.358,0.466,0.019,0.000: // measure 1
1001
0000
1001
0000
,  // measure 2
1000
0001
1000
0000
0010
0000
0000
0000
,  // measure 3
1001
0000
1001
0000
,  // measure 4
1000
0001
1000
0000
0100
0000
0000
0000
,  // measure 5
1001
0001
1000
0010
,  // measure 6
1000
0100
0010
0001
,  // measure 7
1001
0001
1000
0010
,  // measure 8
1000
0100
0010
0001
,  // measure 9
1001
1000
0010
1000
,  // measure 10
0100
1000
0010
0100
,  // measure 11
0110
0110
0101
0000
,  // measure 12
1001
0000
1010
0000
,  // measure 13
1000
0100
0010
0000
,  // measure 14
0010
0100
1000
0000
,  // measure 15
0001
1000
0001
1000
,  // measure 16
0001
1000
0001
1000
,  // measure 17
1010
1000
0010
0000
,  // measure 18
0110
0000
0101
0000
,  // measure 19
0010
1000
0100
0010
,  // measure 20
0001
0000
1000
0000
0001
1000
0001
0000
,  // measure 21
0101
0001
1000
0010
,  // measure 22
1000
0010
0100
0001
,  // measure 23
0101
0001
0100
0010
,  // measure 24
1000
0100
0010
0100
,  // measure 25
0110
0010
0100
0010
,  // measure 26
0001
0100
0010
1000
,  // measure 27
1010
1000
0010
0100
,  // measure 28
0001
0010
0100
0010
,  // measure 29
0110
0000
0110
0000
,  // measure 30
1001
1001
1001
0000
,  // measure 31
1010
0000
1010
0000
,  // measure 32
0101
0101
0101
0000
,  // measure 33
0011
0000
0011
0000
,  // measure 34
1100
1100
1100
0000
,  // measure 35
1001
0000
1001
0000
,  // measure 36
1010
1010
1010
0000
,  // measure 37
0001
1000
0010
0000
,  // measure 38
0010
1000
0001
0000
,  // measure 39
0001
0100
0010
0000
,  // measure 40
0010
0100
0001
0000
,  // measure 41
0001
1000
0010
0000
,  // measure 42
0010
1000
0100
0000
,  // measure 43
0100
0010
0001
0000
,  // measure 44
0001
1000
0010
1000
,  // measure 45
1001
1000
0010
1000
,  // measure 46
0001
0100
0010
0100
,  // measure 47
0101
0100
0010
1000
,  // measure 48
0100
0010
0100
1000
,  // measure 49
1010
1000
0100
0010
,  // measure 50
0001
0100
0010
1000
,  // measure 51
1010
1000
1010
1000
,  // measure 52
1010
1000
0100
0010
,  // measure 53
0011
0001
0011
0010
,  // measure 54
0011
0001
0011
0010
,  // measure 55
0001
1000
0010
1000
,  // measure 56
0001
1000
0001
0000
,  // measure 57
0001
1000
0010
1000
,  // measure 58
0001
0100
0010
0000
,  // measure 59
2002
0000
0000
0000
,  // measure 60
3003
0000
0000
0000
;

//---------------dance-single - PikaVix----------------
#NOTES:
     dance-single:
     PikaVix:
     Easy:
     6:
     0.276,0.330,0.261,0.019,0.000: // measure 1
0000
0000
0000
0000
,  // measure 2
0000
0000
0000
0000
,  // measure 3
0000
0000
0000
0000
,  // measure 4
0000
0000
0000
0000
,  // measure 5
1001
0001
0001
0001
,  // measure 6
1001
1000
1000
1000
,  // measure 7
1001
0001
0001
0001
,  // measure 8
1001
1000
1000
1000
,  // measure 9
1001
0001
0001
0001
,  // measure 10
1001
1000
1000
1000
,  // measure 11
1001
0001
0001
0001
,  // measure 12
1001
1000
1000
1000
,  // measure 13
0010
0000
0000
0010
,  // measure 14
0010
1000
1000
0000
,  // measure 15
0001
0001
0100
0100
,  // measure 16
0010
0010
1000
0001
,  // measure 17
1001
0000
0000
1000
,  // measure 18
1000
0010
0010
0000
,  // measure 19
0100
0100
0001
0001
,  // measure 20
0010
0010
0000
0001
,  // measure 21
1000
0010
0100
0001
,  // measure 22
0100
0010
1000
0100
,  // measure 23
0010
0100
1000
0010
,  // measure 24
0100
0001
0100
0001
,  // measure 25
1000
0001
0010
0001
,  // measure 26
0010
0100
1000
0010
,  // measure 27
1000
0001
1000
0100
,  // measure 28
1000
0010
1000
0001
,  // measure 29
1001
0000
1001
0000
,  // measure 30
0110
0110
0110
0000
,  // measure 31
1001
0000
1001
0000
,  // measure 32
0110
0110
0110
0000
,  // measure 33
0001
0000
0001
0000
,  // measure 34
1001
1001
1001
0000
,  // measure 35
0110
0000
1000
0000
,  // measure 36
0001
0000
1000
0000
,  // measure 37
0001
0000
0001
0000
,  // measure 38
0010
0010
0010
0000
,  // measure 39
0100
0000
0100
0000
,  // measure 40
0001
1000
0001
0000
,  // measure 41
0010
0000
0010
0000
,  // measure 42
0001
0001
0001
0000
,  // measure 43
1000
1000
1000
0000
,  // measure 44
0010
0000
0100
0000
,  // measure 45
0001
0010
0100
1000
,  // measure 46
0010
1000
0100
0010
,  // measure 47
0001
0100
0001
0010
,  // measure 48
0001
0100
0001
0010
,  // measure 49
0100
1000
0010
0100
,  // measure 50
0010
0100
0010
0000
,  // measure 51
1000
0100
0010
0100
,  // measure 52
1000
0010
1000
0000
,  // measure 53
0001
1000
0001
1000
,  // measure 54
0010
1000
0001
0000
,  // measure 55
1001
0000
1001
0000
,  // measure 56
0010
0010
0010
0000
,  // measure 57
1001
0000
1001
0000
,  // measure 58
0100
0100
0010
0100
,  // measure 59
0220
0000
0000
0000
,  // measure 60
0330
0000
0000
0000
;

//---------------dance-single - PikaVix----------------
#NOTES:
     dance-single:
     PikaVix:
     Beginner:
     2:
     0.104,0.164,0.196,0.019,0.000: // measure 1
0000
0000
0000
0000
,  // measure 2
0000
0000
0000
0000
,  // measure 3
0000
0000
0000
0000
,  // measure 4
0000
0000
0000
0000
,  // measure 5
0010
0000
0000
0000
,  // measure 6
0010
0000
0000
0000
,  // measure 7
0010
0000
0000
0000
,  // measure 8
0010
0000
0000
0000
,  // measure 9
0010
0000
0000
0000
,  // measure 10
0010
0000
0000
0000
,  // measure 11
0010
0000
0000
0000
,  // measure 12
0010
0000
0000
0000
,  // measure 13
1001
0000
0000
0000
,  // measure 14
1000
0000
0000
0000
,  // measure 15
0001
0000
0000
0000
,  // measure 16
1000
0000
0000
0000
,  // measure 17
0110
0000
0000
0000
,  // measure 18
0010
0000
0000
0000
,  // measure 19
0100
0000
0000
0000
,  // measure 20
0010
0000
0000
0000
,  // measure 21
1001
0000
0000
0000
,  // measure 22
1000
0000
0000
0000
,  // measure 23
1000
0000
0000
0000
,  // measure 24
1000
0000
0000
0000
,  // measure 25
1001
0000
0000
0000
,  // measure 26
0001
0000
0000
0000
,  // measure 27
0001
0000
0000
0000
,  // measure 28
0001
0000
0000
0000
,  // measure 29
0110
0000
0000
0000
,  // measure 30
0110
0000
0000
0000
,  // measure 31
0110
0000
0000
0000
,  // measure 32
0110
0000
0000
0000
,  // measure 33
1001
0000
0000
0000
,  // measure 34
1001
0000
0000
0000
,  // measure 35
1001
0000
0000
0000
,  // measure 36
1001
0000
0000
0000
,  // measure 37
1000
0000
0000
0000
,  // measure 38
0001
0000
0000
0000
,  // measure 39
1000
0000
0000
0000
,  // measure 40
0001
0000
0000
0000
,  // measure 41
0010
0000
0000
0000
,  // measure 42
0100
0000
0000
0000
,  // measure 43
0010
0000
0000
0000
,  // measure 44
0100
0000
0000
0000
,  // measure 45
1001
0000
0000
0000
,  // measure 46
1001
0000
0000
0000
,  // measure 47
1001
0000
0000
0000
,  // measure 48
1001
0000
0000
0000
,  // measure 49
0110
0000
0000
0000
,  // measure 50
0110
0000
0000
0000
,  // measure 51
0110
0000
0000
0000
,  // measure 52
0110
0000
0000
0000
,  // measure 53
0001
0000
0000
0000
,  // measure 54
0001
0000
0000
0000
,  // measure 55
1000
0000
0000
0000
,  // measure 56
0001
0000
0000
0000
,  // measure 57
1000
0000
0000
0000
,  // measure 58
0001
0000
0000
0000
,  // measure 59
2002
0000
3003
0000
;
