#TITLE:AKATSUKI;
#SUBTITLE:(JAKAZiD's UKxJ-Core Bootleg);
#ARTIST:STAR GUiTAR feat. Tokyo Ethmusica;
#TITLETRANSLIT:;
#SUBTITLETRANSLIT:;
#ARTISTTRANSLIT:;
#GENRE:;
#CREDIT:;
#MUSIC:AKATSUKI remix.ogg;
#BANNER:;
#BACKGROUND:;
#CDTITLE:;
#SAMPLESTART:79.549;
#SAMPLELENGTH:11.143;
#SELECTABLE:YES;
#OFFSET:-0.343;
#BPMS:0.000=174.988
,38.000=349.977
,39.000=174.988
,68.500=349.977
,69.500=174.988
,70.500=87.494
,102.500=174.988
,131.000=349.977
,132.000=174.988
,255.500=87.494
,256.500=349.977
,258.500=174.988
;
#STOPS:6.000=0.171
,37.500=0.171
,38.000=0.086
,38.500=0.086
,68.000=0.171
,68.500=0.043
,68.750=0.043
,69.000=0.043
,69.250=0.043
,130.500=0.857
,131.000=0.043
,131.250=0.043
,131.500=0.043
,131.750=0.043
,195.000=0.171
,256.500=0.043
,256.750=0.043
,257.000=0.043
,257.250=0.043
,257.500=0.043
,257.750=0.043
,258.000=0.043
,258.250=0.043
;
#DISPLAYBPM:175.000;
#BGCHANGES:;
#FGCHANGES:;

//--------------- dance-single - ----------------
#NOTES:
     dance-single:
     :
     Medium:
     13:
     0,0,0,0,0:
0000
0000
0000
0000
,
0000
0000
0000
0000
0110
1000
0100
0010
,
0001
1000
0100
0010
0001
0100
1000
0100
,
0001
0100
1000
0100
0001
1000
0100
1000
,
0001
0100
0001
0010
0001
0010
1000
0010
,
0001
0010
1000
0010
0001
0100
0001
1000
,
0100
1000
0010
0100
0001
0100
1000
0100
,
0001
0010
1000
0010
0001
1000
0001
1000
,
0100
1000
0100
0010
0001
0100
0100
0010
,
0010
0100
0100
1010
1000
0001
0001
0000
,
0200
0000
0000
0010
0000
0000
0010
0000
0310
0000
1000
0000
0001
0000
0000
0000
,
2000
0000
0000
0100
0000
0000
0100
0000
3100
0000
0010
0000
0001
0000
0000
0000
,
0020
0000
0000
0100
0000
0000
0100
0000
0130
0000
0010
0000
0001
0000
0000
0000
,
0200
0000
0000
0000
0000
0000
0000
0000
0000
0000
0000
0000
0000
0000
0000
0000
0000
0000
0000
0000
0000
0000
0000
0000
0000
0000
0000
0000
0000
0000
0000
0000
0000
0000
0000
0000
0001
0000
0000
0000
0000
0000
0000
0000
0000
0000
0000
0000
0000
0000
0000
0000
0000
0000
0000
0000
0000
0000
0000
0000
0000
0000
0000
0000
0000
0000
0000
0000
0000
0000
0000
0000
0001
0000
0000
0000
0000
0000
0000
0000
0000
0000
0000
0000
0000
0000
0000
0000
0000
0000
0000
0000
0000
0000
0000
0300
0001
0000
0000
0000
0000
0000
0000
0000
0000
0000
0000
0000
0000
0000
0000
0000
0000
0000
0000
0000
0000
0000
0000
0000
1000
0000
0000
0000
0000
0000
0000
0000
0000
0000
0000
0000
0000
0000
0000
0000
0000
0000
0000
0000
0000
0000
0000
0000
0001
0000
0000
0000
0000
0000
0000
0000
0000
0000
0000
0000
0000
0000
0000
0000
0000
0000
0000
0000
0000
0000
0000
0000
1000
0000
0000
0000
0000
0000
0000
0000
0000
0000
0000
0000
0000
0000
0000
0000
0000
0000
0000
0000
0000
0000
0000
0000
,
0001
0100
0010
0100
0010
0010
1000
1000
,
0100
0100
1000
1000
0010
0010
0100
0100
,
0202
0303
2200
3300
,
1001
0010
0010
0010
0000
0200
0000
0001
,
0000
0000
1000
0000
0000
0000
0301
0000
0100
0000
0010
0000
1000
0100
0000
1000
,
0001
0200
0000
0000
0000
0000
0300
0000
0010
0000
2000
0000
0000
0000
0100
0000
,
0000
0001
0000
3100
1000
0002
0000
0100
,
0000
1000
0000
0103
0001
0020
0000
1000
,
0000
0000
0001
0000
0000
0000
1030
0000
0010
0000
0001
0000
1000
0010
0000
0100
,
0001
0020
0000
0000
0000
0000
0030
0000
0001
0000
0200
0000
0000
0000
0010
0000
,
0000
1000
0000
0310
1000
0020
0000
0100
,
0000
0001
0000
0200
0330
0001
0000
0001
,
0000
0010
0000
0010
0000
0001
0000
0001
,
0000
0100
0000
0100
0000
0010
0000
0010
,
0000
0100
0000
0100
0000
0001
0000
0001
,
0000
1000
0000
1000
0000
0100
1000
0100
,
1000
0010
0100
0010
0100
0001
0010
0001
,
0010
0100
0010
0100
1000
0010
1000
0010
,
0100
0001
1000
0010
0100
0110
0010
0010
,
0010
0100
0001
0010
0002
0000
1003
0010
,
0100
0010
1000
0100
2000
0000
3010
0100
,
0010
0100
0001
1000
0200
0000
1300
0010
,
0100
0001
1000
0001
0020
0000
0031
0010
,
1000
0010
0001
0100
0020
0000
1030
0010
,
0001
0010
1000
0100
0020
0000
0031
0010
,
1000
0001
0100
1000
0002
0000
1003
0010
,
0001
1000
0100
0001
2000
0000
3001
0100
,
0010
1000
0001
0010
0200
0000
1300
0010
,
0100
0010
1000
0100
2000
0000
3010
0100
,
0010
0100
0001
0010
0002
0000
0013
0100
,
0010
0100
2000
0000
3010
1000
0001
0010
,
1000
0010
0001
0100
0020
0000
1030
0100
,
0001
0100
1000
0010
0200
0000
0301
0010
,
1000
0001
0100
1000
0002
0000
1003
0010
,
0001
1000
0100
0001
2000
0000
3001
0010
,
0200
0000
0310
0002
0000
1003
0001
0100
,
0020
0000
0130
0002
0000
0103
0010
1000
,
0200
0000
1300
0002
0000
1003
0001
0100
,
0000
0010
0000
0000
0010
0000
0100
0000
0000
0100
0000
0000
0001
0000
1000
0000
,
0200
0000
0301
0200
0000
1300
0010
0100
,
0002
0000
0013
2000
0000
3010
0001
0100
,
0020
0000
0130
0020
0000
0130
0001
0100
,
0000
0010
0000
0000
0010
0000
0100
0000
0000
0100
0000
0000
0001
0000
0010
0000
,
0002
0000
0103
2000
0000
3100
0001
1000
,
0002
0000
0013
2000
0000
3010
0001
1000
,
0020
0000
0031
0020
0000
1030
0010
1000
,
0000
0100
0000
0000
0100
0000
0010
0000
0000
0010
0000
0000
0001
0000
0100
0000
,
0002
0000
0103
2000
0000
3100
0001
1000
,
0200
0000
0301
0200
0000
1300
0001
0100
,
0010
1000
0010
0100
0010
1000
0001
2002
,
0000
3003
0100
0000
0100
0000
0010
0000
0010
0000
1000
0000
0100
0000
0001
0000
,
0100
1000
0000
0001
0100
1000
0100
0001
,
0100
0010
0000
1000
0010
0001
0010
1000
,
0010
0100
0000
0001
0010
1000
0010
0001
,
0100
0010
0000
1000
0100
0001
0100
1000
,
0010
0100
0000
0001
0100
1000
0001
0010
,
1000
0001
0000
1000
0100
0001
1000
0010
,
0001
1000
0000
0001
0100
0010
0001
0010
,
1000
0001
0000
1000
0010
0100
1000
0100
,
0001
1000
0000
0001
0010
0100
0001
0100
,
1000
0001
0000
1000
0100
0010
1000
0010
,
0001
1000
0000
0001
0100
1000
0100
0001
,
1000
0001
0000
1000
0001
1000
1000
0100
,
0001
0100
1000
0001
0001
0010
1000
0010
,
0001
0001
0100
0010
0100
0010
1000
0100
,
0010
0001
1000
0100
0010
0002
0000
0000
,
0000
0000
0000
1003
0001
1000
0000
0000
;

//--------------- dance-single - ----------------
#NOTES:
     dance-single:
     :
     Hard:
     15:
     0,0,0,0,0:
0000
0000
0000
0000
,
0000
0000
0000
0000
1001
1000
0001
0100
,
0010
1000
0100
0010
0001
0100
0100
0100
,
0010
0010
0010
1000
1000
1000
0100
0001
,
0100
1000
0010
0001
0010
1000
1000
1000
,
0100
0100
0100
0010
0010
0010
0001
0100
,
1000
0100
0001
0010
1000
0010
0001
0001
,
0101
0100
0100
0010
0010
0010
1000
0100
,
0001
1000
0001
0100
1000
0010
0001
1000
,
0001
0010
1000
1001
0100
0010
1010
0000
,
0110
0000
0000
0101
0000
0000
1001
0000
0000
0000
0001
0000
1000
0000
0000
0000
,
0011
0000
0000
1100
0000
0000
1001
0000
0000
0000
0010
0000
0100
0000
0000
0000
,
0110
0000
0000
1001
0000
0000
1010
0000
0000
0000
0010
0000
0100
0000
0000
0000
,
0011
0000
0000
0110
0000
0000
1010
0000
0000
0000
1000
0000
0010
0000
0000
0000
,
1100
0000
0000
1001
0000
0000
0101
0000
0000
0000
0001
0000
0100
0000
0000
0000
,
0110
0000
0000
1100
0000
0000
1001
0000
0000
0000
1000
0000
0001
0000
0000
0000
,
1100
0000
0000
0101
0000
0000
0110
0000
1000
0000
0000
0000
0001
0000
0010
0000
,
0001
0000
0100
0010
1000
0001
1000
0000
0001
0000
2000
0000
0000
0000
0010
0000
,
0000
0000
3100
0000
0000
0000
0010
0000
0001
0000
0100
0000
0010
1000
0000
0100
,
1000
0001
0000
0100
0010
1000
0100
0000
1000
0000
0020
0000
1000
0000
1000
0000
,
0001
0001
0100
0130
0001
0200
0001
0001
,
1000
1000
0010
0310
1000
0002
0000
0100
,
0000
0000
0013
0000
0000
0000
0100
0000
1000
0000
0010
0000
0100
0001
0000
0010
,
0001
1000
0000
0010
0100
0001
0010
0000
0001
0000
0200
0000
0001
0000
0001
0000
,
1000
1000
0010
0310
1000
0020
1000
1000
,
0001
0001
0100
0130
0010
1001
0000
1001
,
0000
0110
0000
0110
0000
1100
0000
1100
,
0000
0101
0000
0101
0000
0011
0000
0011
,
0000
1010
0000
1010
0000
1001
0000
0110
,
0000
1001
0000
0110
0000
1001
0001
0001
,
1000
1000
0100
0100
0001
0001
0100
0100
,
1000
0000
1000
0000
0001
0000
0001
0000
0100
0010
0100
0010
0100
0010
1000
0001
,
1000
0001
0100
0010
0100
0010
1000
0100
1000
0000
1001
0000
1000
0010
0100
0010
,
1000
0001
1000
0100
1000
0000
0001
0100
0020
0000
0000
0000
0130
0000
0001
0000
,
1000
0100
1000
0001
0100
0000
0001
1000
0002
0000
0000
0000
1003
0000
0001
0000
,
0010
0100
0010
0100
0010
0000
0001
0100
0020
0000
0000
0000
0130
0000
0001
0000
,
0010
0001
0000
0010
0001
0000
1000
0010
0000
1000
0010
0000
0100
0000
0010
0000
,
1000
0010
0100
0010
1000
0000
0001
0010
0200
0000
0000
0000
0310
0000
0001
0000
,
1000
0100
1000
0100
0010
0000
0001
1000
0020
0000
0000
0000
0130
0000
0001
0000
,
0100
0010
1000
0010
0100
0000
0010
1000
0200
0000
0000
0000
0310
0000
0001
0000
,
0010
0100
0000
1000
0100
0000
1000
0010
0000
0100
0010
0000
0100
0000
0001
0000
,
1000
0001
1000
0100
1000
0000
0001
0010
0002
0000
0000
0000
0103
0000
0001
0000
,
0100
0010
1000
0010
0100
0000
0010
0100
0020
0000
0000
0000
0130
0000
0001
0000
,
1000
0100
1000
0100
0010
0000
0001
0010
0002
0000
0000
0000
1003
0000
0001
0000
,
0100
0010
0000
0100
0001
0000
0010
0100
0000
0010
0100
0000
1000
0000
0001
0000
,
0100
0010
0100
0010
1000
0000
0001
0100
0002
0000
0000
0000
0013
0000
0001
0000
,
0100
0010
0100
0010
1000
0000
0100
1000
0200
0000
0000
0000
1300
0000
0001
0000
,
0100
0010
0100
0001
1000
0000
0100
1000
0002
0000
0000
0000
0013
0000
0001
0000
,
1000
0010
0100
0001
0100
0010
1001
0100
,
0010
0100
0001
0000
1000
0000
0200
0000
0000
0000
1300
0000
0001
0000
0100
0000
,
0001
0010
0001
0000
0100
0000
0020
0000
0000
0000
1030
0000
0001
0000
1000
0000
,
0001
0010
0001
0000
0100
0000
0002
0000
0000
0000
1003
0000
0001
0000
1000
0000
,
0100
1000
0000
0001
1000
0000
0010
0100
0000
0001
0100
0000
0001
0000
0010
0000
,
0100
1000
0100
0000
1000
0000
0002
0000
0000
0000
1003
0000
0100
0000
0010
0000
,
0001
0100
0001
0000
0100
0000
0002
0000
0000
0000
0013
0000
0100
0000
1000
0000
,
0001
0100
0010
0000
0100
0000
0020
0000
0000
0000
0130
0000
0001
0000
1000
0000
,
0100
0010
0000
0100
1000
0000
0010
0100
0000
0001
0100
0000
0010
0000
1000
0000
,
0100
0010
0100
0000
1000
0000
0002
0000
0000
0000
0103
0000
0010
0000
1000
0000
,
0010
0100
0010
0000
1000
0000
0200
0000
0000
0000
0310
0000
0100
0000
1000
0000
,
0001
0010
0100
0000
0010
0000
0002
0000
0000
0000
0103
0000
0010
0000
1000
0000
,
0001
1000
0000
0001
0100
0000
0010
0100
0000
0010
1000
0000
0100
0000
1000
0000
,
0001
1000
0010
0000
1000
0000
0200
0000
0000
0000
1300
0000
0010
0000
1000
0000
,
0100
0010
0100
0000
0010
0000
0200
0000
0000
0000
0310
0000
0001
0000
1000
0000
,
0001
0100
0010
0000
1000
0000
0002
0000
0000
0000
0103
0000
0000
0000
2002
0000
,
0000
3003
0001
1000
0010
0100
0001
1000
0010
0100
0001
0000
0010
0000
0100
0000
,
0010
0001
0100
0000
0001
0000
1000
0000
0100
0000
0001
0000
0100
0000
1000
0000
,
0010
1000
0001
0000
1000
0000
0010
0000
0001
0000
0010
0000
1000
0000
0001
0000
,
0100
0001
0010
0000
0001
0000
0100
0000
1000
0000
0100
0000
0001
0000
0010
0000
,
0001
1000
0100
0000
1000
0000
0001
0000
0010
0000
1000
0000
0010
0000
0001
0000
,
0100
1000
0010
0000
1000
0000
0100
0000
0001
0000
1000
0000
0010
0000
0001
0000
,
0100
0010
1000
0000
0001
0000
0100
0000
1000
0000
0001
0000
0010
0000
1000
0000
,
0001
1000
0100
0000
1000
0000
0010
0000
0001
0000
1000
0000
0001
0000
0010
0000
,
1000
0001
1000
0000
0001
0000
0100
0000
1000
0000
0001
0000
1000
0000
0100
0000
,
0001
0100
0001
0000
1000
0000
0100
0000
0001
0000
1000
0000
0001
0000
0100
0000
,
1000
0010
0100
0000
0001
0000
0010
0000
1000
0000
0001
0000
1000
0000
0010
0000
,
0001
0010
0001
0000
1000
0000
0010
0000
0001
0000
1000
0000
0001
0000
0010
0000
,
1000
0010
0100
0000
0001
0000
1000
0000
0001
0000
1000
0000
1000
0000
0010
0000
,
0010
0100
0100
0001
0001
1000
1000
0100
,
0100
0010
0010
0001
0001
1000
1000
0100
,
0100
0000
0001
0000
0001
0000
0100
0000
0100
0000
1000
0000
0000
1001
0000
0000
,
0100
0000
0000
0110
0000
0000
1000
0000
0001
0000
1001
0000
0000
0000
0000
0000
;
