#VERSION:0.83;
#TITLE:AIN'T NOTHIN' LIKE A FUNKY BEAT;
#SUBTITLE:;
#ARTIST:長沼英樹;
#TITLETRANSLIT:;
#SUBTITLETRANSLIT:;
#ARTISTTRANSLIT:Hideki Naganuma;
#GENRE:;
#ORIGIN:;
#CREDIT:DJXYZ × vincentw;
#BANNER:AIN'T NOTHIN' LIKE A FUNKY BEAT.png;
#BACKGROUND:AIN'T NOTHIN' LIKE A FUNKY BEAT-bg.png;
#PREVIEWVID:;
#JACKET:AIN'T NOTHIN' LIKE A FUNKY BEAT-jacket.png;
#CDIMAGE:;
#DISCIMAGE:;
#LYRICSPATH:;
#CDTITLE:;
#MUSIC:AIN'T NOTHIN' LIKE A FUNKY BEAT.ogg;
#OFFSET:0.000000;
#SAMPLESTART:13.520000;
#SAMPLELENGTH:13.500000;
#SELECTABLE:YES;
#BPMS:0.000=142.000;
#STOPS:;
#DELAYS:;
#WARPS:;
#TIMESIGNATURES:0.000=4=4;
#TICKCOUNTS:0.000=4;
#COMBOS:0.000=1;
#SPEEDS:0.000=1.000=0.000=0;
#SCROLLS:0.000=1.000;
#FAKES:;
#LABELS:0.000=Song Start;
#LASTSECONDHINT:121.250000;
#BGCHANGES:;
#KEYSOUNDS:;
#ATTACKS:
;

//---------------dance-single - ----------------
#NOTEDATA:;
#CHARTNAME:;
#STEPSTYPE:dance-single;
#DESCRIPTION:;
#CHARTSTYLE:;
#DIFFICULTY:Beginner;
#METER:4;
#RADARVALUES:0.190235,0.203908,0.016440,0.082200,0.000000,162.000000,160.000000,2.000000,10.000000,0.000000,0.000000,0.000000,0.000000,0.000000,0.190235,0.203908,0.016440,0.082200,0.000000,162.000000,160.000000,2.000000,10.000000,0.000000,0.000000,0.000000,0.000000,0.000000;
#CREDIT:;
#NOTES:
0000
0000
0000
0000
,
0000
0000
0000
0000
,
0000
0000
0000
0000
,
0000
0000
0000
0000
,
0000
0000
0100
0000
,
0000
0000
0100
0000
,
0000
0000
0000
0000
0200
0000
0000
0300
,
0000
0000
0000
0000
,
1001
0000
0001
0000
,
1000
0000
1000
0000
,
0100
0000
0100
0000
,
0010
0010
0000
0000
,
0001
0000
0001
0000
,
1000
0000
1000
0000
,
0010
0000
0010
0000
,
0100
0000
0200
0000
,
0301
0001
0001
0000
,
1000
1000
1000
0000
,
0001
0001
0001
0000
,
0020
0000
0000
0000
0000
0000
0000
0030
0000
0000
0000
0000
0000
0000
0000
0000
,
0110
0000
0100
0000
,
1000
0000
1000
0000
,
0001
0000
1000
0000
,
0002
0000
0000
0000
0000
0000
0000
0000
1000
0000
0000
0003
1000
0000
0000
0000
,
1000
0000
0010
0000
,
1000
0000
0010
0000
,
0100
0000
0001
0000
,
2000
0000
0000
0000
0000
0000
0000
0000
0001
0000
0000
3000
0001
0000
0000
0000
,
0001
0000
0100
0000
,
0001
0001
0100
0000
,
0001
0000
1000
0000
,
0100
1000
0100
0000
,
0010
0000
0001
0000
,
0010
0010
0001
0000
,
2000
0000
0000
0000
0002
0000
0000
3003
,
0000
0000
0000
0000
,
1000
1000
1000
0000
,
0100
0100
0100
0000
,
0010
0010
0010
0000
,
0001
0001
0001
0000
,
1000
0010
1000
0000
,
0010
1000
0010
0000
,
0100
0001
0100
0000
,
0001
0100
0001
0000
,
1000
0100
1000
0000
,
0001
0100
0001
0000
,
1000
0100
1000
0000
,
0001
0100
0001
0000
,
1000
0010
1000
0000
,
0001
0010
0001
0000
,
1000
0000
0001
0000
,
1000
0100
0010
0001
,
1000
0000
0001
0000
,
1000
0001
1000
0000
,
0010
0000
0100
0000
,
0010
0100
0010
0000
,
1000
0000
0100
0000
,
0010
0100
1000
0000
,
0001
0000
0100
0000
,
0010
0100
0001
0000
,
0010
0000
0100
0000
,
0010
0000
0100
0000
,
0010
0000
0100
0000
,
1000
0000
0002
0000
,
1003
0010
0100
0000
,
0100
0010
1000
0000
,
0001
0010
0100
0000
,
0100
0010
0001
0000
,
1000
0100
0001
0000
,
0001
0100
1000
0000
,
0002
0000
0000
0000
2000
0000
0000
3003
;

//---------------dance-single - ----------------
#NOTEDATA:;
#CHARTNAME:;
#STEPSTYPE:dance-single;
#DESCRIPTION:;
#CHARTSTYLE:;
#DIFFICULTY:Easy;
#METER:6;
#RADARVALUES:0.305316,0.383028,0.197281,0.131521,0.000000,260.000000,236.000000,24.000000,16.000000,0.000000,0.000000,0.000000,0.000000,0.000000,0.305316,0.383028,0.197281,0.131521,0.000000,260.000000,236.000000,24.000000,16.000000,0.000000,0.000000,0.000000,0.000000,0.000000;
#CREDIT:;
#NOTES:
0000
0000
0000
0000
,
0000
0000
0000
0000
,
0000
0000
0000
0000
,
0000
0010
0010
0010
,
0010
0000
1100
0000
,
0010
0000
0101
0000
,
0010
0000
0000
0000
1100
0000
0000
2000
,
0000
0000
0000
0000
0000
0000
0000
0000
0000
0000
0000
3000
0000
0000
0000
0000
,
0011
0101
0001
0001
,
0010
0100
1000
0100
,
1010
1100
1000
0100
,
1000
1000
0002
0003
,
0011
1010
1000
1000
,
0010
0100
0001
0100
,
1100
0101
0001
0100
,
0010
0010
0200
0000
,
0301
1000
0100
0100
,
0010
0100
1000
0001
,
1000
0001
0010
0010
,
0200
0000
0300
1001
,
1000
0100
0100
1000
,
0001
0100
0100
0001
,
1000
0100
0100
1000
,
0000
0010
0100
1001
,
0001
0010
0010
0001
,
1000
0010
0010
1000
,
0001
0010
0010
0001
,
0100
0010
2000
0000
,
3001
0010
1000
0010
,
0001
0100
1000
1000
,
1000
0100
0001
0100
,
0010
1000
0200
0300
,
1000
0010
0001
0010
,
1000
0100
0001
0001
,
0001
0000
0100
0000
1000
0000
0000
0002
,
0000
0000
0003
2001
,
3100
0100
0100
0010
,
0100
0100
1000
0001
,
0100
0100
0100
0010
,
0100
0100
0001
0010
,
2000
3010
0002
0013
,
0002
0103
2000
3100
,
0010
1000
1000
1000
,
0001
0001
0001
0000
,
0010
0100
1000
1000
,
0010
0100
0001
0001
,
0000
1000
1000
1000
,
0001
0001
0001
0000
,
0010
0001
0100
0100
,
0010
1000
0100
0100
,
0011
0000
1010
0000
,
0011
1010
0101
1100
,
1000
0100
1000
1000
,
0001
0100
0001
0001
,
1000
0010
1000
1000
,
0001
0010
1000
0010
,
0001
0010
0001
0001
,
1000
0010
1000
1000
,
0001
0000
0100
0000
0001
0000
0000
2000
,
0000
0000
3000
1001
,
0001
0010
1100
0000
,
1000
0010
0101
0000
,
1000
0010
0101
0000
,
0001
0010
0200
0000
,
0300
1000
1000
1000
,
0001
0001
0001
0000
,
0100
0010
0010
0010
,
0100
0100
0200
0000
,
0301
1000
1000
0010
,
0001
0001
0010
0000
,
0100
0000
0100
0000
0001
0000
0000
2000
,
0000
0000
0000
0000
0000
0000
0000
0000
0000
0000
0000
3000
0000
0000
0000
0000
;

//---------------dance-single - ----------------
#NOTEDATA:;
#CHARTNAME:;
#STEPSTYPE:dance-single;
#DESCRIPTION:;
#CHARTSTYLE:;
#DIFFICULTY:Medium;
#METER:11;
#RADARVALUES:0.465019,0.500883,0.328801,0.205501,0.221941,396.000000,356.000000,40.000000,25.000000,0.000000,0.000000,0.000000,0.000000,0.000000,0.465019,0.500883,0.328801,0.205501,0.221941,396.000000,356.000000,40.000000,25.000000,0.000000,0.000000,0.000000,0.000000,0.000000;
#CREDIT:;
#NOTES:
0000
0000
0000
0000
,
0000
0000
0000
0000
,
0000
0000
0000
0000
,
0000
0000
0001
0000
0010
0000
0000
0000
0001
0000
0000
1000
0000
0000
1000
0000
,
0010
0000
0000
0100
0100
0000
0000
0001
,
0010
0000
0000
0100
0100
0000
0000
1000
,
0010
0000
0000
0100
0100
0000
0000
2002
,
0000
0000
0000
0000
0000
0000
0000
0000
0000
0000
0000
3003
0000
0000
0000
0000
,
1010
0000
0000
0000
0101
0000
0000
0000
0001
0000
0000
0100
0000
0000
0010
0000
,
0000
0000
1000
0000
0100
0000
1000
0000
0100
0000
0000
0010
0000
0000
0000
0000
,
0011
0000
0000
0000
1100
0000
0000
0000
1000
0000
0000
0010
0000
0000
0100
0000
,
0000
0000
0001
0000
1000
0000
0000
0100
0000
0100
0000
0000
1000
0000
0000
0000
,
0011
0000
0000
0000
1010
0000
0000
0000
1000
0000
0000
0100
0000
0000
0010
0000
,
0000
0000
0001
0000
0010
0000
0001
0000
0010
0000
0000
0100
0000
0000
0000
0000
,
1100
0000
0000
0000
0101
0000
0000
0000
0001
0000
0000
1000
0000
0000
0010
0000
,
0000
0000
0010
0000
1000
0000
0001
0000
0100
0000
0000
0100
0000
0000
0100
0000
,
1001
0000
0000
0000
0110
0000
0000
0000
0010
0000
0000
1000
0000
0000
0001
0000
,
0000
0000
0100
0000
0010
0000
0001
0000
1000
0000
0000
0100
0000
0000
0000
0000
,
0110
0000
0000
0000
1001
0000
0000
0000
0001
0000
0000
1000
0000
0000
0100
0000
,
0010
0000
1000
0000
0010
0000
0000
0010
0000
0000
0001
0000
1000
0000
0000
0000
,
1001
0000
0000
0000
0001
0000
0010
0000
0100
0000
0000
0100
0000
0000
1000
0000
,
0000
0000
1000
0000
0001
0000
1000
0000
0010
0000
0000
0010
0000
0000
1000
0000
,
0000
0000
0001
0000
0100
0000
0001
0000
1000
0000
0000
1000
0000
0000
0001
0000
,
0000
1000
0100
0001
0100
0000
0110
0000
,
0001
0000
0000
0000
1000
0000
0100
0000
0010
0000
0000
0010
0000
0000
0001
0000
,
0000
0000
0001
0000
1000
0000
0100
0000
1000
0000
0000
1000
0000
0000
0010
0000
,
0000
0000
0100
0000
0001
0000
0010
0000
0100
0000
0000
0100
0000
0000
1000
0000
,
0000
0000
0001
0000
0010
0000
1000
0000
0010
0000
0000
0010
0000
0000
0010
0000
,
0011
0000
0000
0000
0101
0000
0000
0000
2000
0000
0000
3001
0000
0000
1000
0000
,
0000
0000
1000
0000
0010
0000
0010
0000
0200
0000
0000
0301
0000
0000
0000
0000
,
1010
0000
0000
0000
1100
0000
0000
0000
2000
0000
0000
3100
0000
0000
0010
0000
,
0001
0000
0000
0100
0000
0000
0001
0000
1000
0000
0200
0000
0300
0000
0000
0000
,
1100
0000
0000
0000
0101
0000
0000
0000
2000
0000
0000
3010
0000
0000
0100
0000
,
0000
0000
0100
0000
0001
0000
1000
0000
0200
0000
0000
0310
0000
0000
0000
0000
,
0011
0000
0000
0000
1010
0000
0000
0000
0002
0000
0000
0013
0000
0000
1000
0000
,
0001
0000
1000
0000
0010
0100
2001
0000
,
0100
0100
0100
3100
,
0010
0002
0100
0000
0100
0000
0103
0001
,
0020
0100
0100
0130
,
1000
0100
1000
0000
0001
0100
0001
0000
,
0020
0000
0001
0000
0001
0000
0031
0100
,
0020
0000
1000
0000
1000
0000
1030
1000
,
0100
0000
0000
0000
1000
0000
0100
0000
1000
0000
0000
1000
0000
0000
0000
0000
,
0001
0000
0100
0000
0001
0000
0000
0000
0100
0000
0000
0100
0000
0000
0100
0000
,
0110
0000
0000
0000
1001
0000
0000
0000
2000
0000
0000
3100
0000
0000
0001
0000
,
0000
0000
1000
0000
0010
0000
0100
0000
0020
0000
0000
0030
0001
0000
0001
0000
,
1000
0000
0000
0000
0001
0000
0010
0000
0001
0000
0000
0100
0000
0000
0010
0000
,
1000
0000
0100
0000
1000
0000
0000
0010
0000
0000
1000
0000
0100
0000
0010
0000
,
0110
0000
0000
0000
1001
0000
0000
0000
0002
0000
0000
0013
0000
0000
1000
0000
,
0000
0000
0001
0000
0100
0000
0010
0000
0200
0000
0000
0300
1000
0000
1000
0000
,
0020
0030
0000
0100
0200
0300
0000
0010
,
0010
1010
0101
1001
,
0001
0000
0100
0000
1000
0000
0100
0000
0001
0000
0000
1000
0000
0000
0100
1000
,
0000
0100
0001
0100
1000
0000
0001
0001
,
1000
0000
0100
0000
1000
0000
0000
0000
0010
0000
0000
0010
0000
0000
1000
0000
,
0000
0000
0001
0000
0100
0000
0000
0100
0000
0000
1010
0000
0000
0000
1000
0000
,
0001
0000
0010
0000
1000
0000
0010
0000
0001
0000
0000
1000
0000
0000
0010
1000
,
0000
0010
0001
0010
1000
0000
0001
0001
,
0011
0000
0000
0000
0101
0000
0000
0000
1100
0000
0000
1010
0000
0000
0001
0000
,
0010
0000
0010
0000
0001
0000
0000
0010
0000
0000
0100
0000
1000
0000
0020
0000
,
1000
0000
0000
0000
0030
0000
1000
0000
0100
0000
0000
0100
0000
0000
0020
0000
,
0000
0000
0000
0000
0030
0000
0001
0000
0100
0000
0000
0100
0000
0000
0020
0000
,
0000
0000
0000
0000
0030
0000
1000
0000
0100
0000
0000
0100
0000
0000
1000
0000
,
0010
0000
0000
0001
0000
0000
0000
0000
0011
0000
0000
0110
0000
0000
1010
0000
,
1000
0000
0000
0000
0100
0000
1000
0000
0100
0000
0000
0100
0000
0000
0000
0000
,
0010
0000
0001
0000
0010
0000
0000
0010
0000
0000
0000
0000
0001
0000
0000
0000
,
0100
0000
0000
0000
0010
0000
1000
0000
0010
0000
0000
0010
0000
0000
0000
0000
,
0100
0000
0001
0000
0100
0000
0000
0100
0000
0000
0010
0000
0000
0000
0010
0000
,
1000
0000
0000
0000
0010
0000
1000
0000
0001
0000
0000
0001
0000
0000
0000
0000
,
0010
0000
0001
0000
1000
0000
0000
1000
0000
0000
0100
0000
0100
0000
0000
0000
,
1000
0000
0000
0000
0010
0000
0000
0000
0100
0000
0000
0001
0000
0000
2002
0000
,
0000
0000
0000
0000
0000
0000
0000
0000
0000
0000
0000
3003
0000
0000
0000
0000
;

//---------------dance-single - ----------------
#NOTEDATA:;
#CHARTNAME:;
#STEPSTYPE:dance-single;
#DESCRIPTION:;
#CHARTSTYLE:;
#DIFFICULTY:Hard;
#METER:15;
#RADARVALUES:0.751546,0.736592,0.263041,0.386342,0.768573,640.000000,608.000000,32.000000,47.000000,0.000000,2.000000,0.000000,0.000000,0.000000,0.751546,0.736592,0.263041,0.386342,0.768573,640.000000,608.000000,32.000000,47.000000,0.000000,2.000000,0.000000,0.000000,0.000000;
#CREDIT:;
#NOTES:
// measure 0
0000
0000
0000
0000
,  // measure 1
0000
0000
0000
0000
,  // measure 2
0000
0000
0000
0000
,  // measure 3
0000
0000
1000
0010
1000
0000
1000
0000
0100
0000
1000
0001
0000
0000
0001
0010
,  // measure 4
0000
0000
0000
0000
0001
0000
1000
0000
0100
0000
0000
0100
0000
0000
1000
0010
,  // measure 5
0000
0000
0000
0000
1000
0000
0001
0000
0100
0000
0000
0100
0000
0000
0001
0010
,  // measure 6
0000
0000
0000
0000
1000
0000
0010
0000
0100
0000
0000
0100
0000
0000
0011
0000
,  // measure 7
0000
0000
0010
0000
0001
0100
0010
0100
0001
0000
1000
0200
0000
0000
0000
0300
,  // measure 8
0010
0000
0001
1000
0010
0000
1000
0001
0100
0000
0000
0100
0000
0000
0001
0010
,  // measure 9
0000
0010
1000
0000
0010
0000
0001
0000
0100
0000
0000
0100
0001
0000
1000
0000
,  // measure 10
0010
0000
1000
0001
0020
0030
0001
1000
0100
0000
0000
0100
1000
0000
0100
0000
,  // measure 11
1000
0000
0001
0000
0010
0000
0001
1000
0100
1000
0002
0003
0100
0000
0000
0000
,  // measure 12
0001
0000
0100
0001
1000
0000
0100
1000
0001
0000
0000
0001
0000
0000
0100
0010
,  // measure 13
0000
0010
0100
0000
0001
0000
0010
0000
1000
0000
0000
1000
0020
0030
0020
0030
,  // measure 14
0100
0000
1000
0001
0100
0000
0001
1000
0100
0000
0000
0100
0000
0000
0010
0000
,  // measure 15
0001
0000
0100
0000
0010
0000
1000
0000
1010
0000
0000
0101
0000
0000
0011
0000
,  // measure 16
0010
0000
0100
1000
0010
0000
1000
0100
0010
0000
0010
0001
0000
0001
1000
0100
,  // measure 17
0000
0100
1000
0000
0010
0000
0001
0000
0010
0000
1000
0100
0020
0130
0020
0030
,  // measure 18
0100
0000
1000
0001
0100
0000
0010
0000
0110
0000
0000
1001
0000
0000
0021
0000
,  // measure 19
1000
0000
0100
0000
0032
0000
0000
1000
0000
1003
0010
0000
0220
0330
0000
0000
,  // measure 20
1000
0000
0001
0100
0010
0000
0100
0000
0001
0000
0010
0100
0000
0010
0001
1000
,  // measure 21
0000
1000
0001
0000
0100
0000
0010
0000
1000
0100
0000
0010
0000
0100
2000
3000
,  // measure 22
0001
0000
1000
0010
0100
0000
0001
0000
1000
0000
0001
0010
0000
0100
1000
0001
,  // measure 23
0000
0001
1000
0000
0010
1000
0100
1000
0010
0000
0100
0002
0010
0000
0010
0000
,  // measure 24
0103
0000
1000
0100
0010
0000
0010
0000
1000
0000
0010
0100
0000
0010
1000
0001
,  // measure 25
0000
0001
1000
0000
0010
0000
0100
0000
0001
0010
0000
0100
0000
0010
0002
0003
,  // measure 26
1000
0000
0001
0100
0010
0000
1000
0000
0100
0000
0010
0100
0000
0010
0001
1000
,  // measure 27
0000
1000
0100
0000
0010
0100
0010
0100
1000
0000
0100
0001
0000
0100
1000
0000
,  // measure 28
1100
0000
0100
0010
0001
0000
0100
0010
0002
0000
0013
1000
0000
1000
0100
0010
,  // measure 29
0000
0010
1000
0000
0010
0000
0001
0100
0010
0100
0001
0000
0001
0000
0020
0030
,  // measure 30
0001
0000
0100
0010
1000
0000
0100
0010
2000
0000
3010
0001
0000
0000
0001
1000
,  // measure 31
0001
0000
0010
1000
0000
0010
0001
0000
0100
0000
0010
0000
0100
0000
0001
0000
,  // measure 32
1000
0000
0010
0100
0001
0000
0010
0100
0002
0000
0103
1000
0000
1000
0010
0100
,  // measure 33
0000
0100
0001
0000
0010
0000
0001
0010
0100
0010
0001
0000
1000
0100
0020
0030
,  // measure 34
1100
0000
0000
0000
1010
0000
0000
0000
0011
0000
0000
0101
0000
0000
1100
0000
,  // measure 35
1000
0001
0010
0000
0010
0000
0100
1000
0100
0000
0100
1000
0002
0003
0000
0000
,  // measure 36
0001
0000
0010
0000
1000
0000
0010
0000
0100
0000
0100
0010
0000
0010
0100
0000
,  // measure 37
0001
0100
1000
0000
0100
0000
0001
0000
0100
0000
0100
0010
0000
0010
0100
0000
,  // measure 38
1000
0000
0010
0000
0001
0000
0010
0000
0100
0000
0100
0010
0000
0010
0100
0000
,  // measure 39
1000
0100
0001
0000
0100
0000
0010
0000
0001
0000
0020
0000
2030
0000
3100
0000
,  // measure 40
1000
0000
1000
0000
0010
0000
1000
0000
0001
0010
0000
1000
0000
0000
1000
0010
,  // measure 41
0000
0010
0001
0000
0100
0000
0010
0000
0001
0010
0000
1000
0002
0003
0002
0003
,  // measure 42
0100
0000
0000
0000
0001
0000
0010
0000
0100
0000
1000
0001
0000
0000
1000
0001
,  // measure 43
1000
0000
0010
0000
0100
0000
0001
1000
0100
0000
1000
0100
0000
1000
0100
0010
,  // measure 44
0001
0000
0100
0001
1000
0000
0100
1000
0001
0000
0000
0001
0000
0000
0100
0010
,  // measure 45
0000
0010
0100
0000
0001
0000
0010
0000
1000
0000
0000
1000
0020
0030
0020
0030
,  // measure 46
0001
0000
0000
0000
1000
0000
0010
0000
0001
0000
0010
1000
0000
0000
0001
1000
,  // measure 47
0001
0000
0100
0000
1000
0000
0100
0001
0000
0000
1000
0000
0110
0000
0000
0000
,  // measure 48
1000
0000
0010
1000
0001
0000
0010
0001
1000
0000
0000
1000
0000
0000
0100
0010
,  // measure 49
0000
0010
0100
0000
1000
0000
0001
0000
0100
0000
0000
0100
0020
0030
0020
0030
,  // measure 50
2000
0000
0000
0000
0000
0000
3010
0000
1000
0000
0001
0000
0000
0000
0001
0100
,  // measure 51
0020
0200
0001
1331
,  // measure 52
1010
0000
0010
1000
0001
0000
0001
0000
1000
0000
0010
0100
0000
0000
0100
0001
,  // measure 53
0000
0000
0010
0001
1000
0000
1000
0000
0100
0000
0010
0100
2000
3000
2000
3000
,  // measure 54
0001
0000
0010
0000
0001
0010
0100
1000
0001
0000
1000
0001
0000
0000
0101
0000
,  // measure 55
0000
0000
0010
1000
0100
0000
1000
0001
0000
0000
0021
0000
0230
0000
1300
0000
,  // measure 56
0100
0000
0010
0001
1000
0000
1000
0000
0001
0000
0010
0100
0000
0000
0100
1000
,  // measure 57
0000
0000
0010
1000
0001
0000
0100
0000
0001
0000
0100
0010
2000
3000
2000
3000
,  // measure 58
0010
0000
1000
0001
0010
0000
1000
0000
1010
0000
0000
0110
0000
0000
0012
0000
,  // measure 59
1000
0000
0010
0000
0203
0000
0000
0310
0000
0010
2000
3000
0001
0000
1000
0010
,  // measure 60
1000
0000
0000
0000
1000
0000
0001
0000
0100
0001
0000
1000
0000
0000
0001
0010
,  // measure 61
0001
0000
1000
0000
0100
1000
0000
0001
0000
0000
0100
0000
0001
0000
1000
0010
,  // measure 62
1000
0000
0000
0000
0001
0000
0010
0000
0100
0010
0000
0001
0000
0000
0100
0000
,  // measure 63
0010
0000
1000
0020
0000
0000
0030
0000
1100
0000
0000
1100
0000
0000
1100
0000
,  // measure 64
0001
0000
0000
0000
0010
0000
0100
0000
1000
0000
0100
0010
0000
0001
1000
0000
,  // measure 65
0010
0000
0100
0000
1000
0000
0100
0010
0000
0010
0100
0000
2002
3003
0000
0000
,  // measure 66
1000
0000
0000
0000
0010
0000
0100
0000
0001
0000
0100
0010
0000
1000
0001
0000
,  // measure 67
0010
0000
0100
0000
0001
0000
0100
0010
0001
0000
0000
0101
0000
0000
1001
0000
,  // measure 68
1000
0000
0010
0000
0001
0000
0010
0000
0100
0000
0010
1000
0000
0001
0100
0000
,  // measure 69
0001
0000
0010
0000
0100
0000
0010
1000
0000
1000
0010
0000
0001
0010
0100
0000
,  // measure 70
1000
0000
0000
0000
0022
0033
0000
0000
1010
0000
0000
0110
0000
0000
0202
0303
,  // measure 71
0000
0000
0001
0000
0010
0100
1000
0100
0010
0000
0001
0100
0000
0000
0000
0000
;
