#VERSION:0.83;
#TITLE:A.M.;
#SUBTITLE:;
#ARTIST:Lonr;
#TITLETRANSLIT:;
#SUBTITLETRANSLIT:;
#ARTISTTRANSLIT:;
#GENRE:;
#ORIGIN:;
#CREDIT:;
#BANNER:;
#BACKGROUND:;
#PREVIEWVID:;
#JACKET:;
#CDIMAGE:;
#DISCIMAGE:;
#LYRICSPATH:;
#CDTITLE:;
#MUSIC:am.ogg;
#OFFSET:-0.411000;
#SAMPLESTART:41.510830;
#SAMPLELENGTH:12.000000;
#SELECTABLE:YES;
#BPMS:0.000=145.986;
#STOPS:;
#DELAYS:;
#WARPS:;
#TIMESIGNATURES:0.000=4=4;
#TICKCOUNTS:0.000=4;
#COMBOS:0.000=1;
#SPEEDS:0.000=1.000=0.000=0;
#SCROLLS:0.000=1.000;
#FAKES:;
#LABELS:0.000=Song Start;
#BGCHANGES:;
#KEYSOUNDS:;
#ATTACKS:
;

//---------------dance-single - ----------------
#NOTEDATA:;
#CHARTNAME:;
#STEPSTYPE:dance-single;
#DESCRIPTION:;
#CHARTSTYLE:;
#DIFFICULTY:Challenge;
#METER:12;
#RADARVALUES:0.399333,0.461467,0.388504,0.094757,0.000000,295.000000,254.000000,41.000000,10.000000,0.000000,0.000000,0.000000,0.000000,0.000000,0.399333,0.461467,0.388504,0.094757,0.000000,295.000000,254.000000,41.000000,10.000000,0.000000,0.000000,0.000000,0.000000,0.000000;
#CREDIT:;
#NOTES:
// measure 0
0000
0000
0000
0000
,  // measure 1
0000
0000
0000
0000
,  // measure 2
0000
0000
0000
0000
,  // measure 3
0000
0000
0000
1010
,  // measure 4
1000
0000
1000
0100
1000
0100
0000
1000
,  // measure 5
0001
0001
1000
0011
,  // measure 6
0010
0000
0001
0010
0001
0010
0000
0100
,  // measure 7
0001
1000
0001
1001
,  // measure 8
0010
0000
0100
0010
0100
0010
0000
0100
,  // measure 9
0001
0010
0100
0110
,  // measure 10
0010
0000
0001
1000
0001
1000
0000
0010
,  // measure 11
1000
0100
0010
1100
,  // measure 12
1000
0000
0010
1000
0100
1000
0001
0000
,  // measure 13
0010
0001
0010
0000
0100
0000
0101
0000
,  // measure 14
0000
0000
0001
0100
0010
0100
0001
0000
,  // measure 15
0010
1000
0010
0000
1000
0000
1010
0000
,  // measure 16
0010
0000
1000
0010
1000
0001
1000
0000
,  // measure 17
0001
1000
0100
0000
0010
0100
0000
0000
,  // measure 18
0110
0000
0001
0000
0100
0001
0000
0000
,  // measure 19
1001
0000
0010
0000
0001
1000
1001
0000
,  // measure 20
0000
0000
0010
1000
0010
0000
0001
0000
,  // measure 21
1001
0000
0010
0001
0010
0000
0011
0000
,  // measure 22
0100
0000
1000
0100
1000
0000
0001
0000
,  // measure 23
1000
1001
1100
0101
,  // measure 24
0001
0000
0010
0000
0001
1000
0001
0000
,  // measure 25
0010
0000
0100
0001
0100
0000
0201
0000
,  // measure 26
0000
1000
0000
0301
,  // measure 27
0010
0100
1000
1100
,  // measure 28
0100
1000
0100
0000
0010
0000
1010
0000
,  // measure 29
1000
0010
1000
0000
0010
0000
0011
0000
,  // measure 30
0001
0010
0001
0000
0100
0000
0101
0000
,  // measure 31
0001
0010
0100
0000
1000
0000
1010
0000
,  // measure 32
1000
0100
0010
0000
0100
0000
0110
0000
,  // measure 33
0010
0100
0010
0000
0001
0000
0011
0000
,  // measure 34
0001
0010
1000
0000
0001
0000
1010
0000
,  // measure 35
1000
0010
0001
0000
1000
0000
0210
0000
,  // measure 36
0001
0002
0300
0000
,  // measure 37
0023
0000
0000
1000
,  // measure 38
0000
0130
0002
0000
,  // measure 39
0020
0003
0000
0000
0032
0000
1000
0000
,  // measure 40
0000
2003
0000
0000
,  // measure 41
3010
0000
0001
1000
,  // measure 42
0000
0100
0000
1100
,  // measure 43
0010
0001
0010
0000
0001
0000
0011
0000
,  // measure 44
0000
0000
0100
1000
0100
0000
1000
0000
,  // measure 45
1010
0000
1000
0010
1000
0001
0100
0000
,  // measure 46
0101
0001
0100
0001
1000
0000
1001
0000
,  // measure 47
0001
0010
0100
0110
,  // measure 48
1000
0000
0100
0000
1000
0010
1000
0000
,  // measure 49
0001
1000
0010
1001
,  // measure 50
1000
0000
0001
0100
0001
0000
1000
0000
,  // measure 51
0100
1000
0010
1001
,  // measure 52
1000
0001
0010
0000
0001
0000
0011
0000
,  // measure 53
0010
0001
0100
0000
0001
0000
0101
0000
,  // measure 54
0010
1000
0100
0000
1000
0000
1100
0000
,  // measure 55
1000
0010
1000
0000
0010
0000
0110
0000
,  // measure 56
0001
0100
0001
0000
1000
0000
0011
0000
,  // measure 57
0010
0100
1000
0000
1000
0000
1010
0000
,  // measure 58
1000
0100
0010
0000
0001
0000
0101
0000
,  // measure 59
1000
0010
1000
0000
0001
0000
2002
0000
,  // measure 60
0000
0000
0000
0000
0000
0000
0000
3003
;
