#TITLE:7 Rings;
#SUBTITLE:;
#ARTIST:Ariana Grande;
#TITLETRANSLIT:;
#SUBTITLETRANSLIT:;
#ARTISTTRANSLIT:;
#GENRE:;
#CREDIT:SupremeX;
#BANNER:7 rings-bn.png;
#BACKGROUND:7 rings-bg.png;
#LYRICSPATH:;
#CDTITLE:cdtitle.png;
#MUSIC:7 Rings.ogg;
#OFFSET:-0.759025;
#SAMPLESTART:55.400002;
#SAMPLELENGTH:12.000000;
#SELECTABLE:YES;
#BPMS:0.000000=140.029999
;
#STOPS:
;
#BGCHANGES:;
#KEYSOUNDS:;
#ATTACKS:;

//---------------dance-single - ----------------
#NOTES:
     dance-single:
     :
     Hard:
     11:
     0.376391,0.504525,0.504525,0.432450,0.164171,329.000000,266.000000,63.000000,54.000000,0.000000,0.000000,0.376391,0.504525,0.504525,0.432450,0.164171,329.000000,266.000000,63.000000,54.000000,0.000000,0.000000:
0000
0000
0000
0000
,
0000
0000
0000
0000
,
0000
0000
0000
0000
,
0000
0000
0000
0000
,
1000
0000
0001
0000
,
1000
0000
0000
0000
0010
0000
0000
1000
,
1000
0000
0001
0000
,
0100
0000
0001
1000
,
2100
0010
3010
0000
,
0012
0100
0103
0000
,
2100
0001
3001
0000
,
0011
0000
1100
0000
,
0102
0010
0013
0000
,
2010
0100
3100
0000
,
0102
1000
1003
0000
,
0101
0000
1010
0000
,
0210
0000
0000
0001
0301
0000
0000
0000
,
0120
0000
0000
0000
1000
1030
0000
0000
,
0102
0000
0000
0010
0013
0000
0000
0000
,
2010
0000
0000
0000
0100
3100
0000
0000
,
0002
0000
2000
3003
,
0110
0000
1001
0000
,
2010
0001
3002
0100
,
0203
0000
0010
0000
0320
0000
0000
1030
,
2000
0000
0000
3100
1100
0000
0000
0010
,
0002
0000
0000
0000
0000
0000
0013
0000
0011
0000
0000
1000
0000
0000
0010
0000
,
0200
0000
0000
0310
1010
0000
0000
0100
,
0020
0000
0000
0130
0110
0010
0000
0000
,
2000
0000
0000
3100
1100
0000
0000
0100
,
0210
0000
0000
0301
0101
0000
0000
0010
,
0020
0000
0000
1030
0200
0000
0000
0310
,
0110
0000
0000
1000
1001
0000
0001
1000
,
0020
0000
0000
0130
0002
0000
0000
1003
,
0200
0000
0000
0000
0000
0000
1300
0000
0001
0000
0000
1001
0000
0000
1000
0000
,
1020
0000
0000
0100
0130
0000
0000
0001
,
0002
0000
0000
1003
1001
0001
0000
1000
,
1200
0000
0000
0310
0110
0000
0000
0001
,
0001
0000
0000
1000
1200
0000
0000
0010
,
0320
0000
0000
1030
1100
0000
0000
0001
,
0101
0000
0000
0010
1010
0000
0100
0000
,
0100
0000
0000
0000
0001
0000
1000
0000
0010
0000
0000
1000
0000
0000
0000
0000
,
0001
0000
0000
1000
0000
0000
0001
0000
1000
0000
0000
0100
0000
0000
0000
0000
,
1010
0000
0101
0000
,
1001
0000
1100
0110
,
0001
0000
0000
0000
0100
0001
0000
0000
0100
0000
0000
0010
1000
0001
1000
0001
,
0100
0000
0000
0010
1000
0000
0000
0000
1100
0000
0000
0000
0110
0000
0000
0000
,
0001
0000
0000
1000
0100
0000
0000
0000
1100
0000
0000
0000
0010
0000
0100
0000
,
0010
0000
1000
0001
0110
0000
1100
0000
,
1001
0000
0000
0000
0000
0000
0000
0000
0100
0000
0000
0010
0000
0000
1000
0000
0000
0001
0000
0000
0100
0000
0000
0010
0000
0000
0000
0000
0000
0000
0000
0000
,
1000
0000
0000
0100
0000
0000
0010
0000
0000
0001
0000
0000
1000
0000
0000
0001
0000
0000
0000
0000
0000
0000
0000
0000
0100
0000
0000
0010
0000
0000
1000
0000
,
0000
0001
0000
0000
0000
0000
0000
0000
1000
0000
0000
0010
0000
0000
0100
0000
0000
0001
0000
0000
1000
0000
0000
0010
0000
0000
0000
0000
0000
0000
0000
0000
,
0001
0000
0000
0100
0000
0000
0001
0000
0000
1000
0000
0000
0010
0000
0000
0100
0000
0000
0000
0000
0000
0000
0000
0000
0010
0000
0000
1000
0000
0000
0001
0000
,
0000
0100
0000
0000
0000
0000
0000
0000
0010
0000
0000
1000
0000
0000
0001
0000
0000
0100
0000
0000
0000
0000
0000
0000
0001
0000
0000
0000
0000
0000
1000
0000
,
0100
0000
0000
0100
0010
0000
0000
0010
0001
0000
0000
0000
1000
0000
0000
0000
,
0100
1010
0101
1000
,
0101
0000
1001
0000
2200
0000
3300
0010
,
0020
0000
0000
0130
0101
0000
0000
0001
,
0002
0000
0000
0000
0000
0000
0103
0000
0110
0000
0000
0001
0000
0000
1000
0000
,
2000
0000
0000
3100
1100
0000
0000
0001
,
0002
0000
0000
0103
0101
0020
0000
0100
,
0230
0000
0000
0301
1001
0000
0000
0010
,
0020
0000
0000
1030
2100
0000
3000
0010
,
0120
0000
0000
0130
0101
0000
0000
0010
,
0020
0000
0000
1030
1100
0000
0101
0000
,
0002
0000
2003
0000
,
3020
0000
0000
0000
0000
0000
0000
0000
1000
0000
0000
1030
0000
0000
0000
0000
,
0102
0000
2003
0000
,
3200
0000
0000
0000
0310
0020
0000
0000
,
0032
0000
2003
0000
,
3200
0000
0310
0000
,
1001
0000
0000
0000
;

//---------------dance-single - ----------------
#NOTES:
     dance-single:
     :
     Medium:
     7:
     0.278003,0.381196,0.144150,0.016017,0.000000,243.000000,225.000000,18.000000,2.000000,0.000000,0.000000,0.278003,0.381196,0.144150,0.016017,0.000000,243.000000,225.000000,18.000000,2.000000,0.000000,0.000000:
0000
0000
0000
0000
,
0000
0000
0000
0000
,
0000
0000
0000
0000
,
0000
0000
0000
0000
,
1000
0000
0010
0000
,
1000
0000
0000
0000
0001
0000
0000
0100
,
0100
0000
0010
0000
,
1000
0000
0001
0000
,
1000
0000
0010
0000
,
1000
0001
0100
0001
,
1001
0000
1000
0000
,
0010
0100
0001
1000
,
0110
0000
0001
0000
,
1000
0000
0001
0000
,
1001
0000
0100
0000
,
0010
1000
0001
0000
,
0100
0010
1000
0010
,
0100
0001
1010
0000
,
0001
0100
0010
1000
,
0001
0100
0101
0000
,
0010
0010
1000
1000
,
0001
0100
0110
0000
,
0001
1000
0010
0100
,
0001
0000
1000
0000
1100
0000
0000
0010
,
0010
0000
0000
0100
0001
0000
0000
1000
,
0010
0000
0000
0100
0001
0000
1000
0000
,
1010
0000
0000
0001
0001
0000
0000
0100
,
0100
0000
0000
0010
0010
0000
0000
0000
,
1000
0000
0000
0001
1000
0000
0000
0010
,
0100
0000
0000
0010
0010
0000
0000
1000
,
0001
0000
0000
0100
0100
0000
0000
0001
,
1000
0000
0000
0010
0010
0000
0000
1000
,
0010
0000
0000
0100
0100
0000
0000
0001
,
1000
0000
0000
0010
0010
0000
0000
1000
,
0010
0000
0000
0100
0100
0000
0000
0001
,
0100
0000
0000
0001
0001
0000
0000
1000
,
0001
0000
0000
0100
0100
0000
0000
0010
,
1000
0000
0000
0001
0001
0000
0000
0100
,
0010
0000
0000
1000
1000
0000
0000
0001
,
0100
0000
0000
0010
0010
0000
1000
0000
,
0010
0100
0001
0001
,
1000
0010
0100
0110
,
0001
1000
0010
1000
,
0001
1000
0010
0100
,
0001
1010
0001
0100
,
0110
1001
0110
1001
,
1000
1000
0010
0010
,
0100
0001
1000
0010
,
2000
0000
0010
3010
,
0002
0100
0103
0010
,
1000
0001
0100
0010
,
1000
0001
0100
0010
,
0010
0000
1000
0001
,
0100
0010
1000
0001
,
0100
0010
1000
0001
,
0100
0100
0110
0000
,
0001
0000
0000
1000
0100
0000
0000
0010
,
0010
0000
0000
0001
0010
0000
0000
1000
,
0010
0000
0000
0100
0100
0000
0000
0001
,
1000
0000
0000
0010
0010
0000
0000
1000
,
1000
0000
0000
0010
0100
0000
0000
0001
,
0100
0000
0000
0010
1000
0000
0000
1000
,
1000
0000
0000
0010
0100
0000
0000
0100
,
0100
0000
0000
0001
0001
0000
1000
0000
,
0010
0000
0100
0000
,
0001
0000
1000
0010
,
1000
0000
0110
0000
,
0001
0000
1100
0000
,
0110
0000
0000
0000
;

//---------------dance-single - ----------------
#NOTES:
     dance-single:
     :
     Easy:
     5:
     0.235674,0.270281,0.216225,0.000000,0.000000,206.000000,179.000000,27.000000,0.000000,0.000000,0.000000,0.235674,0.270281,0.216225,0.000000,0.000000,206.000000,179.000000,27.000000,0.000000,0.000000,0.000000:
0000
0000
0000
0000
,
0000
0000
0000
0000
,
0000
0000
0000
0000
,
0000
0000
0000
0000
,
1000
0000
0001
0000
,
1000
0000
0001
0000
,
1000
0000
0001
0000
,
1000
0000
0001
0000
,
0100
0010
0100
0100
,
0001
1000
0001
0001
,
1000
0010
0100
0100
,
0001
1000
0010
0010
,
0010
0000
1000
0000
,
0001
0100
0010
0000
,
1000
0000
0010
0000
,
0100
0001
0010
0000
,
0100
0100
1000
1000
,
0010
0100
0010
0000
,
1000
1000
0001
0001
,
0100
0010
0100
0000
,
0010
1000
0010
1000
,
0001
1000
0001
0000
,
0100
0001
0100
0010
,
1000
0010
1000
0000
,
1001
0000
0110
0000
,
1001
0000
1100
0000
,
0011
0000
0110
0000
,
1100
0000
0101
0000
,
1010
0000
1001
0000
,
0110
0000
0011
0000
,
1100
0000
1010
0000
,
0101
0000
0000
0000
1010
0000
0000
0001
,
0001
0000
0000
1000
1000
0000
0000
0001
,
0001
0000
0000
1000
1000
0000
0000
0001
,
0001
0000
0000
1000
1000
0000
0000
0001
,
0001
0000
0000
1000
1000
0000
0000
0000
,
0010
0000
0010
0000
,
0100
0000
0000
0000
0100
0000
0000
0010
,
0010
0000
0000
0100
0100
0000
0000
0010
,
0010
0000
0000
0100
0100
0000
0000
0000
,
0001
0000
1001
0000
,
1000
0000
1001
0000
,
0010
0000
0110
0000
,
0100
0000
0110
0000
,
0001
0001
0001
0000
,
1000
1000
1000
0000
,
0010
0100
0010
1000
,
0010
0100
0010
0100
,
0100
0001
0001
0001
,
0000
1000
0001
0000
,
1000
0000
0010
0100
,
0000
0010
0100
0001
,
0001
1000
1000
0000
,
0010
0100
0010
0000
,
1000
0000
1001
0000
,
0001
0010
0100
0000
,
1000
0000
0110
0000
,
0001
0000
0110
0000
,
1000
0000
0110
0000
,
0001
0000
0000
0000
0110
0000
0000
1000
,
1000
0000
0000
0001
0001
0000
0000
1000
,
1000
0000
0000
0001
0001
0000
0000
0000
,
1000
0000
1010
0000
,
0100
0000
0101
0000
,
0010
0000
0010
0000
,
0010
0000
0010
0000
,
1000
0000
1000
0000
,
1000
0000
1000
0000
;

//---------------dance-single - Copied from----------------
#NOTES:
     dance-single:
     Copied from:
     Beginner:
     4:
     0.152158,0.205013,0.144150,0.000000,0.000000,133.000000,115.000000,18.000000,0.000000,0.000000,0.000000,0.152158,0.205013,0.144150,0.000000,0.000000,133.000000,115.000000,18.000000,0.000000,0.000000,0.000000:
0000
0000
0000
0000
,
0000
0000
0000
0000
,
0000
0000
0000
0000
,
0000
0000
0000
0000
,
0001
0000
0000
0000
,
1000
0000
0000
0000
,
0001
0000
0000
0000
,
1000
0000
0000
0000
,
0010
0000
0010
0000
,
0010
0000
0010
0000
,
0100
0000
0100
0000
,
0100
0000
0100
0000
,
0001
0000
0001
0000
,
1000
0000
1000
0000
,
0010
0000
0010
0000
,
0100
0000
0100
0000
,
0001
0000
1000
0000
,
0001
0000
0100
0000
,
0010
0000
1000
0000
,
0010
0000
1000
0000
,
0001
0000
0001
0000
,
0100
0000
0010
0000
,
1000
0000
1000
0000
,
0010
0000
0100
0000
,
0001
0000
1001
0000
,
1000
0000
1001
0000
,
0001
0000
1001
0000
,
1000
0000
1001
0000
,
0010
0000
0110
0000
,
0100
0000
0110
0000
,
0010
0000
0110
0000
,
0100
0000
0110
0000
,
0001
0000
1000
0000
,
0001
0000
1000
0000
,
0010
0000
0100
0000
,
0010
0000
0100
0000
,
0001
0000
1000
0000
,
0001
0000
1000
0000
,
0010
0000
0110
0000
,
0100
0000
0110
0000
,
0001
0000
0001
0000
,
1000
0000
1000
0000
,
0010
0000
0010
0000
,
0100
0000
0100
0000
,
0001
0000
1000
0000
,
1000
0000
0001
0000
,
1000
0000
0010
0000
,
0010
0000
1000
0000
,
0001
0000
0100
0000
,
0010
0000
0000
0100
,
0000
0000
0010
0000
,
0100
0000
0000
0010
,
0000
1000
0000
0000
,
0001
0000
0100
0000
,
0010
0000
1000
0000
,
0010
0000
0010
0000
,
1000
0000
1001
0000
,
0001
0000
1001
0000
,
1000
0000
1010
0000
,
0001
0000
0101
0000
,
1000
0000
1001
0000
,
0001
0000
1001
0000
,
1000
0000
1010
0000
,
0001
0000
0101
0000
,
1000
0000
0000
0000
;
