#TITLE:4AEM;
#SUBTITLE:;
#ARTIST:Grimes;
#TITLETRANSLIT:;
#SUBTITLETRANSLIT:;
#ARTISTTRANSLIT:;
#GENRE:;
#CREDIT:;
#BANNER:4AEM-bn.png;
#BACKGROUND:4AEM-bg.jpg;
#LYRICSPATH:;
#CDTITLE:;
#MUSIC:01 - 4ĈM.mp3;
#OFFSET:-0.090627;
#SAMPLESTART:72.659920;
#SAMPLELENGTH:15.000000;
#SELECTABLE:YES;
#BPMS:0.000000=186.000000
,65.000000=93.000000
,77.000000=186.000000
,165.000000=93.000000
,185.500000=186.000000
,265.500000=93.000000
;
#STOPS:169.000000=2.300000
;
#BGCHANGES:;
#KEYSOUNDS:;
#ATTACKS:;

//---------------dance-single - ----------------
#NOTES:
     dance-single:
     :
     Hard:
     13:
     0.473834,0.626684,0.173327,0.204841,0.118177,421.000000,399.000000,22.000000,26.000000,0.000000,0.000000,0.473834,0.626684,0.173327,0.204841,0.118177,421.000000,399.000000,22.000000,26.000000,0.000000,0.000000:
// measure 0
0000
0000
0000
0000
,  // measure 1
0000
0000
0000
0000
,  // measure 2
0000
0000
0000
0000
,  // measure 3
0000
0000
0000
0000
,  // measure 4
0000
0000
0000
0000
,  // measure 5
0000
0000
0000
0000
,  // measure 6
0000
0000
0000
0000
,  // measure 7
0000
0000
0000
0000
,  // measure 8
0000
0202
0000
0000
,  // measure 9
0000
0000
0000
0000
,  // measure 10
0303
2020
0000
0000
,  // measure 11
0000
0000
0000
0000
,  // measure 12
3030
0000
0001
1000
0001
1000
0001
1000
,  // measure 13
0001
1000
0010
0100
0010
0100
0010
0100
,  // measure 14
0010
0100
0001
0010
0100
1000
0001
0010
,  // measure 15
0100
1000
0010
0100
0001
1000
0010
0100
,  // measure 16
0001
0000
0010
0000
0100
0000
1000
0000
0000
1000
0000
0001
0000
0001
0000
0100
,  // measure 17
0000
0000
0010
0000
1000
0000
0001
0000
0100
0100
0000
0001
0000
0001
0000
0100
,  // measure 18
0000
0000
0010
0000
1001
0000
0100
0000
0000
1000
0000
1000
0000
0010
0000
0010
,  // measure 19
0000
0100
0100
0000
0010
1000
0000
0100
,  // measure 20
1100
0000
1000
0001
1000
0020
0000
0100
,  // measure 21
0130
0000
0001
0000
0001
0010
0000
0010
,  // measure 22
0011
0000
1000
0010
1000
0200
0000
1000
,  // measure 23
1300
0000
0010
0000
0010
1000
0000
1000
,  // measure 24
1001
0000
0001
0100
0001
0020
0000
0100
,  // measure 25
0130
0000
0010
0000
0010
0001
0000
0001
,  // measure 26
0101
0000
0100
0010
1000
0200
0000
1000
,  // measure 27
1300
0000
0010
0000
0010
0100
0000
0100
,  // measure 28
0110
0000
0100
0001
1000
0002
0000
0100
,  // measure 29
0103
0000
0001
0100
0010
0010
1000
0100
,  // measure 30
0010
0010
0001
1000
0100
0100
1000
0001
,  // measure 31
0100
0100
0002
0000
0010
0000
0100
0000
,  // measure 32
1003
0000
1000
0100
0001
0100
1000
0100
,  // measure 33
0001
0100
1000
0010
0100
0100
0001
0010
,  // measure 34
0100
0100
1000
0001
0010
0010
0001
1000
,  // measure 35
0010
0010
2000
0000
0100
0000
0010
0000
,  // measure 36
3001
0000
0001
0010
1000
0010
0001
0010
,  // measure 37
1000
0010
0001
0000
0001
0100
0000
0010
,  // measure 38
0110
0000
1000
0010
0100
0002
0000
1000
,  // measure 39
1003
0000
0100
0000
0100
1000
0000
1000
,  // measure 40
1001
0000
1000
0010
0001
0010
1000
0010
,  // measure 41
0001
0000
0010
0000
1000
0000
0000
0100
1000
0000
0100
0000
0010
0000
0000
0000
,  // measure 42
0001
0100
1001
0202
0000
0000
0000
0000
,  // measure 43
0000
0000
0000
0000
0303
0000
2000
0000
0000
0000
0000
0000
0000
0200
0000
0000
,  // measure 44
3300
0000
0000
0000
0010
0000
0020
0000
0000
0000
0000
0001
0030
0001
0000
1000
,  // measure 45
0000
1000
0000
0000
0010
0000
0100
0000
0001
0000
1000
1000
0000
0100
0000
0010
,  // measure 46
0000
0001
0000
0000
0001
0000
1001
0000
0000
0000
0001
0000
1000
0000
0000
0000
,  // measure 47
0001
0011
0000
1000
0001
1000
0200
0000
,  // measure 48
1000
1300
0000
0010
0000
0010
0100
0000
,  // measure 49
0001
1001
0000
0001
0100
0001
0020
0000
,  // measure 50
0100
0130
0000
1000
0000
1000
0010
0000
,  // measure 51
0010
0110
0000
0100
0001
0100
0020
0000
,  // measure 52
1000
1030
0000
0100
0000
0100
0010
0000
,  // measure 53
0010
0011
0000
0010
0001
0010
0200
0000
,  // measure 54
1000
1300
0000
0001
1000
0001
0001
0010
,  // measure 55
0100
1000
1000
0010
0100
0001
0001
0100
,  // measure 56
0010
1000
1000
0002
0000
0010
0000
0100
,  // measure 57
0000
1003
0000
0001
0100
1000
0100
0001
,  // measure 58
0100
1000
0100
0001
0010
0100
0100
1000
,  // measure 59
0010
0100
0100
0001
1000
0010
0010
0100
,  // measure 60
0001
0010
0010
0002
0000
1000
0000
0100
,  // measure 61
0000
0013
0000
0001
0010
1000
0010
0001
,  // measure 62
0010
1000
0010
0001
1000
0001
2000
0000
,  // measure 63
3100
0100
0000
1000
0010
0100
0020
0000
,  // measure 64
0100
0130
0000
0001
0100
0001
0200
0000
,  // measure 65
0001
0301
0000
1000
0100
0001
0100
1000
,  // measure 66
0100
0000
0001
0000
0100
0000
1000
0000
0010
0100
0010
0000
0100
0000
0001
0000
,  // measure 67
1000
0000
1010
0000
0010
0000
1000
0000
0001
0100
0001
0000
1000
0000
0001
0000
,  // measure 68
0100
0000
0110
0000
0010
0000
1000
0000
0100
0010
0001
0000
1000
0000
0001
0000
,  // measure 69
0100
0000
0101
0000
0001
0000
1000
0000
0010
0100
0001
0000
1000
0000
0100
0000
,  // measure 70
1000
0000
1100
0000
0001
0000
0100
0000
0010
1000
0100
0000
1000
0000
0001
0000
,  // measure 71
0100
0000
0110
0000
0010
0000
0100
0000
0001
0010
0100
0000
1000
0000
0001
0000
,  // measure 72
0100
0000
0001
0010
0100
1000
0000
0000
0000
0000
0000
0000
0000
0000
0000
0000
;

//---------------dance-single - ----------------
#NOTES:
     dance-single:
     :
     Beginner:
     4:
     0.112550,0.255706,0.000000,0.015757,0.000000,100.000000,100.000000,0.000000,2.000000,0.000000,0.000000,0.112550,0.255706,0.000000,0.015757,0.000000,100.000000,100.000000,0.000000,2.000000,0.000000,0.000000:
0000
0000
0000
0000
,
0000
0000
0000
0000
,
0000
0000
0000
0000
,
0000
0000
0000
0000
,
0000
0000
0000
0000
,
0000
0000
0000
0000
,
0000
0000
0000
0000
,
0000
0000
0000
0000
,
0000
2000
0000
0000
,
0000
0000
0000
0000
,
3000
0002
0000
0000
,
0000
0000
0000
0000
,
0003
0000
0000
0000
,
0000
0000
0000
0000
,
0000
0000
0000
0000
,
0000
0000
0000
0000
,
0000
0100
0000
0100
,
0000
0100
0000
0010
,
0000
0010
0000
0010
,
0000
0010
0000
0000
,
0000
0010
0000
0000
,
0000
0100
0000
0000
,
0000
0100
0000
0000
,
0000
0001
0000
0000
,
0000
0001
0000
0000
,
0000
1000
0000
0000
,
0000
1000
0000
0000
,
0000
0100
0000
0000
,
0000
0100
0000
0000
,
0000
0010
0010
0000
,
0000
0001
0001
0000
,
0000
0100
0100
0000
,
0000
0010
0010
0000
,
0000
1000
1000
0000
,
0000
0100
0100
0000
,
0000
0010
0010
0000
,
0000
0001
0001
0000
,
0000
0100
0000
0100
,
0000
0100
0000
0100
,
0000
0010
0000
0010
,
0000
0010
0000
0010
,
0000
1000
0000
1000
,
0000
0001
0000
0000
,
0000
0000
0000
0000
,
0000
0000
0000
0000
,
0000
0000
0000
0000
,
0000
0000
0000
1000
0000
0000
0000
0000
,
0000
0000
0000
0001
0000
0000
0000
0000
,
0000
0000
0000
0100
0000
0000
0000
0000
,
0000
0000
0000
0010
0000
0000
0000
0000
,
0000
0000
0000
1000
0000
0000
0000
0000
,
0000
0000
0000
1000
0000
0000
0000
0000
,
0000
0000
0000
0001
0000
0000
0000
0000
,
0000
0000
0000
0001
0000
0000
0000
0000
,
0000
0000
0000
0100
0000
0000
0000
0000
,
0000
0000
0000
0100
0000
0000
0000
0000
,
0000
0000
0000
0100
0000
0000
0000
0000
,
0000
0000
0000
0100
0000
0100
0000
0100
,
0000
0100
0000
0000
0000
0010
0000
0000
,
0000
0010
0000
0000
0000
0010
0000
0000
,
0000
0010
0000
0000
0000
0000
0000
0000
,
0000
0000
0000
0010
0000
0010
0000
0010
,
0000
0010
0000
0000
0000
0001
0000
0000
,
0000
0001
0000
0000
0000
0001
0000
0000
,
0000
1000
0000
0000
0000
1000
0000
0000
,
0000
1000
0000
0000
0000
0100
0000
0000
,
0000
0100
0000
0010
0000
0010
0000
0010
,
0000
0001
0000
0001
0000
0001
0000
0100
,
0000
0100
0000
0100
0000
0010
0000
0010
,
0000
0010
0000
1000
0000
1000
0000
1000
,
0000
0100
0000
0010
0000
0001
0000
0100
,
0000
0010
0000
1000
0000
0001
0000
0100
,
0000
0010
0000
0000
0000
0000
0000
0000
;

//---------------dance-single - ----------------
#NOTES:
     dance-single:
     :
     Easy:
     7:
     0.192460,0.369353,0.023635,0.031514,0.000000,171.000000,168.000000,3.000000,4.000000,0.000000,0.000000,0.192460,0.369353,0.023635,0.031514,0.000000,171.000000,168.000000,3.000000,4.000000,0.000000,0.000000:
0000
0000
0000
0000
,
0000
0000
0000
0000
,
0000
0000
0000
0000
,
0000
0000
0000
0000
,
0000
0000
0000
0000
,
0000
0000
0000
0000
,
0000
0000
0000
0000
,
0000
0000
0000
0000
,
0000
2002
0000
0000
,
0000
0000
0000
0000
,
3003
0220
0000
0000
,
0000
0000
0000
0330
,
0000
0001
0000
0001
,
0000
0100
0000
0100
,
0000
0010
0000
0010
,
0000
1000
0000
1000
,
0000
0001
0000
0000
,
0000
1000
0000
0000
,
0000
0100
0000
0000
,
0000
0010
0000
0010
,
0000
0001
0000
0001
,
0000
0100
0000
0100
,
0000
0010
0000
0010
,
0000
1000
0000
1000
,
0000
0100
0000
0100
,
0000
0010
0000
0010
,
0000
0001
0000
0001
,
0000
0100
0000
0100
,
0000
0010
0000
0010
,
0000
1000
1000
1000
,
1000
0000
0001
0000
,
0001
0000
1000
0000
,
1000
0010
0010
0010
,
0010
0000
0100
0000
,
0100
0000
0100
0000
,
0100
0000
0001
0000
,
0001
1000
1000
1000
,
1000
0000
0010
0000
,
0010
0000
0100
0000
,
0100
0000
0001
0000
,
0001
0010
0010
0010
,
0010
0010
0100
1000
,
0010
0000
0110
0100
0000
0000
0000
0000
,
0000
0000
0000
0010
0000
0000
0000
0000
,
0000
0000
0000
1000
0000
0000
0000
0000
,
0000
0000
0000
0100
0000
0000
0000
0000
,
0000
0000
0000
0010
0000
0010
0000
0010
,
0000
0001
0000
0000
0000
0100
0000
0000
,
0000
0100
0000
0010
0000
0010
0000
0010
,
0000
1000
0000
0000
0000
1000
0000
0000
,
0000
1000
0000
0000
0000
0100
0000
0000
,
0000
0100
0000
0000
0000
0010
0000
0000
,
0000
0010
0000
0001
0000
0001
0000
0001
,
0000
0001
0000
0100
0000
0000
0000
0100
,
0000
0000
0000
0010
0000
0010
0000
0010
,
0000
0010
0000
1000
0000
1000
0000
1000
,
0000
1000
0000
0001
0000
0000
0000
0001
,
0000
0000
0000
0100
0000
0100
0000
0100
,
0000
0100
0000
0010
0000
0010
0000
0010
,
0000
0010
0000
1000
0000
0000
0000
0001
,
0000
0000
0000
1000
0000
1000
0000
1000
,
0000
1000
0000
0010
0000
0000
0000
0100
,
0000
0000
0000
0001
0000
0000
0000
0100
,
0000
0000
0000
0010
0000
0000
0000
1000
,
0000
0000
0000
0100
0000
0000
0000
0010
,
0000
0000
0000
0001
0000
0001
0000
0001
,
0000
0001
0000
1000
0100
1000
0000
0001
,
0100
0001
0000
0100
0010
0100
0000
0010
,
1000
0100
0000
0010
0001
0100
0000
0100
,
0001
1000
0000
1000
0100
1000
0000
0010
,
0100
0001
0000
0100
0001
1000
0000
1000
,
0100
0010
0000
0001
0010
0100
0000
1000
,
0001
1000
0000
0000
0000
0000
0000
0000
;

//---------------dance-single - ----------------
#NOTES:
     dance-single:
     :
     Medium:
     10:
     0.366912,0.454588,0.173327,0.031514,0.043332,326.000000,304.000000,22.000000,4.000000,0.000000,0.000000,0.366912,0.454588,0.173327,0.031514,0.043332,326.000000,304.000000,22.000000,4.000000,0.000000,0.000000:
0000
0000
0000
0000
,
0000
0000
0000
0000
,
0000
0000
0000
0000
,
0000
0000
0000
0000
,
0000
0000
0000
0000
,
0000
0000
0000
0000
,
0000
0000
0000
0000
,
0000
0000
0000
0000
,
0000
2002
0000
0000
,
0000
0000
0000
0000
,
3003
0220
0000
0000
,
0000
0000
0000
0000
,
0330
0000
0001
1000
0001
0000
1000
0001
,
1000
0000
0010
0100
0010
0000
0100
0010
,
0100
0000
0010
1000
0010
0000
1000
0010
,
1000
0000
0001
0100
0001
0000
0100
0001
,
0100
0000
0000
0000
0001
0000
0001
0000
0000
1000
0000
1000
0000
1000
0000
0010
,
0000
0000
0010
0000
0100
0000
0001
0000
1000
0000
0000
0100
0000
1000
0000
0001
,
0000
0000
0001
0000
0100
0000
0010
0000
0000
0010
0000
1000
0000
0100
0000
1000
,
0000
1000
0001
0000
1000
0100
0000
1000
,
0100
0000
1000
0000
0001
0100
0000
0001
,
0100
0000
0010
0000
1000
0010
0000
1000
,
0010
0000
0100
0000
0001
0100
0000
0001
,
0100
0000
0010
0000
0100
0010
0000
0100
,
0010
0000
1000
0000
0001
1000
0000
0001
,
1000
0000
0010
0000
1000
0010
0000
1000
,
0010
0000
1000
0000
0001
0100
0000
0001
,
0100
0000
0010
0000
0100
0010
0000
0100
,
0010
0000
1000
0000
0001
1000
0000
0001
,
1000
0000
1000
0000
0100
0000
0010
0001
,
0010
0000
0001
0000
0100
0000
0010
1000
,
0010
1000
0100
0010
,
0001
1001
1001
0110
,
0110
0000
0010
0000
0100
0000
0001
0100
,
0001
0000
1000
0000
0100
0000
0010
0001
,
0010
0001
0100
0010
,
1000
1010
1010
0101
,
0101
0000
0001
0000
0010
0001
0000
0010
,
0001
0000
1000
0000
0100
1000
0000
0100
,
1000
0000
0010
0000
0100
0010
0000
0100
,
0010
1010
1010
0101
,
0101
0000
0001
0100
1000
0000
1000
0100
,
0001
0100
0010
1000
0000
0000
0000
0000
,
0000
0000
0000
0000
,
0000
0000
0000
0001
0000
0000
0000
0000
,
0000
0000
0000
0100
0000
0000
0000
0000
,
0000
0000
0000
1000
0000
0100
1000
0000
,
0100
1000
0000
0010
0000
0100
0010
0000
,
0100
0010
0000
0100
0000
0001
0100
0000
,
0001
0100
0000
0010
0000
1000
0100
0000
,
1000
0100
0000
1000
0000
0001
1000
0000
,
0001
1000
0000
0010
0000
0100
0010
0000
,
0100
0010
0000
0100
0000
0001
0100
0000
,
0001
0100
0000
0010
0000
1000
0100
0000
,
1000
0100
0000
1000
0010
1000
0000
0001
,
0100
0001
0000
0100
0010
0100
0000
0010
,
1000
0010
0000
1000
0100
1000
0000
0100
,
0010
0100
0000
0011
0000
0011
0000
1100
,
0000
1100
0000
1000
0100
1000
0000
0001
,
0100
0001
0000
0100
0010
0100
0000
0010
,
1000
0010
0000
1000
0000
0100
0000
0010
,
0000
0001
0000
0011
0000
0011
0000
1100
,
0000
1100
0000
1000
0000
0001
1000
0000
,
0001
1000
0000
0010
0000
0100
0010
0000
,
0100
0010
0000
0001
0000
0100
0001
0000
,
0100
0001
0000
1000
0000
0010
1000
0000
,
0010
1000
0000
0100
0100
0100
0000
0010
,
0010
0010
0000
0001
1000
0100
1000
0001
,
0100
0001
0000
1000
1000
1000
0000
0010
,
0010
0010
0000
0100
0001
0010
0100
1000
,
0001
0100
0000
0010
0010
0010
0000
0100
,
0100
0100
0000
0001
0010
0100
1000
0001
,
1000
0001
0000
0000
0000
0000
0000
0000
;
